  0
SECTION
  2
HEADER
  9
$ACADVER
  1
AC1009
  9
$INSBASE
 10
0.0
 20
0.0
 30
0.0
  9
$EXTMIN
 10
9690.3459387321218
 20
1313.866218641235
 30
-0.0116174568323118
  9
$EXTMAX
 10
10441.805078889
 20
1835.5615593808409
 30
0.0074073315633427
  9
$LIMMIN
 10
0.0
 20
0.0
  9
$LIMMAX
 10
841.0
 20
594.0
  9
$ORTHOMODE
 70
     0
  9
$REGENMODE
 70
     1
  9
$FILLMODE
 70
     1
  9
$QTEXTMODE
 70
     0
  9
$MIRRTEXT
 70
     0
  9
$DRAGMODE
 70
     2
  9
$LTSCALE
 40
30.0
  9
$OSMODE
 70
     1
  9
$ATTMODE
 70
     1
  9
$TEXTSIZE
 40
15.37477870545081
  9
$TRACEWID
 40
1.0
  9
$TEXTSTYLE
  7
MONOTXT
  9
$CLAYER
  8
P-0
  9
$CELTYPE
  6
BYLAYER
  9
$CECOLOR
 62
   256
  9
$DIMSCALE
 40
0.0
  9
$DIMASZ
 40
10.0
  9
$DIMEXO
 40
4.0
  9
$DIMDLI
 40
6.0
  9
$DIMRND
 40
0.0
  9
$DIMDLE
 40
0.0
  9
$DIMEXE
 40
4.0
  9
$DIMTP
 40
0.0
  9
$DIMTM
 40
0.0
  9
$DIMTXT
 40
15.0
  9
$DIMCEN
 40
0.5
  9
$DIMTSZ
 40
0.0
  9
$DIMTOL
 70
     0
  9
$DIMLIM
 70
     0
  9
$DIMTIH
 70
     1
  9
$DIMTOH
 70
     1
  9
$DIMSE1
 70
     0
  9
$DIMSE2
 70
     0
  9
$DIMTAD
 70
     0
  9
$DIMZIN
 70
     0
  9
$DIMBLK
  1

  9
$DIMASO
 70
     1
  9
$DIMSHO
 70
     1
  9
$DIMPOST
  1

  9
$DIMAPOST
  1

  9
$DIMALT
 70
     0
  9
$DIMALTD
 70
     2
  9
$DIMALTF
 40
25.399999999999999
  9
$DIMLFAC
 40
1.0
  9
$DIMTOFL
 70
     0
  9
$DIMTVP
 40
0.0
  9
$DIMTIX
 70
     0
  9
$DIMSOXD
 70
     0
  9
$DIMSAH
 70
     0
  9
$DIMBLK1
  1

  9
$DIMBLK2
  1

  9
$DIMSTYLE
  2
STANDARD
  9
$DIMCLRD
 70
     4
  9
$DIMCLRE
 70
     4
  9
$DIMCLRT
 70
    90
  9
$DIMTFAC
 40
0.4
  9
$DIMGAP
 40
2.0
  9
$LUNITS
 70
     2
  9
$LUPREC
 70
     1
  9
$SKETCHINC
 40
0.1
  9
$FILLETRAD
 40
0.0
  9
$AUNITS
 70
     0
  9
$AUPREC
 70
     0
  9
$MENU
  1
acad
  9
$ELEVATION
 40
0.0
  9
$PELEVATION
 40
0.0
  9
$THICKNESS
 40
0.0
  9
$LIMCHECK
 70
     0
  9
$BLIPMODE
 70
     0
  9
$CHAMFERA
 40
3.0
  9
$CHAMFERB
 40
10.0
  9
$SKPOLY
 70
     0
  9
$TDCREATE
 40
2451089.29515706
  9
$TDUPDATE
 40
2454537.8793856599
  9
$TDINDWG
 40
5.1367807639
  9
$TDUSRTIMER
 40
5.1367807639
  9
$USRTIMER
 70
     1
  9
$ANGBASE
 50
0.0
  9
$ANGDIR
 70
     0
  9
$PDMODE
 70
    35
  9
$PDSIZE
 40
10.0
  9
$PLINEWID
 40
0.0
  9
$COORDS
 70
     1
  9
$SPLFRAME
 70
     0
  9
$SPLINETYPE
 70
     6
  9
$SPLINESEGS
 70
     8
  9
$ATTDIA
 70
     0
  9
$ATTREQ
 70
     1
  9
$HANDLING
 70
     1
  9
$HANDSEED
  5
1741EF
  9
$SURFTAB1
 70
    20
  9
$SURFTAB2
 70
    10
  9
$SURFTYPE
 70
     6
  9
$SURFU
 70
     6
  9
$SURFV
 70
     6
  9
$UCSNAME
  2

  9
$UCSORG
 10
0.0
 20
0.0
 30
0.0
  9
$UCSXDIR
 10
1.0
 20
0.0
 30
0.0
  9
$UCSYDIR
 10
0.0
 20
1.0
 30
0.0
  9
$PUCSNAME
  2

  9
$PUCSORG
 10
0.0
 20
0.0
 30
0.0
  9
$PUCSXDIR
 10
1.0
 20
0.0
 30
0.0
  9
$PUCSYDIR
 10
0.0
 20
1.0
 30
0.0
  9
$USERI1
 70
     0
  9
$USERI2
 70
     0
  9
$USERI3
 70
     0
  9
$USERI4
 70
     0
  9
$USERI5
 70
     0
  9
$USERR1
 40
0.0
  9
$USERR2
 40
0.0
  9
$USERR3
 40
0.0
  9
$USERR4
 40
0.0
  9
$USERR5
 40
0.0
  9
$WORLDVIEW
 70
     0
  9
$SHADEDGE
 70
     0
  9
$SHADEDIF
 70
    70
  9
$TILEMODE
 70
     1
  9
$MAXACTVP
 70
    16
  9
$PLIMCHECK
 70
     0
  9
$PEXTMIN
 10
-584.55320357008713
 20
-343.20147335403539
 30
-0.0000000349181948
  9
$PEXTMAX
 10
2437.2686113111499
 20
826.67192048887489
 30
0.0000000814935746
  9
$PLIMMIN
 10
-618.75592185663834
 20
-388.23522468376711
  9
$PLIMMAX
 10
2579.8945350324529
 20
1873.713179890492
  9
$UNITMODE
 70
     0
  9
$VISRETAIN
 70
     0
  9
$PLINEGEN
 70
     0
  9
$PSLTSCALE
 70
     0
  0
ENDSEC
  0
SECTION
  2
TABLES
  0
TABLE
  2
VPORT
 70
     1
  0
VPORT
  2
*ACTIVE
 70
     0
 10
0.0
 20
0.0
 11
1.0
 21
1.0
 12
1175.2077231689309
 22
-15.13581875227146
 13
0.0
 23
0.0
 14
1.0
 24
1.0
 15
5.0
 25
5.0
 16
0.0
 26
0.0
 36
1.0
 17
8890.8677856416307
 27
1589.8497077633101
 37
181.21804714287589
 40
525.76049923887535
 41
1.657997399219765
 42
50.0
 43
-4278.3874218969077
 44
-4278.3874218969077
 50
0.0
 51
0.0
 71
     0
 72
   100
 73
     1
 74
     1
 75
     0
 76
     0
 77
     0
 78
     0
  0
ENDTAB
  0
TABLE
  2
LTYPE
 70
     6
  0
LTYPE
  2
CONTINUOUS
 70
     0
  3
Solid line
 72
    65
 73
     0
 40
0.0
  0
LTYPE
  2
DISCONTINU
 70
     0
  3
__ __ __ __ __ __ __ __ __ __ __ __ __ __ __ __
 72
    65
 73
     2
 40
0.75
 49
0.5
 49
-0.25
  0
LTYPE
  2
AXES
 70
     0
  3
____ _ ____ _ ____ _ ____ _ ____ _ ____ _ ____ 
 72
    65
 73
     4
 40
2.0
 49
1.25
 49
-0.25
 49
0.25
 49
-0.25
  0
LTYPE
  2
CACHE
 70
     0
  3
__ __ __ __ __ __ __ __ __ __ __ __ __ __ __ __
 72
    65
 73
     2
 40
0.375
 49
0.25
 49
-0.125
  0
LTYPE
  2
CACHEX2
 70
     0
  3
____ ____ ____ ____ ____ ____ ____ ____ ____ __
 72
    65
 73
     2
 40
0.75
 49
0.5
 49
-0.25
  0
LTYPE
  2
AXESX2
 70
     0
  3
________  __  ________  __  ________  __  _____
 72
    65
 73
     4
 40
4.0
 49
2.5
 49
-0.5
 49
0.5
 49
-0.5
  0
ENDTAB
  0
TABLE
  2
LAYER
 70
    13
  0
LAYER
  2
0
 70
     0
 62
    12
  6
CONTINUOUS
  0
LAYER
  2
P2
 70
     0
 62
     6
  6
CONTINUOUS
  0
LAYER
  2
P0
 70
     0
 62
     1
  6
CONTINUOUS
  0
LAYER
  2
PLATINE
 70
     0
 62
     6
  6
CONTINUOUS
  0
LAYER
  2
FUSELAGE_186
 70
     0
 62
     5
  6
CONTINUOUS
  0
LAYER
  2
ASHADE
 70
     4
 62
     7
  6
CONTINUOUS
  0
LAYER
  2
AME_FRZ
 70
     0
 62
     7
  6
CONTINUOUS
  0
LAYER
  2
DEFPOINTS
 70
     0
 62
     7
  6
CONTINUOUS
  0
LAYER
  2
P-0
 70
     0
 62
     1
  6
CONTINUOUS
  0
LAYER
  2
FONDPLAN
 70
     0
 62
     7
  6
CONTINUOUS
  0
LAYER
  2
COTATION
 70
     0
 62
    90
  6
CONTINUOUS
  0
LAYER
  2
RADIO
 70
     0
 62
     2
  6
CONTINUOUS
  0
LAYER
  2
P3
 70
     0
 62
     3
  6
CONTINUOUS
  0
ENDTAB
  0
TABLE
  2
STYLE
 70
     3
  0
STYLE
  2
STANDARD
 70
     0
 40
0.0
 41
1.0
 50
0.0
 71
     0
 42
22.579138509910312
  3
ROMANS.SHX
  4

  0
STYLE
  2
ASHADE
 70
     0
 40
0.2
 41
1.0
 50
0.0
 71
     0
 42
20.216585246306749
  3
simplex
  4

  0
STYLE
  2
MONOTXT
 70
     0
 40
0.0
 41
1.0
 50
0.0
 71
     0
 42
15.37477870545081
  3
monotxt
  4

  0
ENDTAB
  0
TABLE
  2
VIEW
 70
     2
  0
VIEW
  2
VUE3D1
 70
     0
 40
1081.442750970381
 10
-211.95136047047779
 20
-125.58296972333611
 41
1012.542070430394
 11
0.0
 21
0.0
 31
1.0
 12
720.26380741363482
 22
1570.227247514084
 32
958.53326684328943
 42
50.0
 43
0.0
 44
0.0
 50
0.0
 71
     0
  0
ENDTAB
  0
TABLE
  2
UCS
 70
     0
  0
ENDTAB
  0
TABLE
  2
APPID
 70
     8
  0
APPID
  2
ACAD
 70
     0
  0
APPID
  2
AVE_RENDER
 70
     0
  0
APPID
  2
AME_SOL
 70
     0
  0
APPID
  2
AVE_ENTITY_MATERIAL
 70
     0
  0
APPID
  2
AVE_FINISH
 70
     0
  0
APPID
  2
AVE_MATERIAL
 70
     0
  0
APPID
  2
AVE_GLOBAL
 70
     0
  0
APPID
  2
ACAD_PSEXT
 70
     0
  0
ENDTAB
  0
TABLE
  2
DIMSTYLE
 70
     2
  0
DIMSTYLE
  2
STANDARD
 70
     0
  3

  4

  5

  6

  7

 40
1.0
 41
10.0
 42
1.5
 43
6.0
 44
1.8
 45
0.0
 46
0.0
 47
0.0
 48
0.0
140
5.0
141
0.5
142
0.0
143
25.399999999999999
144
1.0
145
0.0
146
0.4
147
2.0
 71
     0
 72
     0
 73
     1
 74
     1
 75
     0
 76
     0
 77
     0
 78
     0
170
     0
171
     2
172
     0
173
     0
174
     0
175
     0
176
     4
177
     4
178
    90
  0
DIMSTYLE
  2
STANDART2TOL
 70
     0
  3

  4

  5

  6

  7

 40
1.0
 41
3.0
 42
1.5
 43
6.0
 44
1.8
 45
0.0
 46
0.0
 47
0.5
 48
0.5
140
4.0
141
0.5
142
0.0
143
25.399999999999999
144
1.0
145
0.0
146
0.5
147
2.0
 71
     1
 72
     0
 73
     1
 74
     1
 75
     0
 76
     0
 77
     0
 78
     0
170
     0
171
     2
172
     0
173
     0
174
     0
175
     0
176
     4
177
     4
178
    90
  0
ENDTAB
  0
ENDSEC
  0
SECTION
  2
BLOCKS
  0
BLOCK
  8
0
  2
$MODEL_SPACE
 70
     0
 10
0.0
 20
0.0
 30
0.0
  3
$MODEL_SPACE
  1

  0
ENDBLK
  5
172484
  8
0
  0
BLOCK
 67
     1
  8
0
  2
$PAPER_SPACE
 70
     0
 10
0.0
 20
0.0
 30
0.0
  3
$PAPER_SPACE
  1

  0
ENDBLK
  5
172482
 67
     1
  8
0
  0
BLOCK
  8
0
  2
SEMAFOR
 70
     0
 10
0.0
 20
0.0
 30
0.0
  3
SEMAFOR
  1

  0
ENDBLK
  5
798
  8
0
  0
BLOCK
  8
0
  2
ACAD
 70
     0
 10
0.0
 20
0.0
 30
0.0
  3
ACAD
  1

  0
ENDBLK
  5
102D
  8
0
  0
BLOCK
  8
0
  2
AVE_RENDER
 70
     0
 10
0.0
 20
0.0
 30
0.0
  3
AVE_RENDER
  1
AVE_RENDER
  0
ENDBLK
  5
2E05
  8
0
  0
BLOCK
  8
0
  2
AME_NIL
 70
     0
 10
0.0
 20
0.0
 30
0.0
  3
AME_NIL
  1
AME_NIL
  0
ENDBLK
  5
335F
  8
0
  0
BLOCK
  8
0
  2
AME_SOL
 70
     0
 10
0.0
 20
0.0
 30
0.0
  3
AME_SOL
  1
AME_SOL
  0
ENDBLK
  5
3362
  8
0
  0
BLOCK
  8
ASHADE
  2
AVE_GLOBAL
 70
     0
 10
0.0
 20
0.0
 30
0.0
  3
AVE_GLOBAL
  1
AVE_GLOBAL
  0
ENDBLK
  5
17281D
  8
0
  0
BLOCK
  8
ASHADE
  2
RM_SDB
 70
     2
 10
0.0
 20
0.0
 30
0.0
  3
RM_SDB
  1
RM_SDB
  0
ATTDEF
  5
172C62
  8
ASHADE
  6
CONTINUOUS
 62
     1
 10
0.0000000000000001
 20
-0.15
 30
0.0
 40
0.2
  1

  7
ASHADE
 72
     1
 11
0.0000000000000001
 21
-0.15
 31
0.0
  3
Name
  2
NAME
 70
     1
  0
ATTDEF
  5
172C63
  8
ASHADE
  6
CONTINUOUS
 62
     1
 10
0.2300000000000001
 20
-0.4750000000000001
 30
0.0000000000000002
 40
0.1000000000000001
  1
-1
  7
ASHADE
  3
ACAD Color Index
  2
ACADCOLOR
 70
     1
  0
ATTDEF
  5
172C64
  8
ASHADE
  6
CONTINUOUS
 62
     7
 10
-0.1499999999999999
 20
-0.19
 30
0.0
 40
0.01
  1
-1,-1,-1
  3
RGB Color
  2
COLOR
 70
     1
  0
ATTDEF
  5
172C65
  8
ASHADE
  6
CONTINUOUS
 62
     7
 10
-0.1499999999999999
 20
-0.205
 30
0.0
 40
0.01
  1
1,1,1
  3
Opacity
  2
OPACITY
 70
     1
  0
ATTDEF
  5
172C66
  8
ASHADE
  6
CONTINUOUS
 62
     7
 10
-0.1499999999999999
 20
-0.22
 30
0.0
 40
0.01
  1
("nullsurf" "")
  3
Surface Shader
  2
SURFACE
 70
     1
  0
ATTDEF
  5
172C67
  8
ASHADE
  6
CONTINUOUS
 62
     7
 10
-0.1499999999999999
 20
-0.235
 30
0.0
 40
0.01
  1

  3
Surface Parameters 1
  2
SURF1
 70
     1
  0
ATTDEF
  5
172C68
  8
ASHADE
  6
CONTINUOUS
 62
     7
 10
-0.1499999999999999
 20
-0.25
 30
0.0
 40
0.01
  1

  3
Surface Parameters 2
  2
SURF2
 70
     1
  0
ATTDEF
  5
172C69
  8
ASHADE
  6
CONTINUOUS
 62
     7
 10
-0.1499999999999999
 20
-0.265
 30
0.0
 40
0.01
  1

  3
Surface Parameters 3
  2
SURF3
 70
     1
  0
ATTDEF
  5
172C6A
  8
ASHADE
  6
CONTINUOUS
 62
     7
 10
-0.1499999999999999
 20
-0.2799999999999999
 30
0.0
 40
0.01
  1

  3
Surface Parameters 4
  2
SURF4
 70
     1
  0
ATTDEF
  5
172C6B
  8
ASHADE
  6
CONTINUOUS
 62
     7
 10
-0.1499999999999999
 20
-0.295
 30
0.0
 40
0.01
  1
-1
  3
Shading Rate
  2
SHADINGRATE
 70
     1
  0
ATTDEF
  5
172C6C
  8
ASHADE
  6
CONTINUOUS
 62
     7
 10
-0.1499999999999999
 20
-0.31
 30
0.0
 40
0.01
  1
("nulldisp" "")
  3
Displacement Shader
  2
DISPLACEMENT
 70
     1
  0
ATTDEF
  5
172C6D
  8
ASHADE
  6
CONTINUOUS
 62
     7
 10
-0.1499999999999999
 20
-0.325
 30
0.0
 40
0.01
  1

  3
Displacement Parameters 1
  2
DISP1
 70
     1
  0
ATTDEF
  5
172C6E
  8
ASHADE
  6
CONTINUOUS
 62
     7
 10
-0.1499999999999999
 20
-0.3399999999999999
 30
0.0
 40
0.01
  1

  3
Displacement Parameters 2
  2
DISP2
 70
     1
  0
ATTDEF
  5
172C6F
  8
ASHADE
  6
CONTINUOUS
 62
     7
 10
-0.1499999999999999
 20
-0.355
 30
0.0
 40
0.01
  1

  3
Displacement Parameters 3
  2
DISP3
 70
     1
  0
ATTDEF
  5
172C70
  8
ASHADE
  6
CONTINUOUS
 62
     7
 10
-0.1499999999999999
 20
-0.3699999999999999
 30
0.0
 40
0.01
  1

  3
Displacement Parameters 4
  2
DISP4
 70
     1
  0
ATTDEF
  5
172C71
  8
ASHADE
  6
CONTINUOUS
 62
     7
 10
-0.1499999999999999
 20
-0.3849999999999998
 30
0.0
 40
0.01
  1
0.0
  3
Displacement Bounds
  2
DBOUND
 70
     1
  0
ATTDEF
  5
172C72
  8
ASHADE
  6
CONTINUOUS
 62
     7
 10
-0.1499999999999999
 20
-0.4
 30
0.0
 40
0.01
  1
0
  3
Smooth Surface
  2
SMOOTH
 70
     1
  0
ATTDEF
  5
172C73
  8
ASHADE
  6
CONTINUOUS
 62
     7
 10
-0.1499999999999999
 20
-0.415
 30
0.0
 40
0.01
  1
("" "")
  3
Atmosphere Shader
  2
ATMOSPHERE
 70
     1
  0
ATTDEF
  5
172C74
  8
ASHADE
  6
CONTINUOUS
 62
     7
 10
-0.15
 20
-0.4302404735808357
 30
0.0
 40
0.01
  1

  3
Atmosphere Parameters 1
  2
ATMO1
 70
     1
  0
ATTDEF
  5
172C75
  8
ASHADE
  6
CONTINUOUS
 62
     7
 10
-0.15
 20
-0.4452404735808357
 30
0.0
 40
0.01
  1

  3
Atmosphere Parameters 2
  2
ATMO2
 70
     1
  0
ATTDEF
  5
172C76
  8
ASHADE
  6
CONTINUOUS
 62
     7
 10
-0.15
 20
-0.4602404735808358
 30
0.0
 40
0.01
  1

  3
Atmosphere Parameters 3
  2
ATMO3
 70
     1
  0
ATTDEF
  5
172C77
  8
ASHADE
  6
CONTINUOUS
 62
     7
 10
-0.15
 20
-0.4752404735808357
 30
0.0
 40
0.01
  1

  3
Atmosphere Parameters 4
  2
ATMO4
 70
     1
  0
ATTDEF
  5
172C78
  8
ASHADE
  6
CONTINUOUS
 62
     7
 10
-0.1499999999999999
 20
-0.4900000000000001
 30
0.0
 40
0.01
  1
0 0 1 0 0 1 1 1
  3
Texture Map Coordinates
  2
TCOORD
 70
     1
  0
ENDBLK
  5
172839
  8
0
  0
BLOCK
  8
0
  2
NERV01_2
 70
     0
 10
0.0
 20
0.0
 30
0.0
  3
NERV01_2
  1

  0
INSERT
  5
17393F
  8
0
  2
SEMAFOR
 10
0.0
 20
0.0
 30
0.0
  0
INSERT
  5
173940
  8
0
  2
SEMAFOR
 10
0.0
 20
0.0
 30
0.0
  0
INSERT
  5
173941
  8
0
  2
SEMAFOR
 10
0.0
 20
0.0
 30
0.0
  0
INSERT
  5
173942
  8
0
  2
SEMAFOR
 10
0.0
 20
0.0
 30
0.0
  0
INSERT
  5
173943
  8
0
  2
SEMAFOR
 10
0.0
 20
0.0
 30
0.0
  0
INSERT
  5
173944
  8
0
  2
SEMAFOR
 10
0.0
 20
0.0
 30
0.0
  0
INSERT
  5
173945
  8
0
  2
ACAD
 10
4733.4389627447927
 20
626.98922552497561
 30
0.0
  0
INSERT
  5
173946
  8
0
  2
ACAD
 10
4401.2404021617613
 20
426.56681958498802
 30
0.0
  0
INSERT
  5
173947
  8
0
  2
ACAD
 10
4401.2404021617613
 20
426.56681958498802
 30
0.0
  0
INSERT
  5
173948
  8
0
  2
ACAD
 10
9843.6585030093738
 20
4161.7623992877234
 30
0.0
  0
INSERT
  5
173949
  8
0
  2
ACAD
 10
10335.40967800786
 20
4128.0225861498011
 30
0.0
  0
INSERT
  5
17394A
  8
0
  2
ACAD
 10
5694.1362955782188
 20
8197.3877944074975
 30
0.0
  0
INSERT
  5
17394B
  8
0
  2
ACAD
 10
6185.8874705767112
 20
8163.6479812695761
 30
0.0
  0
INSERT
  5
17394C
  8
P2
  2
ACAD
 10
8411.0782083018512
 20
2850.915628098021
 30
0.0
 41
0.02
 42
0.02
 43
0.02
  0
TEXT
  5
17394D
  8
COTATION
 10
2283.4346451576139
 20
190.7533593356199
 30
0.0
 40
18.75
  1
%%A
  0
INSERT
  5
17394E
  8
0
  2
SEMAFOR
 10
0.0
 20
0.0
 30
0.0
 41
3.75
 42
3.75
 43
3.75
  0
TEXT
  5
17394F
  8
COTATION
 10
2283.4346451576139
 20
190.7533593356199
 30
0.0
 40
18.75
  1
%%A
  0
INSERT
  5
173950
  8
0
  2
SEMAFOR
 10
0.0
 20
0.0
 30
0.0
 41
3.75
 42
3.75
 43
3.75
  0
TEXT
  5
173951
  8
COTATION
 10
2283.4346451576139
 20
190.7533593356199
 30
0.0
 40
18.75
  1
%%A
  0
INSERT
  5
173952
  8
0
  2
SEMAFOR
 10
0.0
 20
0.0
 30
0.0
 41
3.75
 42
3.75
 43
3.75
  0
INSERT
  5
173953
  8
0
  2
ACAD
 10
5000.0469436296116
 20
3549.2343797401409
 30
0.0
  0
INSERT
  5
173954
  8
0
  2
ACAD
 10
5491.7981186281031
 20
3515.4945666022199
 30
0.0
  0
INSERT
  5
173955
  8
0
  2
SEMAFOR
 10
3708.5714045475338
 20
999.82442613291903
 30
0.0
  0
INSERT
  5
173956
  8
0
  2
SEMAFOR
 10
3708.5714045475338
 20
999.82442613291903
 30
0.0
  0
INSERT
  5
173957
  8
0
  2
SEMAFOR
 10
3708.5714045475338
 20
999.82442613291903
 30
0.0
  0
INSERT
  5
173958
  8
0
  2
SEMAFOR
 10
3708.5714045475338
 20
999.82442613291903
 30
0.0
  0
INSERT
  5
173959
  8
0
  2
SEMAFOR
 10
3708.5714045475338
 20
999.82442613291903
 30
0.0
  0
INSERT
  5
17395A
  8
0
  2
SEMAFOR
 10
3708.5714045475338
 20
999.82442613291903
 30
0.0
  0
INSERT
  5
17395B
  8
0
  2
ACAD
 10
8442.0103672923287
 20
1626.813651657895
 30
0.0
  0
INSERT
  5
17395C
  8
0
  2
ACAD
 10
8109.8118067092946
 20
1426.3912457179069
 30
0.0
  0
INSERT
  5
17395D
  8
0
  2
ACAD
 10
8109.8118067092946
 20
1426.3912457179069
 30
0.0
  0
INSERT
  5
17395E
  8
0
  2
ACAD
 10
13552.22990755691
 20
5161.5868254206416
 30
0.0
  0
INSERT
  5
17395F
  8
0
  2
ACAD
 10
14043.9810825554
 20
5127.8470122827202
 30
0.0
  0
INSERT
  5
173960
  8
0
  2
ACAD
 10
9402.7077001257549
 20
9197.2122205404157
 30
0.0
  0
INSERT
  5
173961
  8
0
  2
ACAD
 10
9894.4588751242445
 20
9163.4724074024944
 30
0.0
  0
INSERT
  5
173962
  8
P2
  2
ACAD
 10
12119.64961284938
 20
3850.7400542309401
 30
0.0
 41
0.02
 42
0.02
 43
0.02
  0
TEXT
  5
173963
  8
COTATION
 10
5992.0060497051481
 20
1190.5777854685391
 30
0.0
 40
18.75
  1
%%A
  0
INSERT
  5
173964
  8
0
  2
SEMAFOR
 10
3708.5714045475338
 20
999.82442613291903
 30
0.0
 41
3.75
 42
3.75
 43
3.75
  0
TEXT
  5
173965
  8
COTATION
 10
5992.0060497051481
 20
1190.5777854685391
 30
0.0
 40
18.75
  1
%%A
  0
INSERT
  5
173966
  8
0
  2
SEMAFOR
 10
3708.5714045475338
 20
999.82442613291903
 30
0.0
 41
3.75
 42
3.75
 43
3.75
  0
TEXT
  5
173967
  8
COTATION
 10
5992.0060497051481
 20
1190.5777854685391
 30
0.0
 40
18.75
  1
%%A
  0
INSERT
  5
173968
  8
0
  2
SEMAFOR
 10
3708.5714045475338
 20
999.82442613291903
 30
0.0
 41
3.75
 42
3.75
 43
3.75
  0
INSERT
  5
173969
  8
0
  2
ACAD
 10
11004.667248186281
 20
2686.4915150072802
 30
0.0
  0
INSERT
  5
17396A
  8
0
  2
ACAD
 10
10672.46868760325
 20
2486.0691090672931
 30
0.0
  0
INSERT
  5
17396B
  8
0
  2
ACAD
 10
10672.46868760325
 20
2486.0691090672931
 30
0.0
  0
INSERT
  5
17396C
  8
0
  2
ACAD
 10
16114.88678845086
 20
6221.2646887700266
 30
0.0
  0
INSERT
  5
17396D
  8
0
  2
ACAD
 10
16606.637963449361
 20
6187.5248756321062
 30
0.0
  0
INSERT
  5
17396E
  8
0
  2
ACAD
 10
11965.36458101971
 20
10256.890083889801
 30
0.0
  0
INSERT
  5
17396F
  8
0
  2
ACAD
 10
12457.1157560182
 20
10223.150270751879
 30
0.0
  0
TEXT
  5
173970
  8
COTATION
 10
9797.7304583011719
 20
1508.5000510279051
 30
0.0
 40
50.0
  1
%%A
  0
INSERT
  5
173971
  8
0
  2
SEMAFOR
 10
3708.5714045475338
 20
999.82442613291903
 30
0.0
 41
10.0
 42
10.0
 43
10.0
  0
TEXT
  5
173972
  8
COTATION
 10
9797.7304583011719
 20
1508.5000510279051
 30
0.0
 40
50.0
  1
%%A
  0
INSERT
  5
173973
  8
0
  2
SEMAFOR
 10
3708.5714045475338
 20
999.82442613291903
 30
0.0
 41
10.0
 42
10.0
 43
10.0
  0
TEXT
  5
173974
  8
COTATION
 10
9797.7304583011719
 20
1508.5000510279051
 30
0.0
 40
50.0
  1
%%A
  0
INSERT
  5
173975
  8
0
  2
SEMAFOR
 10
3708.5714045475338
 20
999.82442613291903
 30
0.0
 41
10.0
 42
10.0
 43
10.0
  0
INSERT
  5
173976
  8
0
  2
SEMAFOR
 10
3524.0684305484692
 20
207.20092630162131
 30
0.0
  0
INSERT
  5
173977
  8
0
  2
SEMAFOR
 10
3524.0684305484692
 20
207.20092630162131
 30
0.0
  0
INSERT
  5
173978
  8
0
  2
SEMAFOR
 10
3524.0684305484692
 20
207.20092630162131
 30
0.0
  0
INSERT
  5
173979
  8
0
  2
SEMAFOR
 10
3524.0684305484692
 20
207.20092630162131
 30
0.0
  0
INSERT
  5
17397A
  8
0
  2
SEMAFOR
 10
3524.0684305484692
 20
207.20092630162131
 30
0.0
  0
INSERT
  5
17397B
  8
0
  2
SEMAFOR
 10
3524.0684305484692
 20
207.20092630162131
 30
0.0
  0
INSERT
  5
17397C
  8
0
  2
ACAD
 10
8257.507393293261
 20
834.19015182659678
 30
0.0
  0
INSERT
  5
17397D
  8
0
  2
ACAD
 10
7925.3088327102296
 20
633.76774588660919
 30
0.0
  0
INSERT
  5
17397E
  8
0
  2
ACAD
 10
7925.3088327102296
 20
633.76774588660919
 30
0.0
  0
INSERT
  5
17397F
  8
0
  2
ACAD
 10
13367.72693355784
 20
4368.9633255893441
 30
0.0
  0
INSERT
  5
173980
  8
0
  2
ACAD
 10
13859.47810855633
 20
4335.2235124514227
 30
0.0
  0
INSERT
  5
173981
  8
0
  2
ACAD
 10
9218.2047261266889
 20
8404.5887207091182
 30
0.0
  0
INSERT
  5
173982
  8
0
  2
ACAD
 10
9709.9559011251822
 20
8370.8489075711968
 30
0.0
  0
INSERT
  5
173983
  8
P2
  2
ACAD
 10
11935.14663885032
 20
3058.1165543996422
 30
0.0
 41
0.02
 42
0.02
 43
0.02
  0
TEXT
  5
173984
  8
COTATION
 10
5807.5030757060822
 20
397.95428563724118
 30
0.0
 40
18.75
  1
%%A
  0
INSERT
  5
173985
  8
0
  2
SEMAFOR
 10
3524.0684305484692
 20
207.20092630162131
 30
0.0
 41
3.75
 42
3.75
 43
3.75
  0
TEXT
  5
173986
  8
COTATION
 10
5807.5030757060822
 20
397.95428563724118
 30
0.0
 40
18.75
  1
%%A
  0
INSERT
  5
173987
  8
0
  2
SEMAFOR
 10
3524.0684305484692
 20
207.20092630162131
 30
0.0
 41
3.75
 42
3.75
 43
3.75
  0
TEXT
  5
173988
  8
COTATION
 10
5807.5030757060822
 20
397.95428563724118
 30
0.0
 40
18.75
  1
%%A
  0
INSERT
  5
173989
  8
0
  2
SEMAFOR
 10
3524.0684305484692
 20
207.20092630162131
 30
0.0
 41
3.75
 42
3.75
 43
3.75
  0
INSERT
  5
17398A
  8
0
  2
ACAD
 10
10820.164274187209
 20
1893.868015175982
 30
0.0
  0
INSERT
  5
17398B
  8
0
  2
ACAD
 10
10487.965713604181
 20
1693.4456092359951
 30
0.0
  0
INSERT
  5
17398C
  8
0
  2
ACAD
 10
10487.965713604181
 20
1693.4456092359951
 30
0.0
  0
INSERT
  5
17398D
  8
0
  2
ACAD
 10
15930.383814451799
 20
5428.64118893873
 30
0.0
  0
INSERT
  5
17398E
  8
0
  2
ACAD
 10
16422.134989450289
 20
5394.9013758008077
 30
0.0
  0
INSERT
  5
17398F
  8
0
  2
ACAD
 10
11780.861607020641
 20
9464.2665840585032
 30
0.0
  0
INSERT
  5
173990
  8
0
  2
ACAD
 10
12272.61278201913
 20
9430.5267709205818
 30
0.0
  0
TEXT
  5
173991
  8
COTATION
 10
9613.2274843021078
 20
715.87655119660781
 30
0.0
 40
50.0
  1
%%A
  0
INSERT
  5
173992
  8
0
  2
SEMAFOR
 10
3524.0684305484692
 20
207.20092630162131
 30
0.0
 41
10.0
 42
10.0
 43
10.0
  0
TEXT
  5
173993
  8
COTATION
 10
9613.2274843021078
 20
715.87655119660781
 30
0.0
 40
50.0
  1
%%A
  0
INSERT
  5
173994
  8
0
  2
SEMAFOR
 10
3524.0684305484692
 20
207.20092630162131
 30
0.0
 41
10.0
 42
10.0
 43
10.0
  0
TEXT
  5
173995
  8
COTATION
 10
9613.2274843021078
 20
715.87655119660781
 30
0.0
 40
50.0
  1
%%A
  0
INSERT
  5
173996
  8
0
  2
SEMAFOR
 10
3524.0684305484692
 20
207.20092630162131
 30
0.0
 41
10.0
 42
10.0
 43
10.0
  0
INSERT
  5
173997
  8
0
  2
SEMAFOR
 10
15386.960463810399
 20
3267.8879405965258
 30
0.0
  0
INSERT
  5
173998
  8
0
  2
SEMAFOR
 10
15386.960463810399
 20
3267.8879405965258
 30
0.0
  0
INSERT
  5
173999
  8
0
  2
SEMAFOR
 10
15386.960463810399
 20
3267.8879405965258
 30
0.0
  0
INSERT
  5
17399A
  8
0
  2
ACAD
 10
20120.399426555188
 20
3894.877166121501
 30
0.0
  0
INSERT
  5
17399B
  8
0
  2
ACAD
 10
19788.200865972161
 20
3694.4547601815138
 30
0.0
  0
INSERT
  5
17399C
  8
0
  2
ACAD
 10
19788.200865972161
 20
3694.4547601815138
 30
0.0
  0
INSERT
  5
17399D
  8
0
  2
ACAD
 10
25230.618966819769
 20
7429.6503398842506
 30
0.0
  0
INSERT
  5
17399E
  8
0
  2
ACAD
 10
25722.370141818261
 20
7395.9105267463274
 30
0.0
  0
INSERT
  5
17399F
  8
0
  2
ACAD
 10
21081.09675938862
 20
11465.275735004019
 30
0.0
  0
INSERT
  5
1739A0
  8
0
  2
ACAD
 10
21572.847934387111
 20
11431.5359218661
 30
0.0
  0
INSERT
  5
1739A1
  8
P2
  2
ACAD
 10
23798.038672112249
 20
6118.8035686945468
 30
0.0
 41
0.02
 42
0.02
 43
0.02
  0
TEXT
  5
1739A2
  8
COTATION
 10
17670.395108968009
 20
3458.641299932146
 30
0.0
 40
18.75
  1
%%A
  0
INSERT
  5
1739A3
  8
0
  2
SEMAFOR
 10
15386.960463810399
 20
3267.8879405965258
 30
0.0
 41
3.75
 42
3.75
 43
3.75
  0
TEXT
  5
1739A4
  8
COTATION
 10
17670.395108968009
 20
3458.641299932146
 30
0.0
 40
18.75
  1
%%A
  0
INSERT
  5
1739A5
  8
0
  2
SEMAFOR
 10
15386.960463810399
 20
3267.8879405965258
 30
0.0
 41
3.75
 42
3.75
 43
3.75
  0
TEXT
  5
1739A6
  8
COTATION
 10
17670.395108968009
 20
3458.641299932146
 30
0.0
 40
18.75
  1
%%A
  0
INSERT
  5
1739A7
  8
0
  2
SEMAFOR
 10
15386.960463810399
 20
3267.8879405965258
 30
0.0
 41
3.75
 42
3.75
 43
3.75
  0
INSERT
  5
1739A8
  8
0
  2
ACAD
 10
20387.007407440011
 20
6817.1223203366681
 30
0.0
  0
INSERT
  5
1739A9
  8
0
  2
ACAD
 10
20878.758582438499
 20
6783.3825071987458
 30
0.0
  0
INSERT
  5
1739AA
  8
0
  2
SEMAFOR
 10
19095.531868357932
 20
4267.7123667294454
 30
0.0
  0
INSERT
  5
1739AB
  8
0
  2
SEMAFOR
 10
19095.531868357932
 20
4267.7123667294454
 30
0.0
  0
INSERT
  5
1739AC
  8
0
  2
SEMAFOR
 10
19095.531868357932
 20
4267.7123667294454
 30
0.0
  0
INSERT
  5
1739AD
  8
0
  2
SEMAFOR
 10
19095.531868357932
 20
4267.7123667294454
 30
0.0
  0
INSERT
  5
1739AE
  8
0
  2
SEMAFOR
 10
19095.531868357932
 20
4267.7123667294454
 30
0.0
  0
INSERT
  5
1739AF
  8
0
  2
SEMAFOR
 10
19095.531868357932
 20
4267.7123667294454
 30
0.0
  0
INSERT
  5
1739B0
  8
0
  2
ACAD
 10
23828.970831102732
 20
4894.7015922544206
 30
0.0
  0
INSERT
  5
1739B1
  8
0
  2
ACAD
 10
23496.77227051969
 20
4694.279186314433
 30
0.0
  0
INSERT
  5
1739B2
  8
0
  2
ACAD
 10
23496.77227051969
 20
4694.279186314433
 30
0.0
  0
INSERT
  5
1739B3
  8
0
  2
ACAD
 10
28939.190371367309
 20
8429.4747660171706
 30
0.0
  0
INSERT
  5
1739B4
  8
0
  2
ACAD
 10
29430.94154636579
 20
8395.7349528792456
 30
0.0
  0
INSERT
  5
1739B5
  8
0
  2
ACAD
 10
24789.668163936149
 20
12465.100161136939
 30
0.0
  0
INSERT
  5
1739B6
  8
0
  2
ACAD
 10
25281.41933893464
 20
12431.36034799902
 30
0.0
  0
INSERT
  5
1739B7
  8
P2
  2
ACAD
 10
27506.610076659781
 20
7118.627994827466
 30
0.0
 41
0.02
 42
0.02
 43
0.02
  0
TEXT
  5
1739B8
  8
COTATION
 10
21378.966513515541
 20
4458.4657260650647
 30
0.0
 40
18.75
  1
%%A
  0
INSERT
  5
1739B9
  8
0
  2
SEMAFOR
 10
19095.531868357932
 20
4267.7123667294454
 30
0.0
 41
3.75
 42
3.75
 43
3.75
  0
TEXT
  5
1739BA
  8
COTATION
 10
21378.966513515541
 20
4458.4657260650647
 30
0.0
 40
18.75
  1
%%A
  0
INSERT
  5
1739BB
  8
0
  2
SEMAFOR
 10
19095.531868357932
 20
4267.7123667294454
 30
0.0
 41
3.75
 42
3.75
 43
3.75
  0
TEXT
  5
1739BC
  8
COTATION
 10
21378.966513515541
 20
4458.4657260650647
 30
0.0
 40
18.75
  1
%%A
  0
INSERT
  5
1739BD
  8
0
  2
SEMAFOR
 10
19095.531868357932
 20
4267.7123667294454
 30
0.0
 41
3.75
 42
3.75
 43
3.75
  0
INSERT
  5
1739BE
  8
0
  2
ACAD
 10
26391.62771199668
 20
5954.3794556038056
 30
0.0
  0
INSERT
  5
1739BF
  8
0
  2
ACAD
 10
26059.429151413649
 20
5753.957049663818
 30
0.0
  0
INSERT
  5
1739C0
  8
0
  2
ACAD
 10
26059.429151413649
 20
5753.957049663818
 30
0.0
  0
INSERT
  5
1739C1
  8
0
  2
ACAD
 10
31501.847252261261
 20
9489.1526293665538
 30
0.0
  0
INSERT
  5
1739C2
  8
0
  2
ACAD
 10
31993.598427259749
 20
9455.4128162286306
 30
0.0
  0
INSERT
  5
1739C3
  8
0
  2
ACAD
 10
27352.325044830101
 20
13524.778024486321
 30
0.0
  0
INSERT
  5
1739C4
  8
0
  2
ACAD
 10
27844.076219828599
 20
13491.038211348399
 30
0.0
  0
TEXT
  5
1739C5
  8
COTATION
 10
25184.690922111571
 20
4776.3879916244323
 30
0.0
 40
50.0
  1
%%A
  0
INSERT
  5
1739C6
  8
0
  2
SEMAFOR
 10
19095.531868357932
 20
4267.7123667294454
 30
0.0
 41
10.0
 42
10.0
 43
10.0
  0
TEXT
  5
1739C7
  8
COTATION
 10
25184.690922111571
 20
4776.3879916244323
 30
0.0
 40
50.0
  1
%%A
  0
INSERT
  5
1739C8
  8
0
  2
SEMAFOR
 10
19095.531868357932
 20
4267.7123667294454
 30
0.0
 41
10.0
 42
10.0
 43
10.0
  0
TEXT
  5
1739C9
  8
COTATION
 10
25184.690922111571
 20
4776.3879916244323
 30
0.0
 40
50.0
  1
%%A
  0
INSERT
  5
1739CA
  8
0
  2
SEMAFOR
 10
19095.531868357932
 20
4267.7123667294454
 30
0.0
 41
10.0
 42
10.0
 43
10.0
  0
INSERT
  5
1739CB
  8
0
  2
SEMAFOR
 10
13167.983238715129
 20
2491.233538220928
 30
0.0
  0
INSERT
  5
1739CC
  8
0
  2
SEMAFOR
 10
13167.983238715129
 20
2491.233538220928
 30
0.0
  0
INSERT
  5
1739CD
  8
0
  2
SEMAFOR
 10
13167.983238715129
 20
2491.233538220928
 30
0.0
  0
INSERT
  5
1739CE
  8
0
  2
SEMAFOR
 10
17706.774905143931
 20
3012.2450404000119
 30
0.0
  0
INSERT
  5
1739CF
  8
0
  2
SEMAFOR
 10
17706.774905143931
 20
3012.2450404000119
 30
0.0
  0
INSERT
  5
1739D0
  8
0
  2
SEMAFOR
 10
17706.774905143931
 20
3012.2450404000119
 30
0.0
  0
INSERT
  5
1739D1
  8
0
  2
ACAD
 10
21077.800978393119
 20
8060.5914657547173
 30
0.0
  0
INSERT
  5
1739D2
  8
0
  2
ACAD
 10
21569.552153391611
 20
8026.8516526167932
 30
0.0
  0
INSERT
  5
1739D3
  8
ASHADE
 62
     1
  2
AVE_RENDER
 10
13167.983238715129
 20
2491.233538220928
 30
0.0
1001
AVE_RENDER
1002
{
1070
     2
1000
Pref
1070
    30
1070
    20
1070
     1
1070
     0
1000
ESS
1070
    10
1070
     0
1070
    30
1040
1.0
1070
     1
1040
0.51
1040
0.37
1040
0.41
1040
1.587301587301587
1010
0.915
1020
0.085
1030
0.7821999999999997
1040
0.38
1070
    49
1002
}
  0
INSERT
  5
1739D4
  8
ASHADE
 62
     3
  2
AVE_RENDER
 10
13167.983238715129
 20
2491.233538220928
 30
0.0
1001
AVE_RENDER
1002
{
1070
     0
1000
Full Opt
1070
     0
1070
     1
1070
     1
1070
     1
1070
     0
1070
     0
1070
     0
1070
     1
1070
     1
1040
0.0001
1040
0.0001
1002
}
  0
INSERT
  5
1739D5
  8
ASHADE
 62
     4
  2
AVE_RENDER
 10
13167.983238715129
 20
2491.233538220928
 30
0.0
1001
AVE_RENDER
1002
{
1070
     0
1000
Quick Opt
1070
     0
1070
     1
1070
     1
1070
     1
1070
     0
1070
     0
1070
     1
1002
}
  0
INSERT
  5
1739D6
  8
ASHADE
 62
     2
  2
AVE_RENDER
 10
13167.983238715129
 20
2491.233538220928
 30
0.0
1001
AVE_RENDER
1002
{
1070
     0
1000
ESS
1000

1002
{
1070
     1
1002
}
1002
}
  0
INSERT
  5
1739D7
  8
0
  2
SEMAFOR
 10
19618.034838546169
 20
3675.6152159067619
 30
0.0
 41
8.0
 42
8.0
 43
8.0
  0
INSERT
  5
1739D8
  8
0
  2
SEMAFOR
 10
19618.034838546169
 20
3675.6152159067619
 30
0.0
 41
8.0
 42
8.0
 43
8.0
  0
INSERT
  5
1739D9
  8
0
  2
SEMAFOR
 10
19618.034838546169
 20
3675.6152159067619
 30
0.0
 41
8.0
 42
8.0
 43
8.0
  0
ENDBLK
  5
1739DB
  8
0
  0
BLOCK
  8
0
  2
NERV_CLARKYS
 70
     0
 10
0.0
 20
0.0
 30
0.0
  3
NERV_CLARKYS
  1

  0
LINE
  5
1739E2
  8
0
  6
BYBLOCK
 62
     4
 10
-1.0
 20
-20.92954823876789
 30
0.0
 11
144.99999999999989
 21
-20.92954823876789
 31
0.0
  0
LINE
  5
1739E3
  8
P0
 10
-4.0
 20
0.0
 30
0.0
 11
324.99999999999989
 21
0.0
 31
0.0
  0
LINE
  5
1739E4
  8
P0
 10
54.795260999999982
 20
-11.2942409999996
 30
0.0
 11
70.435591999999929
 21
-11.49822099999983
 31
0.0
  0
LINE
  5
1739E5
  8
P0
 10
80.468446999999969
 20
26.89640799999961
 30
0.0
 11
66.448441000000003
 21
26.25387099999989
 31
0.0
  0
LINE
  5
1739E6
  8
P0
 10
25.196447000000038
 20
-9.8426929999995991
 30
0.0
 11
39.614543000000033
 21
-10.779356
 31
0.0
  0
LINE
  5
1739E7
  8
P0
 10
39.202306000000021
 20
22.473331999999569
 30
0.0
 11
26.535477000000022
 21
19.412973999999849
 31
0.0
  0
LINE
  5
1739E8
  8
P0
 10
6.4987190000000501
 20
-7.2465540000002866
 30
0.0
 11
13.807454000000011
 21
-8.6642149999997855
 31
0.0
  0
LINE
  5
1739E9
  8
P0
 10
15.57418399999994
 20
15.775878999999801
 30
0.0
 11
8.0585079999999607
 21
12.29802000000018
 31
0.0
  0
LINE
  5
1739EA
  8
P0
 10
2.0809070000000238
 20
-6.049323000000185
 30
0.0
 11
6.4987190000000501
 21
-7.2465540000002866
 31
0.0
  0
LINE
  5
1739EB
  8
P0
 10
-0.5484609999999748
 20
-4.7553660000003211
 30
0.0
 11
2.0809070000000238
 21
-6.049323000000185
 31
0.0
  0
LINE
  5
1739EC
  8
P0
 10
-2.2016859999999951
 20
-3.3893580000003558
 30
0.0
 11
-0.5484609999999748
 21
-4.7553660000003211
 31
0.0
  0
LINE
  5
1739ED
  8
P0
 10
-2.2902933804263048
 20
-3.2794140073456211
 30
0.0
 11
-2.2016859999999951
 21
-3.3893580000003558
 31
0.0
  0
LINE
  5
1739EE
  8
P0
 10
-3.7805570000000439
 20
1.5081360000003761
 30
0.0
 11
-3.8341354682380588
 21
1.1399145631139611
 31
0.0
  0
LINE
  5
1739EF
  8
P0
 10
-3.1416390000000538
 20
2.805712000000312
 30
0.0
 11
-3.7805570000000439
 21
1.5081360000003761
 31
0.0
  0
LINE
  5
1739F0
  8
P0
 10
-1.985533000000032
 20
4.3177960000002713
 30
0.0
 11
-3.1416390000000538
 21
2.805712000000312
 31
0.0
  0
LINE
  5
1739F1
  8
P0
 10
0.0161030000000437
 20
6.3256830000000264
 30
0.0
 11
-1.985533000000032
 21
4.3177960000002713
 31
0.0
  0
LINE
  5
1739F2
  8
P0
 10
3.334068000000002
 20
9.198182000000088
 30
0.0
 11
0.0161030000000437
 21
6.3256830000000264
 31
0.0
  0
LINE
  5
1739F3
  8
P0
 10
8.0585079999999607
 20
12.29802000000018
 30
0.0
 11
3.334068000000002
 21
9.198182000000088
 31
0.0
  0
POINT
  5
1739F4
  8
DEFPOINTS
  6
BYBLOCK
 62
     0
 10
-4.0
 20
0.0
 30
0.0
  0
SOLID
  5
1739F5
  8
0
  6
BYBLOCK
 62
     4
 10
-1.0
 20
-20.42954823876789
 30
0.0
 11
-1.0
 21
-21.42954823876789
 31
0.0
 12
-4.0
 22
-20.92954823876789
 32
0.0
 13
-4.0
 23
-20.92954823876789
 33
0.0
  0
LINE
  5
1739F6
  8
0
  6
BYBLOCK
 62
     4
 10
-4.0
 20
-1.5
 30
0.0
 11
-4.0
 21
-22.729548238768079
 31
0.0
  0
ARC
  5
1739F7
  8
P3
 10
0.0
 20
0.0
 30
0.0
 40
4.0
 50
235.0701314132024
 51
163.44242815222529
  0
ARC
  5
1739F8
  8
PLATINE
 10
0.0
 20
0.0000000000009095
 30
0.0
 40
4.0
 50
270.0
 51
90.0
  0
LINE
  5
1739F9
  8
PLATINE
  6
AXESX2
 10
0.0
 20
-17.63981030729337
 30
0.0
 11
0.0
 21
17.639810307295189
 31
0.0
  0
LINE
  5
1739FA
  8
P0
 10
13.807454000000011
 20
-8.6642149999997855
 30
0.0
 11
25.196447000000038
 21
-9.8426929999995991
 31
0.0
  0
LINE
  5
1739FB
  8
P0
 10
26.535477000000022
 20
19.412973999999849
 30
0.0
 11
15.57418399999994
 21
15.775878999999801
 31
0.0
  0
LINE
  5
1739FC
  8
P0
 10
39.614543000000033
 20
-10.779356
 30
0.0
 11
54.795260999999982
 21
-11.2942409999996
 31
0.0
  0
LINE
  5
1739FD
  8
P0
 10
52.836395000000039
 20
24.796072000000098
 30
0.0
 11
39.202306000000021
 21
22.473331999999569
 31
0.0
  0
LINE
  5
1739FE
  8
P0
 10
66.448441000000003
 20
26.25387099999989
 30
0.0
 11
52.836395000000039
 21
24.796072000000098
 31
0.0
  0
LINE
  5
1739FF
  8
P0
 10
70.435591999999929
 20
-11.49822099999983
 30
0.0
 11
86.385841000000013
 21
-11.525856999999631
 31
0.0
  0
LINE
  5
173A00
  8
P0
 10
135.04691500000001
 20
-11.515658000000251
 30
0.0
 11
151.30938499999999
 21
-11.51434200000039
 31
0.0
  0
LINE
  5
173A01
  8
P0
 10
156.6559639999999
 20
23.525803000000451
 30
0.0
 11
141.49761799999999
 21
24.996433000000248
 31
0.0
  0
TEXT
  5
173A02
  8
P0
 10
79.687295927365426
 20
6.9964257220126447
 30
0.0
 40
10.270655747113009
  1
Clark YS
  0
LINE
  5
173A03
  8
P0
 10
102.55355899999989
 20
-11.50940699999955
 30
0.0
 11
118.79826300000001
 21
-11.512039000000181
 31
0.0
  0
LINE
  5
173A04
  8
P0
 10
111.14407799999999
 20
26.69769199999973
 30
0.0
 11
95.524473999999941
 21
26.972407000000199
 31
0.0
  0
LINE
  5
173A05
  8
P0
 10
95.524473999999941
 20
26.972407000000199
 30
0.0
 11
80.468446999999969
 21
26.89640799999961
 31
0.0
  0
LINE
  5
173A06
  8
P0
 10
86.385841000000013
 20
-11.525856999999631
 30
0.0
 11
102.55355899999989
 21
-11.50940699999955
 31
0.0
  0
LINE
  5
173A07
  8
P0
 10
118.79826300000001
 20
-11.512039000000181
 30
0.0
 11
135.04691500000001
 21
-11.515658000000251
 31
0.0
  0
LINE
  5
173A08
  8
P0
 10
126.45310600000001
 20
26.056470999999881
 30
0.0
 11
111.14407799999999
 21
26.69769199999973
 31
0.0
  0
LINE
  5
173A09
  8
P0
 10
141.49761799999999
 20
24.996433000000248
 30
0.0
 11
126.45310600000001
 21
26.056470999999881
 31
0.0
  0
LINE
  5
173A0A
  8
P0
 10
304.17759000000001
 20
1.3811420000001811
 30
0.0
 11
289.3469280000001
 21
2.9083600000003571
 31
0.0
  0
LINE
  5
173A0B
  8
P0
 10
288.17996499999992
 20
-6.9303849999996601
 30
0.0
 11
303.66040199999998
 21
-4.1963949999999377
 31
0.0
  0
LINE
  5
173A0C
  8
0
  6
BYBLOCK
 62
     4
 10
321.99999999999989
 20
-20.92954823876789
 30
0.0
 11
175.99999999999989
 21
-20.92954823876789
 31
0.0
  0
LINE
  5
173A0D
  8
P0
 10
233.11984099999989
 20
11.24982600000021
 30
0.0
 11
218.087502
 21
14.288798999999919
 31
0.0
  0
LINE
  5
173A0E
  8
P0
 10
216.1046189999999
 20
-11.49032499999975
 30
0.0
 11
232.04631399999991
 21
-11.54329400000006
 31
0.0
  0
LINE
  5
173A0F
  8
P0
 10
167.55474699999999
 20
-11.517302999999631
 30
0.0
 11
183.72279399999999
 21
-11.52125100000012
 31
0.0
  0
LINE
  5
173A10
  8
P0
 10
187.36679799999999
 20
19.520228000000309
 30
0.0
 11
171.9962469999999
 21
21.684718999999859
 31
0.0
  0
LINE
  5
173A11
  8
PLATINE
  6
AXESX2
 10
152.30794901971771
 20
-6.7387264388435142
 30
0.0
 11
183.73534737205239
 21
30.714988453438309
 31
0.0
  0
LINE
  5
173A12
  8
PLATINE
  6
CACHE
 10
175.0299638198276
 20
-2.999999895389009
 30
0.0
 11
210.02996382233951
 21
-2.9999999189521982
 31
0.0
  0
LINE
  5
173A13
  8
PLATINE
  6
CACHE
 10
175.02996382228909
 20
3.0000001046109901
 30
0.0
 11
210.0299638248006
 21
3.0000000810305201
 31
0.0
  0
TEXT
  5
173A14
  8
P3
 62
    90
 10
146.99999999999989
 20
-22.92954823876789
 30
0.0
 40
4.0
  1
329.0
  7
MONOTXT
  0
LINE
  5
173A15
  8
P0
 10
151.30938499999999
 20
-11.51434200000039
 30
0.0
 11
167.55474699999999
 21
-11.517302999999631
 31
0.0
  0
LINE
  5
173A16
  8
P0
 10
171.9962469999999
 20
21.684718999999859
 30
0.0
 11
156.6559639999999
 21
23.525803000000451
 31
0.0
  0
LINE
  5
173A17
  8
PLATINE
 10
163.08759787754309
 20
2.9965111606516071
 30
0.0
 11
160.02342010506749
 21
5.5676615993997984
 31
0.0
  0
LINE
  5
173A18
  8
PLATINE
 10
160.9127213816198
 20
3.5160419369049118
 30
0.0
 11
163.08759787754411
 21
2.9965111606516071
 31
0.0
  0
LINE
  5
173A19
  8
PLATINE
  6
CACHE
 10
160.0234201050684
 20
5.5676615993988881
 30
0.0
 11
173.38333514444469
 21
21.4893883443292
 31
0.0
  0
LINE
  5
173A1A
  8
PLATINE
 10
160.02342010506911
 20
5.5676615993988881
 30
0.0
 11
160.9127213816198
 21
3.5160419369049118
 31
0.0
  0
TEXT
  5
173A1B
  8
P3
 62
    90
 10
166.99999999999989
 20
-21.92954823876789
 30
0.0
 40
2.0
  1
±0.1
  7
MONOTXT
  0
LINE
  5
173A1C
  8
PLATINE
  6
CACHE
 10
175.0299638198276
 20
3.0000001046109901
 30
0.0
 11
173.2979130122589
 21
0.0000001046109901
 31
0.0
  0
LINE
  5
173A1D
  8
PLATINE
  6
CACHE
 10
175.0299638198276
 20
-2.999999895389009
 30
0.0
 11
173.2979130122589
 21
0.0000001046109901
 31
0.0
  0
LINE
  5
173A1E
  8
PLATINE
  6
CACHE
 10
175.0299638198276
 20
-2.999999895389009
 30
0.0
 11
175.02996382264931
 21
3.0000001046109901
 31
0.0
  0
LINE
  5
173A1F
  8
PLATINE
  6
CACHE
 10
163.0875978775432
 20
2.9965111606516071
 30
0.0
 11
178.05316523966309
 21
20.831779829668449
 31
0.0
  0
LINE
  5
173A20
  8
P0
 10
183.72279399999999
 20
-11.52125100000012
 30
0.0
 11
199.90038199999989
 21
-11.50545899999997
 31
0.0
  0
LINE
  5
173A21
  8
P0
 10
202.73175599999999
 20
17.05864999999994
 30
0.0
 11
187.36679799999999
 21
19.520228000000309
 31
0.0
  0
LINE
  5
173A22
  8
P0
 10
199.90038199999989
 20
-11.50545899999997
 30
0.0
 11
210.02996381885441
 21
-11.49599844402019
 31
0.0
  0
LINE
  5
173A23
  8
P0
 10
210.0299638300277
 20
15.742208046856829
 30
0.0
 11
202.73175599999999
 21
17.05864999999994
 31
0.0
  0
LINE
  5
173A24
  8
PLATINE
 10
210.02996381885441
 20
-11.49599844402019
 30
0.0
 11
210.02996383002781
 21
15.742208046856829
 31
0.0
  0
LINE
  5
173A25
  8
P0
 10
261.26579099999992
 20
5.9470039999996507
 30
0.0
 11
247.45963499999991
 21
8.3052760000000472
 31
0.0
  0
LINE
  5
173A26
  8
P0
 10
246.80426700000001
 20
-11.450845000000299
 30
0.0
 11
260.5015239999999
 21
-10.7517200000002
 31
0.0
  0
LINE
  5
173A27
  8
P0
 10
247.45963499999991
 20
8.3052760000000472
 30
0.0
 11
233.11984099999989
 21
11.24982600000021
 31
0.0
  0
LINE
  5
173A28
  8
P0
 10
232.04631399999991
 20
-11.54329400000006
 30
0.0
 11
246.80426700000001
 21
-11.450845000000299
 31
0.0
  0
LINE
  5
173A29
  8
P0
 10
289.3469280000001
 20
2.9083600000003571
 30
0.0
 11
275.052865
 21
4.3003589999998431
 31
0.0
  0
LINE
  5
173A2A
  8
P0
 10
273.96880999999991
 20
-9.1975240000001577
 30
0.0
 11
288.17996499999992
 21
-6.9303849999996601
 31
0.0
  0
LINE
  5
173A2B
  8
P0
 10
275.052865
 20
4.3003589999998431
 30
0.0
 11
261.26579099999992
 21
5.9470039999996507
 31
0.0
  0
LINE
  5
173A2C
  8
P0
 10
260.5015239999999
 20
-10.7517200000002
 30
0.0
 11
273.96880999999991
 21
-9.1975240000001577
 31
0.0
  0
LINE
  5
173A2D
  8
P0
 10
314.98787199999998
 20
0.5379149999998845
 30
0.0
 11
304.17759000000001
 21
1.3811420000001811
 31
0.0
  0
LINE
  5
173A2E
  8
P0
 10
303.66040199999998
 20
-4.1963949999999377
 30
0.0
 11
315.03623499999992
 21
-2.0378259999997681
 31
0.0
  0
LINE
  5
173A2F
  8
P0
 10
321.67413900000003
 20
0.2447759999995469
 30
0.0
 11
314.98787199999998
 21
0.5379149999998845
 31
0.0
  0
LINE
  5
173A30
  8
P0
 10
324.99999999999989
 20
0.0
 30
0.0
 11
321.67413900000003
 21
0.2447759999995469
 31
0.0
  0
LINE
  5
173A31
  8
P0
 10
321.7343459999999
 20
-0.6833329999999478
 30
0.0
 11
324.99999999999989
 21
0.0
 31
0.0
  0
LINE
  5
173A32
  8
P0
 10
315.03623499999992
 20
-2.0378259999997681
 30
0.0
 11
321.7343459999999
 21
-0.6833329999999478
 31
0.0
  0
POINT
  5
173A33
  8
DEFPOINTS
  6
BYBLOCK
 62
     0
 10
324.99999999999989
 20
-20.92954823876789
 30
0.0
  0
POINT
  5
173A34
  8
DEFPOINTS
  6
BYBLOCK
 62
     0
 10
324.99999999999989
 20
0.0
 30
0.0
  0
SOLID
  5
173A35
  8
0
  6
BYBLOCK
 62
     4
 10
321.99999999999989
 20
-20.42954823876789
 30
0.0
 11
321.99999999999989
 21
-21.42954823876789
 31
0.0
 12
324.99999999999989
 22
-20.92954823876789
 32
0.0
 13
324.99999999999989
 23
-20.92954823876789
 33
0.0
  0
LINE
  5
173A36
  8
0
  6
BYBLOCK
 62
     4
 10
324.99999999999989
 20
-1.5
 30
0.0
 11
324.99999999999989
 21
-22.729548238768079
 31
0.0
  0
ENDBLK
  5
173A38
  8
0
  0
BLOCK
  8
0
  2
*D11
 70
     1
 10
0.0
 20
0.0
 30
0.0
  3
*D11
  1

  0
LINE
  5
17412C
  8
P-0
 62
     4
 10
-104.03667468305861
 20
-128.47247035626779
 30
0.0
 11
-104.03667468305861
 21
-181.57207839775401
 31
0.0
  0
LINE
  5
17412D
  8
P-0
 62
     4
 10
-144.03667468305861
 20
-128.47247035626779
 30
0.0
 11
-144.03667468305861
 21
-181.57207839775401
 31
0.0
  0
LINE
  5
17412E
  8
P-0
 62
     4
 10
-114.03667468305861
 20
-177.57207839775401
 30
0.0
 11
-134.03667468305861
 21
-177.57207839775401
 31
0.0
  0
LINE
  5
17412F
  8
P-0
 62
     4
 10
-144.03667468305861
 20
-177.57207839775401
 30
0.0
 11
-154.03667468305861
 21
-177.57207839775401
 31
0.0
  0
SOLID
  5
174130
  8
P-0
 62
     4
 10
-114.03667468305861
 20
-175.9054117310873
 30
0.0
 11
-114.03667468305861
 21
-179.2387450644207
 31
0.0
 12
-104.03667468305861
 22
-177.57207839775401
 32
0.0
 13
-104.03667468305861
 23
-177.57207839775401
 33
0.0
  0
SOLID
  5
174131
  8
P-0
 62
     4
 10
-134.03667468305861
 20
-175.9054117310873
 30
0.0
 11
-134.03667468305861
 21
-179.2387450644207
 31
0.0
 12
-144.03667468305861
 22
-177.57207839775401
 32
0.0
 13
-144.03667468305861
 23
-177.57207839775401
 33
0.0
  0
TEXT
  8
P-0
  40
15
  5
1741E1
  62
90
  72
0
  71
0
 10
-257.465
 20
-204.122
 30
0.000000
  1
Elevons 40.0
  0
POINT
  5
174133
  8
DEFPOINTS
 62
     0
 10
-104.03667468305861
 20
-124.47247035626781
 30
0.0
  0
POINT
  5
174134
  8
DEFPOINTS
 62
     0
 10
-144.03667468305861
 20
-124.47247035626781
 30
0.0
  0
POINT
  5
174135
  8
DEFPOINTS
 62
     0
 10
-144.03667468305861
 20
-177.57207839775401
 30
0.0
  0
ENDBLK
  5
173BE7
  8
0
  0
BLOCK
  8
0
  2
*D12
 70
     1
 10
0.0
 20
0.0
 30
0.0
  3
*D12
  1

  0
LINE
  5
174136
  8
P-0
 62
     4
 10
-433.03667468305838
 20
-128.47247035626779
 30
0.0
 11
-433.03667468305838
 21
-155.62772753599799
 31
0.0
  0
LINE
  5
174137
  8
P-0
 62
     4
 10
-104.03667468305861
 20
-128.47247035626779
 30
0.0
 11
-104.03667468305861
 21
-155.62772753599799
 31
0.0
  0
LINE
  5
174138
  8
P-0
 62
     4
 10
-423.03667468305838
 20
-151.62772753599799
 30
0.0
 11
-300.53667468305849
 21
-151.62772753599799
 31
0.0
  0
LINE
  5
174139
  8
P-0
 62
     4
 10
-114.03667468305861
 20
-151.62772753599799
 30
0.0
 11
-236.53667468305861
 21
-151.62772753599799
 31
0.0
  0
SOLID
  5
17413A
  8
P-0
 62
     4
 10
-423.03667468305838
 20
-149.96106086933131
 30
0.0
 11
-423.03667468305838
 21
-153.29439420266471
 31
0.0
 12
-433.03667468305838
 22
-151.62772753599799
 32
0.0
 13
-433.03667468305838
 23
-151.62772753599799
 33
0.0
  0
SOLID
  5
17413B
  8
P-0
 62
     4
 10
-114.03667468305861
 20
-149.96106086933131
 30
0.0
 11
-114.03667468305861
 21
-153.29439420266471
 31
0.0
 12
-104.03667468305861
 22
-151.62772753599799
 32
0.0
 13
-104.03667468305861
 23
-151.62772753599799
 33
0.0
  0
TEXT
  8
P-0
  40
15
  5
1741E2
  62
90
  72
0
  71
0
 10
-298.537
 20
-178.178
 30
0.000000
  1
329.0
  0
POINT
  5
17413D
  8
DEFPOINTS
 62
     0
 10
-433.03667468305838
 20
-124.47247035626781
 30
0.0
  0
POINT
  5
17413E
  8
DEFPOINTS
 62
     0
 10
-104.03667468305861
 20
-124.47247035626781
 30
0.0
  0
POINT
  5
17413F
  8
DEFPOINTS
 62
     0
 10
-104.03667468305861
 20
-151.62772753599799
 30
0.0
  0
ENDBLK
  5
173B9E
  8
0
  0
BLOCK
  8
0
  2
*D13
 70
     1
 10
0.0
 20
0.0
 30
0.0
  3
*D13
  1

  0
LINE
  5
174140
  8
P-0
 62
     4
 10
-433.03667468305838
 20
-124.47247035626781
 30
0.0
 11
-433.03667468305838
 21
-61.544725224467577
 31
0.0
  0
LINE
  5
174141
  8
P-0
 62
     4
 10
-251.3280989419215
 20
-94.211568526454357
 30
0.0
 11
-251.3280989419215
 21
-61.544725224467577
 31
0.0
  0
LINE
  5
174142
  8
P-0
 62
     4
 10
-423.03667468305838
 20
-65.544725224467584
 30
0.0
 11
-373.11095824106138
 21
-65.544725224467584
 31
0.0
  0
LINE
  5
174143
  8
P-0
 62
     4
 10
-261.3280989419215
 20
-65.544725224467584
 30
0.0
 11
-311.25381538391861
 21
-65.544725224467584
 31
0.0
  0
SOLID
  5
174144
  8
P-0
 62
     4
 10
-423.03667468305838
 20
-63.878058557800919
 30
0.0
 11
-423.03667468305838
 21
-67.211391891134255
 31
0.0
 12
-433.03667468305838
 22
-65.544725224467584
 32
0.0
 13
-433.03667468305838
 23
-65.544725224467584
 33
0.0
  0
SOLID
  5
174145
  8
P-0
 62
     4
 10
-261.3280989419215
 20
-63.878058557800919
 30
0.0
 11
-261.3280989419215
 21
-67.211391891134255
 31
0.0
 12
-251.3280989419215
 22
-65.544725224467584
 32
0.0
 13
-251.3280989419215
 23
-65.544725224467584
 33
0.0
  0
TEXT
  8
P-0
  40
15
  5
1741E3
  62
90
  72
0
  71
0
 10
-372.182
 20
-92.0947
 30
0.000000
  1
181.7
  0
POINT
  5
174147
  8
DEFPOINTS
 62
     0
 10
-433.03667468305838
 20
-128.47247035626779
 30
0.0
  0
POINT
  5
174148
  8
DEFPOINTS
 62
     0
 10
-251.3280989419215
 20
-98.211568526454371
 30
0.0
  0
POINT
  5
174149
  8
DEFPOINTS
 62
     0
 10
-251.3280989419215
 20
-65.544725224467584
 30
0.0
  0
ENDBLK
  5
173BAA
  8
0
  0
BLOCK
  8
0
  2
*D14
 70
     1
 10
0.0
 20
0.0
 30
0.0
  3
*D14
  1

  0
LINE
  5
17414A
  8
P-0
 62
     4
 10
-251.3280989419215
 20
-94.211568526454357
 30
0.0
 11
-251.3280989419215
 21
127.2420965754654
 31
0.0
  0
LINE
  5
17414B
  8
P-0
 62
     4
 10
-75.251330391675765
 20
115.6285529656807
 30
0.0
 11
-75.251330391675765
 21
127.2420965754654
 31
0.0
  0
LINE
  5
17414C
  8
P-0
 62
     4
 10
-241.32809894192161
 20
123.2420965754654
 30
0.0
 11
-192.07542895251291
 21
123.2420965754654
 31
0.0
  0
LINE
  5
17414D
  8
P-0
 62
     4
 10
-85.251330391675765
 20
123.2420965754654
 30
0.0
 11
-134.50400038108441
 21
123.2420965754654
 31
0.0
  0
SOLID
  5
17414E
  8
P-0
 62
     4
 10
-241.32809894192161
 20
124.9087632421321
 30
0.0
 11
-241.32809894192161
 21
121.5754299087987
 31
0.0
 12
-251.3280989419215
 22
123.2420965754654
 32
0.0
 13
-251.3280989419215
 23
123.2420965754654
 33
0.0
  0
SOLID
  5
17414F
  8
P-0
 62
     4
 10
-85.251330391675765
 20
124.9087632421321
 30
0.0
 11
-85.251330391675765
 21
121.5754299087987
 31
0.0
 12
-75.251330391675765
 22
123.2420965754654
 32
0.0
 13
-75.251330391675765
 23
123.2420965754654
 33
0.0
  0
TEXT
  8
P-0
  40
15
  5
1741E4
  62
90
  72
0
  71
0
 10
-193.290
 20
96.6921
 30
0.000000
  1
176.1
  0
POINT
  5
174151
  8
DEFPOINTS
 62
     0
 10
-251.3280989419215
 20
-98.211568526454371
 30
0.0
  0
POINT
  5
174152
  8
DEFPOINTS
 62
     0
 10
-75.251330391675765
 20
111.6285529656807
 30
0.0
  0
POINT
  5
174153
  8
DEFPOINTS
 62
     0
 10
-75.251330391675765
 20
123.2420965754654
 30
0.0
  0
ENDBLK
  5
173BC2
  8
0
  0
BLOCK
  8
0
  2
*D15
 70
     1
 10
0.0
 20
0.0
 30
0.0
  3
*D15
  1

  0
LINE
  5
174154
  8
P-0
 62
     4
 10
-75.251330391675765
 20
115.6285529656807
 30
0.0
 11
-75.251330391675765
 21
127.2420965754654
 31
0.0
  0
LINE
  5
174155
  8
P-0
 62
     4
 10
8.3576540575654672
 20
-93.717395768659117
 30
0.0
 11
8.3576540575654832
 21
127.2420965754654
 31
0.0
  0
LINE
  5
174156
  8
P-0
 62
     4
 10
-65.251330391675765
 20
123.2420965754654
 30
0.0
 11
-58.303981024197988
 21
123.2420965754654
 31
0.0
  0
LINE
  5
174157
  8
P-0
 62
     4
 10
-1.6423459424345159
 20
123.2420965754654
 30
0.0
 11
-8.5896953099122921
 21
123.2420965754654
 31
0.0
  0
SOLID
  5
174158
  8
P-0
 62
     4
 10
-65.251330391675765
 20
124.9087632421321
 30
0.0
 11
-65.251330391675765
 21
121.5754299087987
 31
0.0
 12
-75.251330391675765
 22
123.2420965754654
 32
0.0
 13
-75.251330391675765
 23
123.2420965754654
 33
0.0
  0
SOLID
  5
174159
  8
P-0
 62
     4
 10
-1.6423459424345159
 20
124.9087632421321
 30
0.0
 11
-1.6423459424345159
 21
121.5754299087987
 31
0.0
 12
8.3576540575654832
 22
123.2420965754654
 32
0.0
 13
8.3576540575654832
 23
123.2420965754654
 33
0.0
  0
TEXT
  8
P-0
  40
15
  5
1741E5
  62
90
  72
0
  71
0
 10
-63.4468
 20
96.6921
 30
0.000000
  1
83.6
  0
POINT
  5
17415B
  8
DEFPOINTS
 62
     0
 10
-75.251330391675765
 20
111.6285529656807
 30
0.0
  0
POINT
  5
17415C
  8
DEFPOINTS
 62
     0
 10
8.3576540575654672
 20
-97.717395768659117
 30
0.0
  0
POINT
  5
17415D
  8
DEFPOINTS
 62
     0
 10
8.3576540575654832
 20
123.2420965754654
 30
0.0
  0
ENDBLK
  5
173BCE
  8
0
  0
BLOCK
  8
0
  2
*D16
 70
     1
 10
0.0
 20
0.0
 30
0.0
  3
*D16
  1

  0
LINE
  5
17415E
  8
P-0
 62
     4
 10
-79.251330391675765
 20
111.6285529656807
 30
0.0
 11
-234.94725145106821
 21
111.6285529656807
 31
0.0
  0
LINE
  5
17415F
  8
P-0
 62
     4
 10
-247.3280989419215
 20
-98.211568526454371
 30
0.0
 11
-226.9472514510683
 21
-98.211568526454371
 31
0.0
  0
LINE
  5
174160
  8
P-0
 62
     4
 10
-230.94725145106821
 20
101.6285529656807
 30
0.0
 11
-230.94725145106821
 21
16.208492219613181
 31
0.0
  0
LINE
  5
174161
  8
P-0
 62
     4
 10
-230.9472514510683
 20
-88.211568526454343
 30
0.0
 11
-230.94725145106821
 21
-2.7915077803868158
 31
0.0
  0
SOLID
  5
174162
  8
P-0
 62
     4
 10
-232.6139181177349
 20
101.6285529656807
 30
0.0
 11
-229.2805847844015
 21
101.6285529656807
 31
0.0
 12
-230.94725145106821
 22
111.6285529656807
 32
0.0
 13
-230.94725145106821
 23
111.6285529656807
 33
0.0
  0
SOLID
  5
174163
  8
P-0
 62
     4
 10
-232.6139181177349
 20
-88.211568526454343
 30
0.0
 11
-229.28058478440161
 21
-88.211568526454343
 31
0.0
 12
-230.9472514510683
 22
-98.211568526454371
 32
0.0
 13
-230.9472514510683
 23
-98.211568526454371
 33
0.0
  0
TEXT
  8
P-0
  40
15
  5
1741E6
  62
90
  72
0
  71
0
 10
-260.947
 20
-19.8415
 30
0.000000
  1
209.8
  0
POINT
  5
174165
  8
DEFPOINTS
 62
     0
 10
-75.251330391675765
 20
111.6285529656807
 30
0.0
  0
POINT
  5
174166
  8
DEFPOINTS
 62
     0
 10
-251.3280989419215
 20
-98.211568526454371
 30
0.0
  0
POINT
  5
174167
  8
DEFPOINTS
 62
     0
 10
-230.9472514510683
 20
-98.211568526454371
 30
0.0
  0
ENDBLK
  5
173BB6
  8
0
  0
BLOCK
  8
0
  2
*D17
 70
     1
 10
0.0
 20
0.0
 30
0.0
  3
*D17
  1

  0
LINE
  5
174168
  8
P-0
 62
     4
 10
-247.3280989419215
 20
-98.211568526454371
 30
0.0
 11
78.29431484461719
 21
-98.211568526454442
 31
0.0
  0
LINE
  5
174169
  8
P-0
 62
     4
 10
-429.03667468305838
 20
-124.47247035626781
 30
0.0
 11
78.294314844617205
 21
-124.472470356268
 31
0.0
  0
LINE
  5
17416A
  8
P-0
 62
     4
 10
74.29431484461719
 20
-108.2115685264544
 30
0.0
 11
74.29431484461719
 21
-114.472470356268
 31
0.0
  0
LINE
  5
17416B
  8
P-0
 62
     4
 10
74.29431484461719
 20
-124.472470356268
 30
0.0
 11
74.29431484461719
 21
-150.94645355165181
 31
0.0
  0
LINE
  5
17416C
  8
P-0
 62
     4
 10
74.29431484461719
 20
-150.94645355165181
 30
0.0
 11
64.29431484461719
 21
-150.94645355165181
 31
0.0
  0
SOLID
  5
17416D
  8
P-0
 62
     4
 10
72.627648177950505
 20
-108.2115685264544
 30
0.0
 11
75.960981511283862
 21
-108.2115685264544
 31
0.0
 12
74.29431484461719
 22
-98.211568526454442
 32
0.0
 13
74.29431484461719
 23
-98.211568526454442
 33
0.0
  0
SOLID
  5
17416E
  8
P-0
 62
     4
 10
72.627648177950505
 20
-114.472470356268
 30
0.0
 11
75.960981511283862
 21
-114.472470356268
 31
0.0
 12
74.29431484461719
 22
-124.472470356268
 32
0.0
 13
74.29431484461719
 23
-124.472470356268
 33
0.0
  0
TEXT
  8
P-0
  40
15
  5
1741E7
  62
90
  72
0
  71
0
 10
9.43717
 20
-177.496
 30
0.000000
  1
26.3
  0
POINT
  5
174170
  8
DEFPOINTS
 62
     0
 10
-251.3280989419215
 20
-98.211568526454371
 30
0.0
  0
POINT
  5
174171
  8
DEFPOINTS
 62
     0
 10
-433.03667468305838
 20
-124.47247035626781
 30
0.0
  0
POINT
  5
174172
  8
DEFPOINTS
 62
     0
 10
74.29431484461719
 20
-124.472470356268
 30
0.0
  0
ENDBLK
  5
173BF4
  8
0
  0
BLOCK
  8
0
  2
*D18
 70
     1
 10
0.0
 20
0.0
 30
0.0
  3
*D18
  1

  0
LINE
  5
173C24
  8
0
  6
BYBLOCK
 62
     4
 10
-104.03667468305861
 20
-128.47247035626779
 30
0.0
 11
-104.03667468305861
 21
-181.57207839775401
 31
0.0
  0
LINE
  5
173C25
  8
0
  6
BYBLOCK
 62
     4
 10
-144.03667468305861
 20
-128.47247035626779
 30
0.0
 11
-144.03667468305861
 21
-181.57207839775401
 31
0.0
  0
LINE
  5
173C26
  8
0
  6
BYBLOCK
 62
     4
 10
-114.03667468305861
 20
-177.57207839775401
 30
0.0
 11
-134.03667468305861
 21
-177.57207839775401
 31
0.0
  0
LINE
  5
173C27
  8
0
  6
BYBLOCK
 62
     4
 10
-144.03667468305861
 20
-177.57207839775401
 30
0.0
 11
-154.03667468305861
 21
-177.57207839775401
 31
0.0
  0
SOLID
  5
173C28
  8
0
  6
BYBLOCK
 62
     4
 10
-114.03667468305861
 20
-175.9054117310873
 30
0.0
 11
-114.03667468305861
 21
-179.2387450644207
 31
0.0
 12
-104.03667468305861
 22
-177.57207839775401
 32
0.0
 13
-104.03667468305861
 23
-177.57207839775401
 33
0.0
  0
SOLID
  5
173C29
  8
0
  6
BYBLOCK
 62
     4
 10
-134.03667468305861
 20
-175.9054117310873
 30
0.0
 11
-134.03667468305861
 21
-179.2387450644207
 31
0.0
 12
-144.03667468305861
 22
-177.57207839775401
 32
0.0
 13
-144.03667468305861
 23
-177.57207839775401
 33
0.0
  0
INSERT
  5
173C2A
  8
P-0
  2
*U35
 10
0.0
 20
0.0
 30
0.0
  0
POINT
  5
173C2B
  8
DEFPOINTS
  6
BYBLOCK
 62
     0
 10
-104.03667468305861
 20
-124.47247035626781
 30
0.0
  0
POINT
  5
173C2C
  8
DEFPOINTS
  6
BYBLOCK
 62
     0
 10
-144.03667468305861
 20
-124.47247035626781
 30
0.0
  0
POINT
  5
173C2D
  8
DEFPOINTS
  6
BYBLOCK
 62
     0
 10
-144.03667468305861
 20
-177.57207839775401
 30
0.0
  0
ENDBLK
  5
173C2E
  8
0
  0
BLOCK
  8
0
  2
*D19
 70
     1
 10
0.0
 20
0.0
 30
0.0
  3
*D19
  1

  0
LINE
  5
173C31
  8
0
  6
BYBLOCK
 62
     4
 10
-433.03667468305838
 20
-128.47247035626779
 30
0.0
 11
-433.03667468305838
 21
-155.62772753599799
 31
0.0
  0
LINE
  5
173C32
  8
0
  6
BYBLOCK
 62
     4
 10
-104.03667468305861
 20
-128.47247035626779
 30
0.0
 11
-104.03667468305861
 21
-155.62772753599799
 31
0.0
  0
LINE
  5
173C33
  8
0
  6
BYBLOCK
 62
     4
 10
-423.03667468305838
 20
-151.62772753599799
 30
0.0
 11
-300.53667468305849
 21
-151.62772753599799
 31
0.0
  0
LINE
  5
173C34
  8
0
  6
BYBLOCK
 62
     4
 10
-114.03667468305861
 20
-151.62772753599799
 30
0.0
 11
-236.53667468305861
 21
-151.62772753599799
 31
0.0
  0
SOLID
  5
173C35
  8
0
  6
BYBLOCK
 62
     4
 10
-423.03667468305838
 20
-149.96106086933131
 30
0.0
 11
-423.03667468305838
 21
-153.29439420266471
 31
0.0
 12
-433.03667468305838
 22
-151.62772753599799
 32
0.0
 13
-433.03667468305838
 23
-151.62772753599799
 33
0.0
  0
SOLID
  5
173C36
  8
0
  6
BYBLOCK
 62
     4
 10
-114.03667468305861
 20
-149.96106086933131
 30
0.0
 11
-114.03667468305861
 21
-153.29439420266471
 31
0.0
 12
-104.03667468305861
 22
-151.62772753599799
 32
0.0
 13
-104.03667468305861
 23
-151.62772753599799
 33
0.0
  0
INSERT
  5
173C37
  8
P-0
  2
*U36
 10
0.0
 20
0.0
 30
0.0
  0
POINT
  5
173C38
  8
DEFPOINTS
  6
BYBLOCK
 62
     0
 10
-433.03667468305838
 20
-124.47247035626781
 30
0.0
  0
POINT
  5
173C39
  8
DEFPOINTS
  6
BYBLOCK
 62
     0
 10
-104.03667468305861
 20
-124.47247035626781
 30
0.0
  0
POINT
  5
173C3A
  8
DEFPOINTS
  6
BYBLOCK
 62
     0
 10
-104.03667468305861
 20
-151.62772753599799
 30
0.0
  0
ENDBLK
  5
173C3B
  8
0
  0
BLOCK
  8
0
  2
*D20
 70
     1
 10
0.0
 20
0.0
 30
0.0
  3
*D20
  1

  0
LINE
  5
173C3E
  8
0
  6
BYBLOCK
 62
     4
 10
-433.03667468305838
 20
-124.47247035626781
 30
0.0
 11
-433.03667468305838
 21
-61.544725224467577
 31
0.0
  0
LINE
  5
173C3F
  8
0
  6
BYBLOCK
 62
     4
 10
-251.3280989419215
 20
-94.211568526454357
 30
0.0
 11
-251.3280989419215
 21
-61.544725224467577
 31
0.0
  0
LINE
  5
173C40
  8
0
  6
BYBLOCK
 62
     4
 10
-423.03667468305838
 20
-65.544725224467584
 30
0.0
 11
-373.11095824106138
 21
-65.544725224467584
 31
0.0
  0
LINE
  5
173C41
  8
0
  6
BYBLOCK
 62
     4
 10
-261.3280989419215
 20
-65.544725224467584
 30
0.0
 11
-311.25381538391861
 21
-65.544725224467584
 31
0.0
  0
SOLID
  5
173C42
  8
0
  6
BYBLOCK
 62
     4
 10
-423.03667468305838
 20
-63.878058557800919
 30
0.0
 11
-423.03667468305838
 21
-67.211391891134255
 31
0.0
 12
-433.03667468305838
 22
-65.544725224467584
 32
0.0
 13
-433.03667468305838
 23
-65.544725224467584
 33
0.0
  0
SOLID
  5
173C43
  8
0
  6
BYBLOCK
 62
     4
 10
-261.3280989419215
 20
-63.878058557800919
 30
0.0
 11
-261.3280989419215
 21
-67.211391891134255
 31
0.0
 12
-251.3280989419215
 22
-65.544725224467584
 32
0.0
 13
-251.3280989419215
 23
-65.544725224467584
 33
0.0
  0
INSERT
  5
173C44
  8
P-0
  2
*U37
 10
0.0
 20
0.0
 30
0.0
  0
POINT
  5
173C45
  8
DEFPOINTS
  6
BYBLOCK
 62
     0
 10
-433.03667468305838
 20
-128.47247035626779
 30
0.0
  0
POINT
  5
173C46
  8
DEFPOINTS
  6
BYBLOCK
 62
     0
 10
-251.3280989419215
 20
-98.211568526454371
 30
0.0
  0
POINT
  5
173C47
  8
DEFPOINTS
  6
BYBLOCK
 62
     0
 10
-251.3280989419215
 20
-65.544725224467584
 30
0.0
  0
ENDBLK
  5
173C48
  8
0
  0
BLOCK
  8
0
  2
*D21
 70
     1
 10
0.0
 20
0.0
 30
0.0
  3
*D21
  1

  0
LINE
  5
173C4B
  8
0
  6
BYBLOCK
 62
     4
 10
-251.3280989419215
 20
-94.211568526454357
 30
0.0
 11
-251.3280989419215
 21
127.2420965754654
 31
0.0
  0
LINE
  5
173C4C
  8
0
  6
BYBLOCK
 62
     4
 10
-75.251330391675765
 20
115.6285529656807
 30
0.0
 11
-75.251330391675765
 21
127.2420965754654
 31
0.0
  0
LINE
  5
173C4D
  8
0
  6
BYBLOCK
 62
     4
 10
-241.32809894192161
 20
123.2420965754654
 30
0.0
 11
-192.07542895251291
 21
123.2420965754654
 31
0.0
  0
LINE
  5
173C4E
  8
0
  6
BYBLOCK
 62
     4
 10
-85.251330391675765
 20
123.2420965754654
 30
0.0
 11
-134.50400038108441
 21
123.2420965754654
 31
0.0
  0
SOLID
  5
173C4F
  8
0
  6
BYBLOCK
 62
     4
 10
-241.32809894192161
 20
124.9087632421321
 30
0.0
 11
-241.32809894192161
 21
121.5754299087987
 31
0.0
 12
-251.3280989419215
 22
123.2420965754654
 32
0.0
 13
-251.3280989419215
 23
123.2420965754654
 33
0.0
  0
SOLID
  5
173C50
  8
0
  6
BYBLOCK
 62
     4
 10
-85.251330391675765
 20
124.9087632421321
 30
0.0
 11
-85.251330391675765
 21
121.5754299087987
 31
0.0
 12
-75.251330391675765
 22
123.2420965754654
 32
0.0
 13
-75.251330391675765
 23
123.2420965754654
 33
0.0
  0
INSERT
  5
173C51
  8
P-0
  2
*U38
 10
0.0
 20
0.0
 30
0.0
  0
POINT
  5
173C52
  8
DEFPOINTS
  6
BYBLOCK
 62
     0
 10
-251.3280989419215
 20
-98.211568526454371
 30
0.0
  0
POINT
  5
173C53
  8
DEFPOINTS
  6
BYBLOCK
 62
     0
 10
-75.251330391675765
 20
111.6285529656807
 30
0.0
  0
POINT
  5
173C54
  8
DEFPOINTS
  6
BYBLOCK
 62
     0
 10
-75.251330391675765
 20
123.2420965754654
 30
0.0
  0
ENDBLK
  5
173C55
  8
0
  0
BLOCK
  8
0
  2
*D22
 70
     1
 10
0.0
 20
0.0
 30
0.0
  3
*D22
  1

  0
LINE
  5
173C58
  8
0
  6
BYBLOCK
 62
     4
 10
-75.251330391675765
 20
115.6285529656807
 30
0.0
 11
-75.251330391675765
 21
127.2420965754654
 31
0.0
  0
LINE
  5
173C59
  8
0
  6
BYBLOCK
 62
     4
 10
8.3576540575654672
 20
-93.717395768659117
 30
0.0
 11
8.3576540575654832
 21
127.2420965754654
 31
0.0
  0
LINE
  5
173C5A
  8
0
  6
BYBLOCK
 62
     4
 10
-65.251330391675765
 20
123.2420965754654
 30
0.0
 11
-58.303981024198002
 21
123.2420965754654
 31
0.0
  0
LINE
  5
173C5B
  8
0
  6
BYBLOCK
 62
     4
 10
-1.6423459424345159
 20
123.2420965754654
 30
0.0
 11
-8.5896953099122797
 21
123.2420965754654
 31
0.0
  0
SOLID
  5
173C5C
  8
0
  6
BYBLOCK
 62
     4
 10
-65.251330391675765
 20
124.9087632421321
 30
0.0
 11
-65.251330391675765
 21
121.5754299087987
 31
0.0
 12
-75.251330391675765
 22
123.2420965754654
 32
0.0
 13
-75.251330391675765
 23
123.2420965754654
 33
0.0
  0
SOLID
  5
173C5D
  8
0
  6
BYBLOCK
 62
     4
 10
-1.6423459424345159
 20
124.9087632421321
 30
0.0
 11
-1.6423459424345159
 21
121.5754299087987
 31
0.0
 12
8.3576540575654832
 22
123.2420965754654
 32
0.0
 13
8.3576540575654832
 23
123.2420965754654
 33
0.0
  0
INSERT
  5
173C5E
  8
P-0
  2
*U39
 10
0.0
 20
0.0
 30
0.0
  0
POINT
  5
173C5F
  8
DEFPOINTS
  6
BYBLOCK
 62
     0
 10
-75.251330391675765
 20
111.6285529656807
 30
0.0
  0
POINT
  5
173C60
  8
DEFPOINTS
  6
BYBLOCK
 62
     0
 10
8.3576540575654672
 20
-97.717395768659117
 30
0.0
  0
POINT
  5
173C61
  8
DEFPOINTS
  6
BYBLOCK
 62
     0
 10
8.3576540575654832
 20
123.2420965754654
 30
0.0
  0
ENDBLK
  5
173C62
  8
0
  0
BLOCK
  8
0
  2
*D23
 70
     1
 10
0.0
 20
0.0
 30
0.0
  3
*D23
  1

  0
LINE
  5
173C65
  8
0
  6
BYBLOCK
 62
     4
 10
-79.251330391675765
 20
111.6285529656807
 30
0.0
 11
-234.9472514510683
 21
111.6285529656807
 31
0.0
  0
LINE
  5
173C66
  8
0
  6
BYBLOCK
 62
     4
 10
-247.3280989419215
 20
-98.211568526454371
 30
0.0
 11
-226.9472514510683
 21
-98.211568526454371
 31
0.0
  0
LINE
  5
173C67
  8
0
  6
BYBLOCK
 62
     4
 10
-230.9472514510683
 20
101.6285529656807
 30
0.0
 11
-230.9472514510683
 21
16.20849221961317
 31
0.0
  0
LINE
  5
173C68
  8
0
  6
BYBLOCK
 62
     4
 10
-230.9472514510683
 20
-88.211568526454343
 30
0.0
 11
-230.9472514510683
 21
-2.7915077803868238
 31
0.0
  0
SOLID
  5
173C69
  8
0
  6
BYBLOCK
 62
     4
 10
-232.6139181177349
 20
101.6285529656807
 30
0.0
 11
-229.28058478440161
 21
101.6285529656807
 31
0.0
 12
-230.9472514510683
 22
111.6285529656807
 32
0.0
 13
-230.9472514510683
 23
111.6285529656807
 33
0.0
  0
SOLID
  5
173C6A
  8
0
  6
BYBLOCK
 62
     4
 10
-232.6139181177349
 20
-88.211568526454343
 30
0.0
 11
-229.28058478440161
 21
-88.211568526454343
 31
0.0
 12
-230.9472514510683
 22
-98.211568526454371
 32
0.0
 13
-230.9472514510683
 23
-98.211568526454371
 33
0.0
  0
INSERT
  5
173C6B
  8
P-0
  2
*U40
 10
0.0
 20
0.0
 30
0.0
  0
POINT
  5
173C6C
  8
DEFPOINTS
  6
BYBLOCK
 62
     0
 10
-75.251330391675765
 20
111.6285529656807
 30
0.0
  0
POINT
  5
173C6D
  8
DEFPOINTS
  6
BYBLOCK
 62
     0
 10
-251.3280989419215
 20
-98.211568526454371
 30
0.0
  0
POINT
  5
173C6E
  8
DEFPOINTS
  6
BYBLOCK
 62
     0
 10
-230.9472514510683
 20
-98.211568526454371
 30
0.0
  0
ENDBLK
  5
173C6F
  8
0
  0
BLOCK
  8
0
  2
*D24
 70
     1
 10
0.0
 20
0.0
 30
0.0
  3
*D24
  1

  0
LINE
  5
173C72
  8
0
  6
BYBLOCK
 62
     4
 10
-247.3280989419215
 20
-98.211568526454371
 30
0.0
 11
78.294314844617247
 21
-98.211568526454386
 31
0.0
  0
LINE
  5
173C73
  8
0
  6
BYBLOCK
 62
     4
 10
-429.03667468305838
 20
-124.47247035626781
 30
0.0
 11
78.294314844617233
 21
-124.47247035626791
 31
0.0
  0
LINE
  5
173C74
  8
0
  6
BYBLOCK
 62
     4
 10
74.294314844617219
 20
-108.2115685264544
 30
0.0
 11
74.294314844617219
 21
-114.47247035626791
 31
0.0
  0
LINE
  5
173C75
  8
0
  6
BYBLOCK
 62
     4
 10
74.294314844617205
 20
-124.47247035626791
 30
0.0
 11
74.294314844617205
 21
-150.9464535516517
 31
0.0
  0
LINE
  5
173C76
  8
0
  6
BYBLOCK
 62
     4
 10
74.294314844617205
 20
-150.9464535516517
 30
0.0
 11
64.294314844617205
 21
-150.9464535516517
 31
0.0
  0
SOLID
  5
173C77
  8
0
  6
BYBLOCK
 62
     4
 10
72.627648177950547
 20
-108.2115685264544
 30
0.0
 11
75.96098151128389
 21
-108.2115685264544
 31
0.0
 12
74.294314844617219
 22
-98.211568526454386
 32
0.0
 13
74.294314844617219
 23
-98.211568526454386
 33
0.0
  0
SOLID
  5
173C78
  8
0
  6
BYBLOCK
 62
     4
 10
72.627648177950533
 20
-114.47247035626791
 30
0.0
 11
75.960981511283876
 21
-114.47247035626791
 31
0.0
 12
74.294314844617205
 22
-124.47247035626791
 32
0.0
 13
74.294314844617205
 23
-124.47247035626791
 33
0.0
  0
INSERT
  5
173C79
  8
P-0
  2
*U41
 10
0.0
 20
0.0
 30
0.0
  0
POINT
  5
173C7A
  8
DEFPOINTS
  6
BYBLOCK
 62
     0
 10
-251.3280989419215
 20
-98.211568526454371
 30
0.0
  0
POINT
  5
173C7B
  8
DEFPOINTS
  6
BYBLOCK
 62
     0
 10
-433.03667468305838
 20
-124.47247035626781
 30
0.0
  0
POINT
  5
173C7C
  8
DEFPOINTS
  6
BYBLOCK
 62
     0
 10
74.294314844617205
 20
-124.47247035626791
 30
0.0
  0
ENDBLK
  5
173C7D
  8
0
  0
BLOCK
  8
0
  2
*D26
 70
     1
 10
0.0
 20
0.0
 30
0.0
  3
*D26
  1

  0
LINE
  5
17419A
  8
P-0
 62
     4
 10
10118.91287874607
 20
1490.541977984356
 30
0.0
 11
10118.91287874607
 21
1437.4423699428701
 31
0.0
  0
LINE
  5
17419B
  8
P-0
 62
     4
 10
10078.91287874607
 20
1490.541977984356
 30
0.0
 11
10078.91287874607
 21
1437.4423699428701
 31
0.0
  0
LINE
  5
17419C
  8
P-0
 62
     4
 10
10108.91287874607
 20
1441.4423699428701
 30
0.0
 11
10088.91287874607
 21
1441.4423699428701
 31
0.0
  0
LINE
  5
17419D
  8
P-0
 62
     4
 10
10078.91287874607
 20
1441.4423699428701
 30
0.0
 11
10068.91287874607
 21
1441.4423699428701
 31
0.0
  0
SOLID
  5
17419E
  8
P-0
 62
     4
 10
10108.91287874607
 20
1443.1090366095359
 30
0.0
 11
10108.91287874607
 21
1439.7757032762031
 31
0.0
 12
10118.91287874607
 22
1441.4423699428701
 32
0.0
 13
10118.91287874607
 23
1441.4423699428701
 33
0.0
  0
SOLID
  5
17419F
  8
P-0
 62
     4
 10
10088.91287874607
 20
1443.1090366095359
 30
0.0
 11
10088.91287874607
 21
1439.7757032762031
 31
0.0
 12
10078.91287874607
 22
1441.4423699428701
 32
0.0
 13
10078.91287874607
 23
1441.4423699428701
 33
0.0
  0
TEXT
  8
P-0
  40
15
  5
1741E8
  62
90
  72
0
  71
0
 10
9965.48
 20
1414.89
 30
0.000000
  1
Elevons 40.0
  0
POINT
  5
1741A1
  8
DEFPOINTS
 62
     0
 10
10118.91287874607
 20
1494.541977984356
 30
0.0
  0
POINT
  5
1741A2
  8
DEFPOINTS
 62
     0
 10
10078.91287874607
 20
1494.541977984356
 30
0.0
  0
POINT
  5
1741A3
  8
DEFPOINTS
 62
     0
 10
10078.91287874607
 20
1441.4423699428701
 30
0.0
  0
ENDBLK
  5
174082
  8
0
  0
BLOCK
  8
0
  2
*D27
 70
     1
 10
0.0
 20
0.0
 30
0.0
  3
*D27
  1

  0
LINE
  5
1741A4
  8
P-0
 62
     4
 10
9789.9128787460722
 20
1490.541977984356
 30
0.0
 11
9789.9128787460722
 21
1463.3867208046261
 31
0.0
  0
LINE
  5
1741A5
  8
P-0
 62
     4
 10
10118.91287874607
 20
1490.541977984356
 30
0.0
 11
10118.91287874607
 21
1463.3867208046261
 31
0.0
  0
LINE
  5
1741A6
  8
P-0
 62
     4
 10
9799.9128787460704
 20
1467.3867208046261
 30
0.0
 11
9922.4128787460704
 21
1467.3867208046261
 31
0.0
  0
LINE
  5
1741A7
  8
P-0
 62
     4
 10
10108.91287874607
 20
1467.3867208046261
 30
0.0
 11
9986.4128787460704
 21
1467.3867208046261
 31
0.0
  0
SOLID
  5
1741A8
  8
P-0
 62
     4
 10
9799.9128787460704
 20
1469.0533874712919
 30
0.0
 11
9799.9128787460704
 21
1465.7200541379591
 31
0.0
 12
9789.9128787460722
 22
1467.3867208046261
 32
0.0
 13
9789.9128787460722
 23
1467.3867208046261
 33
0.0
  0
SOLID
  5
1741A9
  8
P-0
 62
     4
 10
10108.91287874607
 20
1469.0533874712919
 30
0.0
 11
10108.91287874607
 21
1465.7200541379591
 31
0.0
 12
10118.91287874607
 22
1467.3867208046261
 32
0.0
 13
10118.91287874607
 23
1467.3867208046261
 33
0.0
  0
TEXT
  8
P-0
  40
15
  5
1741E9
  62
90
  72
0
  71
0
 10
9924.41
 20
1440.84
 30
0.000000
  1
329.0
  0
POINT
  5
1741AB
  8
DEFPOINTS
 62
     0
 10
9789.9128787460722
 20
1494.541977984356
 30
0.0
  0
POINT
  5
1741AC
  8
DEFPOINTS
 62
     0
 10
10118.91287874607
 20
1494.541977984356
 30
0.0
  0
POINT
  5
1741AD
  8
DEFPOINTS
 62
     0
 10
10118.91287874607
 20
1467.3867208046261
 30
0.0
  0
ENDBLK
  5
17408F
  8
0
  0
BLOCK
  8
0
  2
*D28
 70
     1
 10
0.0
 20
0.0
 30
0.0
  3
*D28
  1

  0
LINE
  5
1741AE
  8
P-0
 62
     4
 10
9789.9128787460722
 20
1494.541977984356
 30
0.0
 11
9789.9128787460722
 21
1557.469723116156
 31
0.0
  0
LINE
  5
1741AF
  8
P-0
 62
     4
 10
9971.6214544872073
 20
1524.802879814169
 30
0.0
 11
9971.6214544872073
 21
1557.469723116156
 31
0.0
  0
LINE
  5
1741B0
  8
P-0
 62
     4
 10
9799.9128787460704
 20
1553.469723116156
 30
0.0
 11
9849.8385951880664
 21
1553.469723116156
 31
0.0
  0
LINE
  5
1741B1
  8
P-0
 62
     4
 10
9961.6214544872073
 20
1553.469723116156
 30
0.0
 11
9911.6957380452095
 21
1553.469723116156
 31
0.0
  0
SOLID
  5
1741B2
  8
P-0
 62
     4
 10
9799.9128787460704
 20
1555.136389782823
 30
0.0
 11
9799.9128787460704
 21
1551.8030564494891
 31
0.0
 12
9789.9128787460722
 22
1553.469723116156
 32
0.0
 13
9789.9128787460722
 23
1553.469723116156
 33
0.0
  0
SOLID
  5
1741B3
  8
P-0
 62
     4
 10
9961.6214544872073
 20
1555.136389782823
 30
0.0
 11
9961.6214544872073
 21
1551.8030564494891
 31
0.0
 12
9971.6214544872073
 22
1553.469723116156
 32
0.0
 13
9971.6214544872073
 23
1553.469723116156
 33
0.0
  0
TEXT
  8
P-0
  40
15
  5
1741EA
  62
90
  72
0
  71
0
 10
9850.77
 20
1526.92
 30
0.000000
  1
181.7
  0
POINT
  5
1741B5
  8
DEFPOINTS
 62
     0
 10
9789.9128787460722
 20
1490.541977984356
 30
0.0
  0
POINT
  5
1741B6
  8
DEFPOINTS
 62
     0
 10
9971.6214544872073
 20
1520.802879814169
 30
0.0
  0
POINT
  5
1741B7
  8
DEFPOINTS
 62
     0
 10
9971.6214544872073
 20
1553.469723116156
 30
0.0
  0
ENDBLK
  5
17409C
  8
0
  0
BLOCK
  8
0
  2
*D29
 70
     1
 10
0.0
 20
0.0
 30
0.0
  3
*D29
  1

  0
LINE
  5
1741B8
  8
P-0
 62
     4
 10
9971.6214544872073
 20
1524.802879814169
 30
0.0
 11
9971.6214544872073
 21
1746.2565449160891
 31
0.0
  0
LINE
  5
1741B9
  8
P-0
 62
     4
 10
10147.698223037451
 20
1734.6430013063041
 30
0.0
 11
10147.698223037451
 21
1746.2565449160891
 31
0.0
  0
LINE
  5
1741BA
  8
P-0
 62
     4
 10
9981.6214544872091
 20
1742.2565449160891
 30
0.0
 11
10030.87412447661
 21
1742.2565449160891
 31
0.0
  0
LINE
  5
1741BB
  8
P-0
 62
     4
 10
10137.698223037451
 20
1742.2565449160891
 30
0.0
 11
10088.445553048041
 21
1742.2565449160891
 31
0.0
  0
SOLID
  5
1741BC
  8
P-0
 62
     4
 10
9981.6214544872091
 20
1743.923211582756
 30
0.0
 11
9981.6214544872091
 21
1740.5898782494221
 31
0.0
 12
9971.6214544872073
 22
1742.2565449160891
 32
0.0
 13
9971.6214544872073
 23
1742.2565449160891
 33
0.0
  0
SOLID
  5
1741BD
  8
P-0
 62
     4
 10
10137.698223037451
 20
1743.923211582756
 30
0.0
 11
10137.698223037451
 21
1740.5898782494221
 31
0.0
 12
10147.698223037451
 22
1742.2565449160891
 32
0.0
 13
10147.698223037451
 23
1742.2565449160891
 33
0.0
  0
TEXT
  8
P-0
  40
15
  5
1741EB
  62
90
  72
0
  71
0
 10
10029.7
 20
1715.71
 30
0.000000
  1
176.1
  0
POINT
  5
1741BF
  8
DEFPOINTS
 62
     0
 10
9971.6214544872073
 20
1520.802879814169
 30
0.0
  0
POINT
  5
1741C0
  8
DEFPOINTS
 62
     0
 10
10147.698223037451
 20
1730.6430013063041
 30
0.0
  0
POINT
  5
1741C1
  8
DEFPOINTS
 62
     0
 10
10147.698223037451
 20
1742.2565449160891
 30
0.0
  0
ENDBLK
  5
1740A9
  8
0
  0
BLOCK
  8
0
  2
*D30
 70
     1
 10
0.0
 20
0.0
 30
0.0
  3
*D30
  1

  0
LINE
  5
1741C2
  8
P-0
 62
     4
 10
10147.698223037451
 20
1734.6430013063041
 30
0.0
 11
10147.698223037451
 21
1746.2565449160891
 31
0.0
  0
LINE
  5
1741C3
  8
P-0
 62
     4
 10
10231.30720748669
 20
1525.2970525719641
 30
0.0
 11
10231.30720748669
 21
1746.2565449160891
 31
0.0
  0
LINE
  5
1741C4
  8
P-0
 62
     4
 10
10157.698223037451
 20
1742.2565449160891
 30
0.0
 11
10164.64557240493
 21
1742.2565449160891
 31
0.0
  0
LINE
  5
1741C5
  8
P-0
 62
     4
 10
10221.30720748669
 20
1742.2565449160891
 30
0.0
 11
10214.359858119209
 21
1742.2565449160891
 31
0.0
  0
SOLID
  5
1741C6
  8
P-0
 62
     4
 10
10157.698223037451
 20
1743.923211582756
 30
0.0
 11
10157.698223037451
 21
1740.5898782494221
 31
0.0
 12
10147.698223037451
 22
1742.2565449160891
 32
0.0
 13
10147.698223037451
 23
1742.2565449160891
 33
0.0
  0
SOLID
  5
1741C7
  8
P-0
 62
     4
 10
10221.30720748669
 20
1743.923211582756
 30
0.0
 11
10221.30720748669
 21
1740.5898782494221
 31
0.0
 12
10231.30720748669
 22
1742.2565449160891
 32
0.0
 13
10231.30720748669
 23
1742.2565449160891
 33
0.0
  0
TEXT
  8
P-0
  40
15
  5
1741EC
  62
90
  72
0
  71
0
 10
10159.5
 20
1715.71
 30
0.000000
  1
83.6
  0
POINT
  5
1741C9
  8
DEFPOINTS
 62
     0
 10
10147.698223037451
 20
1730.6430013063041
 30
0.0
  0
POINT
  5
1741CA
  8
DEFPOINTS
 62
     0
 10
10231.30720748669
 20
1521.297052571965
 30
0.0
  0
POINT
  5
1741CB
  8
DEFPOINTS
 62
     0
 10
10231.30720748669
 20
1742.2565449160891
 30
0.0
  0
ENDBLK
  5
1740B6
  8
0
  0
BLOCK
  8
0
  2
*D31
 70
     1
 10
0.0
 20
0.0
 30
0.0
  3
*D31
  1

  0
LINE
  5
1741CC
  8
P-0
 62
     4
 10
10143.698223037451
 20
1730.6430013063041
 30
0.0
 11
9988.0023019780601
 21
1730.6430013063041
 31
0.0
  0
LINE
  5
1741CD
  8
P-0
 62
     4
 10
9975.6214544872091
 20
1520.802879814169
 30
0.0
 11
9996.0023019780601
 21
1520.802879814169
 31
0.0
  0
LINE
  5
1741CE
  8
P-0
 62
     4
 10
9992.0023019780601
 20
1720.6430013063041
 30
0.0
 11
9992.0023019780601
 21
1635.222940560237
 31
0.0
  0
LINE
  5
1741CF
  8
P-0
 62
     4
 10
9992.0023019780601
 20
1530.802879814169
 30
0.0
 11
9992.0023019780601
 21
1616.222940560237
 31
0.0
  0
SOLID
  5
1741D0
  8
P-0
 62
     4
 10
9990.3356353113959
 20
1720.6430013063041
 30
0.0
 11
9993.6689686447262
 21
1720.6430013063041
 31
0.0
 12
9992.0023019780601
 22
1730.6430013063041
 32
0.0
 13
9992.0023019780601
 23
1730.6430013063041
 33
0.0
  0
SOLID
  5
1741D1
  8
P-0
 62
     4
 10
9990.3356353113959
 20
1530.802879814169
 30
0.0
 11
9993.6689686447262
 21
1530.802879814169
 31
0.0
 12
9992.0023019780601
 22
1520.802879814169
 32
0.0
 13
9992.0023019780601
 23
1520.802879814169
 33
0.0
  0
TEXT
  8
P-0
  40
15
  5
1741ED
  62
90
  72
0
  71
0
 10
9962.00
 20
1599.17
 30
0.000000
  1
209.8
  0
POINT
  5
1741D3
  8
DEFPOINTS
 62
     0
 10
10147.698223037451
 20
1730.6430013063041
 30
0.0
  0
POINT
  5
1741D4
  8
DEFPOINTS
 62
     0
 10
9971.6214544872073
 20
1520.802879814169
 30
0.0
  0
POINT
  5
1741D5
  8
DEFPOINTS
 62
     0
 10
9992.0023019780601
 20
1520.802879814169
 30
0.0
  0
ENDBLK
  5
1740C3
  8
0
  0
BLOCK
  8
0
  2
*D32
 70
     1
 10
0.0
 20
0.0
 30
0.0
  3
*D32
  1

  0
LINE
  5
1741D6
  8
P-0
 62
     4
 10
9975.6214544872091
 20
1520.802879814169
 30
0.0
 11
10301.243868273739
 21
1520.802879814169
 31
0.0
  0
LINE
  5
1741D7
  8
P-0
 62
     4
 10
9793.9128787460704
 20
1494.541977984356
 30
0.0
 11
10301.243868273739
 21
1494.541977984356
 31
0.0
  0
LINE
  5
1741D8
  8
P-0
 62
     4
 10
10297.243868273739
 20
1510.802879814169
 30
0.0
 11
10297.243868273739
 21
1504.541977984356
 31
0.0
  0
LINE
  5
1741D9
  8
P-0
 62
     4
 10
10297.243868273739
 20
1494.541977984356
 30
0.0
 11
10297.243868273739
 21
1468.0679947889701
 31
0.0
  0
LINE
  5
1741DA
  8
P-0
 62
     4
 10
10297.243868273739
 20
1468.0679947889701
 30
0.0
 11
10287.243868273739
 21
1468.0679947889701
 31
0.0
  0
SOLID
  5
1741DB
  8
P-0
 62
     4
 10
10295.57720160708
 20
1510.802879814169
 30
0.0
 11
10298.910534940411
 21
1510.802879814169
 31
0.0
 12
10297.243868273739
 22
1520.802879814169
 32
0.0
 13
10297.243868273739
 23
1520.802879814169
 33
0.0
  0
SOLID
  5
1741DC
  8
P-0
 62
     4
 10
10295.57720160708
 20
1504.541977984356
 30
0.0
 11
10298.910534940411
 21
1504.541977984356
 31
0.0
 12
10297.243868273739
 22
1494.541977984356
 32
0.0
 13
10297.243868273739
 23
1494.541977984356
 33
0.0
  0
TEXT
  8
P-0
  40
15
  5
1741EE
  62
90
  72
0
  71
0
 10
10232.4
 20
1441.52
 30
0.000000
  1
26.3
  0
POINT
  5
1741DE
  8
DEFPOINTS
 62
     0
 10
9971.6214544872073
 20
1520.802879814169
 30
0.0
  0
POINT
  5
1741DF
  8
DEFPOINTS
 62
     0
 10
9789.9128787460722
 20
1494.541977984356
 30
0.0
  0
POINT
  5
1741E0
  8
DEFPOINTS
 62
     0
 10
10297.243868273739
 20
1494.541977984356
 30
0.0
  0
ENDBLK
  5
1740D1
  8
0
  0
BLOCK
  8
0
  2
*U33
 70
     1
 10
0.0
 20
0.0
 30
0.0
  3
*U33
  1

  0
TEXT
  5
174125
  8
0
 62
    90
 10
1907.2641721581019
 20
1731.996031881828
 30
0.0
 40
15.0
  1
239.9983
  0
ENDBLK
  5
174127
  8
0
  0
BLOCK
  8
0
  2
*U34
 70
     1
 10
0.0
 20
0.0
 30
0.0
  3
*U34
  1

  0
TEXT
  5
174129
  8
0
 62
    90
 10
1708.1221554262161
 20
1705.4040080499781
 30
0.0
 40
15.0
  1
35.0000
  0
ENDBLK
  5
17412B
  8
0
  0
BLOCK
  8
0
  2
*U35
 70
     1
 10
0.0
 20
0.0
 30
0.0
  3
*U35
  1

  0
TEXT
  5
17417F
  8
0
 62
    90
 10
-301.75096039734427
 20
-185.07207839775401
 30
0.0
 40
15.0
  1
Elevons 40.0
  0
ENDBLK
  5
174181
  8
0
  0
BLOCK
  8
0
  2
*U36
 70
     1
 10
0.0
 20
0.0
 30
0.0
  3
*U36
  1

  0
TEXT
  5
174183
  8
0
 62
    90
 10
-300.67953182591572
 20
-159.12772753599799
 30
0.0
 40
15.0
  1
329.0
  0
ENDBLK
  5
174185
  8
0
  0
BLOCK
  8
0
  2
*U37
 70
     1
 10
0.0
 20
0.0
 30
0.0
  3
*U37
  1

  0
TEXT
  5
174187
  8
0
 62
    90
 10
-375.39667252677572
 20
-73.044725224467584
 30
0.0
 40
15.0
  1
181.7
  0
ENDBLK
  5
174189
  8
0
  0
BLOCK
  8
0
  2
*U38
 70
     1
 10
0.0
 20
0.0
 30
0.0
  3
*U38
  1

  0
TEXT
  5
17418B
  8
0
 62
    90
 10
-194.36114323822721
 20
115.7420965754654
 30
0.0
 40
15.0
  1
176.1
  0
ENDBLK
  5
17418D
  8
0
  0
BLOCK
  8
0
  2
*U39
 70
     1
 10
0.0
 20
0.0
 30
0.0
  3
*U39
  1

  0
TEXT
  5
17418F
  8
0
 62
    90
 10
-58.446838167055127
 20
115.7420965754654
 30
0.0
 40
15.0
  1
83.6
  0
ENDBLK
  5
174191
  8
0
  0
BLOCK
  8
0
  2
*U40
 70
     1
 10
0.0
 20
0.0
 30
0.0
  3
*U40
  1

  0
TEXT
  5
174193
  8
0
 62
    90
 10
-263.09010859392538
 20
-0.7915077803868212
 30
0.0
 40
15.0
  1
209.8
  0
ENDBLK
  5
174195
  8
0
  0
BLOCK
  8
0
  2
*U41
 70
     1
 10
0.0
 20
0.0
 30
0.0
  3
*U41
  1

  0
TEXT
  5
174197
  8
0
 62
    90
 10
14.437171987474359
 20
-158.4464535516517
 30
0.0
 40
15.0
  1
26.3
  0
ENDBLK
  5
174199
  8
0
  0
ENDSEC
  0
SECTION
  2
ENTITIES
  0
INSERT
  5
2
  8
0
  2
SEMAFOR
 10
0.0
 20
0.0
 30
0.0
  0
INSERT
  5
4
  8
0
  2
SEMAFOR
 10
0.0
 20
0.0
 30
0.0
  0
INSERT
  5
6
  8
0
  2
SEMAFOR
 10
0.0
 20
0.0
 30
0.0
  0
INSERT
  5
8
  8
0
  2
SEMAFOR
 10
0.0
 20
0.0
 30
0.0
  0
INSERT
  5
A
  8
0
  2
SEMAFOR
 10
0.0
 20
0.0
 30
0.0
  0
INSERT
  5
C
  8
0
  2
SEMAFOR
 10
0.0
 20
0.0
 30
0.0
  0
INSERT
  5
D
  8
0
  2
ACAD
 10
4733.4389627447927
 20
626.98922552497561
 30
0.0
  0
INSERT
  5
E
  8
0
  2
ACAD
 10
4401.2404021617613
 20
426.56681958498802
 30
0.0
  0
INSERT
  5
F
  8
0
  2
ACAD
 10
4401.2404021617613
 20
426.56681958498802
 30
0.0
  0
INSERT
  5
10
  8
0
  2
ACAD
 10
9843.6585030093738
 20
4161.7623992877234
 30
0.0
  0
INSERT
  5
11
  8
0
  2
ACAD
 10
10335.40967800786
 20
4128.0225861498011
 30
0.0
  0
INSERT
  5
12
  8
0
  2
ACAD
 10
5694.1362955782188
 20
8197.3877944074975
 30
0.0
  0
INSERT
  5
13
  8
0
  2
ACAD
 10
6185.8874705767112
 20
8163.6479812695761
 30
0.0
  0
INSERT
  5
C0
  8
P2
  2
ACAD
 10
8411.0782083018512
 20
2850.915628098021
 30
0.0
 41
0.02
 42
0.02
 43
0.02
  0
INSERT
  5
1AA
  8
0
  2
SEMAFOR
 10
0.0
 20
0.0
 30
0.0
 41
3.75
 42
3.75
 43
3.75
  0
INSERT
  5
1AC
  8
0
  2
SEMAFOR
 10
0.0
 20
0.0
 30
0.0
 41
3.75
 42
3.75
 43
3.75
  0
INSERT
  5
1AE
  8
0
  2
SEMAFOR
 10
0.0
 20
0.0
 30
0.0
 41
3.75
 42
3.75
 43
3.75
  0
INSERT
  5
1E7
  8
0
  2
ACAD
 10
5000.0469436296116
 20
3549.2343797401409
 30
0.0
  0
INSERT
  5
1E8
  8
0
  2
ACAD
 10
5491.7981186281031
 20
3515.4945666022199
 30
0.0
  0
INSERT
  5
1FB
  8
0
  2
SEMAFOR
 10
3708.5714045475338
 20
999.82442613291903
 30
0.0
  0
INSERT
  5
1FD
  8
0
  2
SEMAFOR
 10
3708.5714045475338
 20
999.82442613291903
 30
0.0
  0
INSERT
  5
1FF
  8
0
  2
SEMAFOR
 10
3708.5714045475338
 20
999.82442613291903
 30
0.0
  0
INSERT
  5
201
  8
0
  2
SEMAFOR
 10
3708.5714045475338
 20
999.82442613291903
 30
0.0
  0
INSERT
  5
203
  8
0
  2
SEMAFOR
 10
3708.5714045475338
 20
999.82442613291903
 30
0.0
  0
INSERT
  5
205
  8
0
  2
SEMAFOR
 10
3708.5714045475338
 20
999.82442613291903
 30
0.0
  0
INSERT
  5
206
  8
0
  2
ACAD
 10
8442.0103672923287
 20
1626.813651657895
 30
0.0
  0
INSERT
  5
207
  8
0
  2
ACAD
 10
8109.8118067092946
 20
1426.3912457179069
 30
0.0
  0
INSERT
  5
208
  8
0
  2
ACAD
 10
8109.8118067092946
 20
1426.3912457179069
 30
0.0
  0
INSERT
  5
209
  8
0
  2
ACAD
 10
13552.22990755691
 20
5161.5868254206416
 30
0.0
  0
INSERT
  5
20A
  8
0
  2
ACAD
 10
14043.9810825554
 20
5127.8470122827202
 30
0.0
  0
INSERT
  5
20B
  8
0
  2
ACAD
 10
9402.7077001257549
 20
9197.2122205404157
 30
0.0
  0
INSERT
  5
20C
  8
0
  2
ACAD
 10
9894.4588751242445
 20
9163.4724074024944
 30
0.0
  0
INSERT
  5
20D
  8
P2
  2
ACAD
 10
12119.64961284938
 20
3850.7400542309401
 30
0.0
 41
0.02
 42
0.02
 43
0.02
  0
INSERT
  5
20F
  8
0
  2
SEMAFOR
 10
3708.5714045475338
 20
999.82442613291903
 30
0.0
 41
3.75
 42
3.75
 43
3.75
  0
INSERT
  5
211
  8
0
  2
SEMAFOR
 10
3708.5714045475338
 20
999.82442613291903
 30
0.0
 41
3.75
 42
3.75
 43
3.75
  0
INSERT
  5
213
  8
0
  2
SEMAFOR
 10
3708.5714045475338
 20
999.82442613291903
 30
0.0
 41
3.75
 42
3.75
 43
3.75
  0
INSERT
  5
214
  8
0
  2
ACAD
 10
11004.667248186281
 20
2686.4915150072802
 30
0.0
  0
INSERT
  5
215
  8
0
  2
ACAD
 10
10672.46868760325
 20
2486.0691090672931
 30
0.0
  0
INSERT
  5
216
  8
0
  2
ACAD
 10
10672.46868760325
 20
2486.0691090672931
 30
0.0
  0
INSERT
  5
217
  8
0
  2
ACAD
 10
16114.88678845086
 20
6221.2646887700266
 30
0.0
  0
INSERT
  5
218
  8
0
  2
ACAD
 10
16606.637963449361
 20
6187.5248756321062
 30
0.0
  0
INSERT
  5
219
  8
0
  2
ACAD
 10
11965.36458101971
 20
10256.890083889801
 30
0.0
  0
INSERT
  5
21A
  8
0
  2
ACAD
 10
12457.1157560182
 20
10223.150270751879
 30
0.0
  0
INSERT
  5
233
  8
0
  2
SEMAFOR
 10
3708.5714045475338
 20
999.82442613291903
 30
0.0
 41
10.0
 42
10.0
 43
10.0
  0
INSERT
  5
235
  8
0
  2
SEMAFOR
 10
3708.5714045475338
 20
999.82442613291903
 30
0.0
 41
10.0
 42
10.0
 43
10.0
  0
INSERT
  5
237
  8
0
  2
SEMAFOR
 10
3708.5714045475338
 20
999.82442613291903
 30
0.0
 41
10.0
 42
10.0
 43
10.0
  0
INSERT
  5
240
  8
0
  2
SEMAFOR
 10
3524.0684305484692
 20
207.20092630162131
 30
0.0
  0
INSERT
  5
242
  8
0
  2
SEMAFOR
 10
3524.0684305484692
 20
207.20092630162131
 30
0.0
  0
INSERT
  5
244
  8
0
  2
SEMAFOR
 10
3524.0684305484692
 20
207.20092630162131
 30
0.0
  0
INSERT
  5
246
  8
0
  2
SEMAFOR
 10
3524.0684305484692
 20
207.20092630162131
 30
0.0
  0
INSERT
  5
248
  8
0
  2
SEMAFOR
 10
3524.0684305484692
 20
207.20092630162131
 30
0.0
  0
INSERT
  5
24A
  8
0
  2
SEMAFOR
 10
3524.0684305484692
 20
207.20092630162131
 30
0.0
  0
INSERT
  5
24B
  8
0
  2
ACAD
 10
8257.507393293261
 20
834.19015182659678
 30
0.0
  0
INSERT
  5
24C
  8
0
  2
ACAD
 10
7925.3088327102296
 20
633.76774588660919
 30
0.0
  0
INSERT
  5
24D
  8
0
  2
ACAD
 10
7925.3088327102296
 20
633.76774588660919
 30
0.0
  0
INSERT
  5
24E
  8
0
  2
ACAD
 10
13367.72693355784
 20
4368.9633255893441
 30
0.0
  0
INSERT
  5
24F
  8
0
  2
ACAD
 10
13859.47810855633
 20
4335.2235124514227
 30
0.0
  0
INSERT
  5
250
  8
0
  2
ACAD
 10
9218.2047261266889
 20
8404.5887207091182
 30
0.0
  0
INSERT
  5
251
  8
0
  2
ACAD
 10
9709.9559011251822
 20
8370.8489075711968
 30
0.0
  0
INSERT
  5
252
  8
P2
  2
ACAD
 10
11935.14663885032
 20
3058.1165543996422
 30
0.0
 41
0.02
 42
0.02
 43
0.02
  0
INSERT
  5
254
  8
0
  2
SEMAFOR
 10
3524.0684305484692
 20
207.20092630162131
 30
0.0
 41
3.75
 42
3.75
 43
3.75
  0
INSERT
  5
256
  8
0
  2
SEMAFOR
 10
3524.0684305484692
 20
207.20092630162131
 30
0.0
 41
3.75
 42
3.75
 43
3.75
  0
INSERT
  5
258
  8
0
  2
SEMAFOR
 10
3524.0684305484692
 20
207.20092630162131
 30
0.0
 41
3.75
 42
3.75
 43
3.75
  0
INSERT
  5
259
  8
0
  2
ACAD
 10
10820.164274187209
 20
1893.868015175982
 30
0.0
  0
INSERT
  5
25A
  8
0
  2
ACAD
 10
10487.965713604181
 20
1693.4456092359951
 30
0.0
  0
INSERT
  5
25B
  8
0
  2
ACAD
 10
10487.965713604181
 20
1693.4456092359951
 30
0.0
  0
INSERT
  5
25C
  8
0
  2
ACAD
 10
15930.383814451799
 20
5428.64118893873
 30
0.0
  0
INSERT
  5
25D
  8
0
  2
ACAD
 10
16422.134989450289
 20
5394.9013758008077
 30
0.0
  0
INSERT
  5
25E
  8
0
  2
ACAD
 10
11780.861607020641
 20
9464.2665840585032
 30
0.0
  0
INSERT
  5
25F
  8
0
  2
ACAD
 10
12272.61278201913
 20
9430.5267709205818
 30
0.0
  0
INSERT
  5
290
  8
0
  2
SEMAFOR
 10
3524.0684305484692
 20
207.20092630162131
 30
0.0
 41
10.0
 42
10.0
 43
10.0
  0
INSERT
  5
292
  8
0
  2
SEMAFOR
 10
3524.0684305484692
 20
207.20092630162131
 30
0.0
 41
10.0
 42
10.0
 43
10.0
  0
INSERT
  5
294
  8
0
  2
SEMAFOR
 10
3524.0684305484692
 20
207.20092630162131
 30
0.0
 41
10.0
 42
10.0
 43
10.0
  0
INSERT
  5
29E
  8
0
  2
SEMAFOR
 10
15386.960463810399
 20
3267.8879405965258
 30
0.0
  0
INSERT
  5
2A0
  8
0
  2
SEMAFOR
 10
15386.960463810399
 20
3267.8879405965258
 30
0.0
  0
INSERT
  5
2A2
  8
0
  2
SEMAFOR
 10
15386.960463810399
 20
3267.8879405965258
 30
0.0
  0
INSERT
  5
2A3
  8
0
  2
ACAD
 10
20120.399426555188
 20
3894.877166121501
 30
0.0
  0
INSERT
  5
2A4
  8
0
  2
ACAD
 10
19788.200865972161
 20
3694.4547601815138
 30
0.0
  0
INSERT
  5
2A5
  8
0
  2
ACAD
 10
19788.200865972161
 20
3694.4547601815138
 30
0.0
  0
INSERT
  5
2A6
  8
0
  2
ACAD
 10
25230.618966819769
 20
7429.6503398842506
 30
0.0
  0
INSERT
  5
2A7
  8
0
  2
ACAD
 10
25722.370141818261
 20
7395.9105267463274
 30
0.0
  0
INSERT
  5
2A8
  8
0
  2
ACAD
 10
21081.09675938862
 20
11465.275735004019
 30
0.0
  0
INSERT
  5
2A9
  8
0
  2
ACAD
 10
21572.847934387111
 20
11431.5359218661
 30
0.0
  0
INSERT
  5
2AA
  8
P2
  2
ACAD
 10
23798.038672112249
 20
6118.8035686945468
 30
0.0
 41
0.02
 42
0.02
 43
0.02
  0
INSERT
  5
2AC
  8
0
  2
SEMAFOR
 10
15386.960463810399
 20
3267.8879405965258
 30
0.0
 41
3.75
 42
3.75
 43
3.75
  0
INSERT
  5
2AE
  8
0
  2
SEMAFOR
 10
15386.960463810399
 20
3267.8879405965258
 30
0.0
 41
3.75
 42
3.75
 43
3.75
  0
INSERT
  5
2B0
  8
0
  2
SEMAFOR
 10
15386.960463810399
 20
3267.8879405965258
 30
0.0
 41
3.75
 42
3.75
 43
3.75
  0
INSERT
  5
2B1
  8
0
  2
ACAD
 10
20387.007407440011
 20
6817.1223203366681
 30
0.0
  0
INSERT
  5
2B2
  8
0
  2
ACAD
 10
20878.758582438499
 20
6783.3825071987458
 30
0.0
  0
INSERT
  5
2B4
  8
0
  2
SEMAFOR
 10
19095.531868357932
 20
4267.7123667294454
 30
0.0
  0
INSERT
  5
2B6
  8
0
  2
SEMAFOR
 10
19095.531868357932
 20
4267.7123667294454
 30
0.0
  0
INSERT
  5
2B8
  8
0
  2
SEMAFOR
 10
19095.531868357932
 20
4267.7123667294454
 30
0.0
  0
INSERT
  5
2BA
  8
0
  2
SEMAFOR
 10
19095.531868357932
 20
4267.7123667294454
 30
0.0
  0
INSERT
  5
2BC
  8
0
  2
SEMAFOR
 10
19095.531868357932
 20
4267.7123667294454
 30
0.0
  0
INSERT
  5
2BE
  8
0
  2
SEMAFOR
 10
19095.531868357932
 20
4267.7123667294454
 30
0.0
  0
INSERT
  5
2BF
  8
0
  2
ACAD
 10
23828.970831102732
 20
4894.7015922544206
 30
0.0
  0
INSERT
  5
2C0
  8
0
  2
ACAD
 10
23496.77227051969
 20
4694.279186314433
 30
0.0
  0
INSERT
  5
2C1
  8
0
  2
ACAD
 10
23496.77227051969
 20
4694.279186314433
 30
0.0
  0
INSERT
  5
2C2
  8
0
  2
ACAD
 10
28939.190371367309
 20
8429.4747660171706
 30
0.0
  0
INSERT
  5
2C3
  8
0
  2
ACAD
 10
29430.94154636579
 20
8395.7349528792456
 30
0.0
  0
INSERT
  5
2C4
  8
0
  2
ACAD
 10
24789.668163936149
 20
12465.100161136939
 30
0.0
  0
INSERT
  5
2C5
  8
0
  2
ACAD
 10
25281.41933893464
 20
12431.36034799902
 30
0.0
  0
INSERT
  5
2C6
  8
P2
  2
ACAD
 10
27506.610076659781
 20
7118.627994827466
 30
0.0
 41
0.02
 42
0.02
 43
0.02
  0
INSERT
  5
2C8
  8
0
  2
SEMAFOR
 10
19095.531868357932
 20
4267.7123667294454
 30
0.0
 41
3.75
 42
3.75
 43
3.75
  0
INSERT
  5
2CA
  8
0
  2
SEMAFOR
 10
19095.531868357932
 20
4267.7123667294454
 30
0.0
 41
3.75
 42
3.75
 43
3.75
  0
INSERT
  5
2CC
  8
0
  2
SEMAFOR
 10
19095.531868357932
 20
4267.7123667294454
 30
0.0
 41
3.75
 42
3.75
 43
3.75
  0
INSERT
  5
2CD
  8
0
  2
ACAD
 10
26391.62771199668
 20
5954.3794556038056
 30
0.0
  0
INSERT
  5
2CE
  8
0
  2
ACAD
 10
26059.429151413649
 20
5753.957049663818
 30
0.0
  0
INSERT
  5
2CF
  8
0
  2
ACAD
 10
26059.429151413649
 20
5753.957049663818
 30
0.0
  0
INSERT
  5
2D0
  8
0
  2
ACAD
 10
31501.847252261261
 20
9489.1526293665538
 30
0.0
  0
INSERT
  5
2D1
  8
0
  2
ACAD
 10
31993.598427259749
 20
9455.4128162286306
 30
0.0
  0
INSERT
  5
2D2
  8
0
  2
ACAD
 10
27352.325044830101
 20
13524.778024486321
 30
0.0
  0
INSERT
  5
2D3
  8
0
  2
ACAD
 10
27844.076219828599
 20
13491.038211348399
 30
0.0
  0
INSERT
  5
2D5
  8
0
  2
SEMAFOR
 10
19095.531868357932
 20
4267.7123667294454
 30
0.0
 41
10.0
 42
10.0
 43
10.0
  0
INSERT
  5
2D7
  8
0
  2
SEMAFOR
 10
19095.531868357932
 20
4267.7123667294454
 30
0.0
 41
10.0
 42
10.0
 43
10.0
  0
INSERT
  5
2D9
  8
0
  2
SEMAFOR
 10
19095.531868357932
 20
4267.7123667294454
 30
0.0
 41
10.0
 42
10.0
 43
10.0
  0
INSERT
  5
2F5
  8
0
  2
SEMAFOR
 10
13167.983238715129
 20
2491.233538220928
 30
0.0
  0
INSERT
  5
2F7
  8
0
  2
SEMAFOR
 10
13167.983238715129
 20
2491.233538220928
 30
0.0
  0
INSERT
  5
2F9
  8
0
  2
SEMAFOR
 10
13167.983238715129
 20
2491.233538220928
 30
0.0
  0
INSERT
  5
2FB
  8
0
  2
SEMAFOR
 10
17706.774905143931
 20
3012.2450404000119
 30
0.0
  0
INSERT
  5
2FD
  8
0
  2
SEMAFOR
 10
17706.774905143931
 20
3012.2450404000119
 30
0.0
  0
INSERT
  5
2FF
  8
0
  2
SEMAFOR
 10
17706.774905143931
 20
3012.2450404000119
 30
0.0
  0
INSERT
  5
300
  8
0
  2
ACAD
 10
21077.800978393119
 20
8060.5914657547173
 30
0.0
  0
INSERT
  5
301
  8
0
  2
ACAD
 10
21569.552153391611
 20
8026.8516526167932
 30
0.0
  0
INSERT
  5
30A
  8
ASHADE
 62
     1
  2
AVE_RENDER
 10
13167.983238715129
 20
2491.233538220928
 30
0.0
1001
AVE_RENDER
1002
{
1070
     7
1000
Pref
1070
    50
1070
    40
1070
     1
1070
     0
1000
ESS
1070
    10
1070
     0
1070
    30
1040
1.0
1070
     1
1040
0.51
1040
0.37
1040
0.41
1040
1.587301587301587
1010
0.915
1020
0.085
1030
0.7821999999999997
1040
0.38
1070
    49
1070
     1
1070
     0
1010
1.0
1020
1.0
1030
1.0
1040
45.0
1070
     1
1070
     0
1000
WCS
1040
0.0
1070
     0
1040
10.0
1002
}
  0
INSERT
  5
30B
  8
ASHADE
 62
     3
  2
AVE_RENDER
 10
13167.983238715129
 20
2491.233538220928
 30
0.0
1001
AVE_RENDER
1002
{
1070
     0
1000
Full Opt
1070
     0
1070
     1
1070
     1
1070
     1
1070
     0
1070
     0
1070
     0
1070
     1
1070
     1
1040
0.0001
1040
0.0001
1002
}
  0
INSERT
  5
30C
  8
ASHADE
 62
     4
  2
AVE_RENDER
 10
13167.983238715129
 20
2491.233538220928
 30
0.0
1001
AVE_RENDER
1002
{
1070
     0
1000
Quick Opt
1070
     0
1070
     1
1070
     1
1070
     1
1070
     0
1070
     0
1070
     1
1002
}
  0
INSERT
  5
30F
  8
0
  2
SEMAFOR
 10
19618.034838546169
 20
3675.6152159067619
 30
0.0
 41
8.0
 42
8.0
 43
8.0
  0
INSERT
  5
311
  8
0
  2
SEMAFOR
 10
19618.034838546169
 20
3675.6152159067619
 30
0.0
 41
8.0
 42
8.0
 43
8.0
  0
INSERT
  5
313
  8
0
  2
SEMAFOR
 10
19618.034838546169
 20
3675.6152159067619
 30
0.0
 41
8.0
 42
8.0
 43
8.0
  0
INSERT
  5
172813
  8
ASHADE
 62
     5
  2
AVE_RENDER
 10
0.0
 20
0.0
 30
0.0
1001
AVE_RENDER
1002
{
1070
     1
1000
Scanl Opt
1070
     2
1070
     0
1070
     2
1040
2.0
1040
4.0
1070
     0
1070
     1
1070
     0
1040
0.03
1002
}
  0
INSERT
  5
172814
  8
ASHADE
 62
     6
  2
AVE_RENDER
 10
0.0
 20
0.0
 30
0.0
1001
AVE_RENDER
1002
{
1070
     2
1000
Raytr Opt
1070
     2
1070
     0
1070
     2
1040
2.0
1040
4.0
1070
     0
1070
     0
1070
     1
1040
0.03
1070
     3
1040
0.03
1002
}
  0
INSERT
  5
172815
  8
ASHADE
 62
     7
  2
AVE_RENDER
 10
0.0
 20
0.0
 30
0.0
1001
AVE_RENDER
1002
{
1070
     0
1000
RFile Opt
1070
     1
1070
   640
1070
   480
1070
 10000
1070
     1
1070
     8
1070
     8
1070
     0
1070
     0
1070
     0
1070
     1
1070
     0
1070
     0
1070
     0
1002
}
  0
INSERT
  5
172816
  8
ASHADE
 62
     8
  2
AVE_RENDER
 10
0.0
 20
0.0
 30
0.0
1001
AVE_RENDER
1002
{
1070
     0
1000
Fog Opt
1070
     0
1070
     1
1040
0.0
1040
1.0
1040
0.0
1040
1.0
1010
0.7800000000000001
1020
0.5
1030
0.5
1002
}
  0
INSERT
  5
172817
  8
ASHADE
 62
     9
  2
AVE_RENDER
 10
0.0
 20
0.0
 30
0.0
1001
AVE_RENDER
1002
{
1070
     0
1000
BG Opt
1070
     1
1070
     0
1010
0.0
1020
0.73
1030
1.0
1010
0.0
1020
1.0
1030
1.0
1010
0.0
1020
0.75
1030
0.94
1010
0.0
1020
0.5300000000000001
1030
1.0
1040
0.5
1040
0.6700000000000002
1040
0.0
1000
C:\Users\Marc\Images\nous2.bmp
1070
     1
1000

1070
     1
1070
     1
1040
1.0
1040
1.0
1040
0.0
1040
0.0
1070
     1
1002
}
  0
INSERT
  5
17281E
  8
ASHADE
 62
     1
  2
AVE_GLOBAL
 10
0.0
 20
0.0
 30
0.0
1001
AVE_MATERIAL
1002
{
1000
*GLOBAL*
1000
1
1000
Finition globale.
1002
{
1002
}
1002
{
1070
    63
1002
{
1002
{
1010
-1.0
1020
-1.0
1030
-1.0
1002
}
1040
0.1000000014901161
1000

1040
0.0
1002
{
1002
}
1040
0.0
1002
{
1002
}
1040
0.0
1002
}
1002
{
1002
{
1010
-1.0
1020
-1.0
1030
-1.0
1002
}
1040
0.699999988079071
1000

1040
0.0
1002
{
1002
}
1040
0.0
1002
{
1002
}
1040
0.0
1002
}
1002
{
1002
{
1010
-1.0
1020
-1.0
1030
-1.0
1002
}
1040
0.2000000029802322
1000

1040
0.0
1002
{
1002
}
1040
0.0
1002
{
1002
}
1040
0.0
1002
}
1002
{
1070
     0
1002
{
1070
     1
1002
{
1040
1.0
1040
1.0
1000

1040
0.0
1002
{
1002
}
1040
0.0
1002
{
1002
}
1040
0.0
1002
}
1002
}
1040
1.0
1040
0.0
1040
0.0
1002
}
1002
{
1040
1.0
1040
1.0
1000

1040
0.0
1002
{
1002
}
1040
0.0
1002
{
1002
}
1040
0.0
1002
}
1002
{
1040
0.5
1040
1.0
1000

1040
0.0
1002
{
1002
}
1040
0.0
1002
{
1002
}
1040
0.0
1002
}
1002
{
1070
     0
1040
0.0
1002
{
1002
}
1040
1.0
1002
{
1002
}
1040
0.0
1002
}
1002
{
1040
0.0
1002
{
1002
{
1010
0.0
1020
0.0
1030
0.0
1002
}
1040
1.0
1000

1040
0.0
1002
{
1002
}
1040
0.0
1002
{
1002
}
1040
0.0
1002
}
1002
}
1002
{
1002
{
1070
     1
1002
{
1040
0.0
1040
1.0
1000

1040
0.0
1002
{
1002
}
1040
0.0
1002
{
1002
}
1040
0.0
1002
}
1002
}
1040
0.0
1002
{
1002
}
1010
1.0
1020
0.0
1030
0.0
1010
0.0
1020
1.0
1030
0.0
1010
0.0
1020
0.0
1030
1.0
1070
     0
1002
}
1002
{
1002
{
1040
1.0
1040
1.0
1002
{
1070
     1
1002
{
1040
1.0
1040
1.0
1000

1040
0.0
1002
{
1002
}
1040
0.0
1002
{
1002
}
1040
0.0
1002
}
1002
}
1002
}
1070
     0
1040
0.0
1002
{
1002
}
1002
}
1002
{
1002
}
1002
}
1002
{
1071
        3
1070
     3
1070
     0
1002
{
1070
     2
1070
     0
1070
     0
1040
0.0
1002
}
1070
     0
1070
     2
1002
{
1002
}
1002
}
1002
{
1040
8030.0
1040
190.30000305175781
1040
0.3050000071525574
1040
228.0
1040
545.0
1040
14.0
1040
17.39999961853027
1040
0.4560000002384186
1002
}
1002
}
  0
INSERT
  5
17283A
  8
PLATINE
 66
     1
  2
RM_SDB
 10
0.0
 20
0.0
 30
0.0
1001
AVE_MATERIAL
1002
{
1000
CHECKER TEXTURE
1000
1
1000

1002
{
1002
}
1002
{
1070
   879
1002
{
1002
{
1010
1.0
1020
1.0
1030
0.0
1002
}
1040
0.4000000059604645
1000

1040
0.0
1002
{
1002
}
1040
0.0
1002
{
1002
}
1040
0.0
1002
}
1002
{
1002
{
1010
0.0
1020
1.0
1030
0.0
1002
}
1040
0.0
1000

1040
0.0
1002
{
1002
{
1070
     1
1002
{
1002
{
1000
CHECKERS.TGA
1002
{
1002
}
1070
     3
1070
     0
1002
{
1002
}
1002
}
1002
{
1002
{
1040
1.0
1040
0.0
1070
     1
1002
}
1002
{
1040
1.0
1040
0.0
1070
     1
1002
}
1040
0.0
1002
}
1002
}
1002
}
1002
{
1002
}
1002
}
1040
1.0
1002
{
1002
}
1040
0.0
1002
}
1002
{
1002
{
1010
0.0
1020
0.0
1030
0.0
1002
}
1040
1.0
1000

1040
0.0
1002
{
1002
}
1040
0.0
1002
{
1002
}
1040
0.0
1002
}
1002
{
1070
     0
1002
{
1070
     1
1002
{
1040
1.0
1040
1.0
1000

1040
0.0
1002
{
1002
}
1040
0.8199999928474426
1002
{
1002
}
1040
0.0
1002
}
1002
}
1040
0.0
1040
0.0
1040
0.0
1002
}
1002
{
1040
0.0
1040
0.0
1000

1040
0.0
1002
{
1002
}
1040
0.0
1002
{
1002
}
1040
0.0
1002
}
1002
{
1040
1.0
1040
1.0
1000

1040
0.0
1002
{
1002
}
1040
0.0
1002
{
1002
}
1040
0.0
1002
}
1002
{
1070
     0
1040
0.0
1002
{
1002
}
1040
0.0
1002
{
1002
}
1040
0.0
1002
}
1002
{
1040
0.0
1002
{
1002
{
1010
0.0
1020
0.0
1030
0.0
1002
}
1040
0.0
1000

1040
0.0
1002
{
1002
}
1040
0.0
1002
{
1002
}
1040
0.0
1002
}
1002
}
1002
{
1002
{
1070
     1
1002
{
1040
1.0
1040
1.0
1000

1040
0.0
1002
{
1002
}
1040
0.0
1002
{
1002
}
1040
0.0
1002
}
1002
}
1040
0.0
1002
{
1002
}
1010
0.0
1020
0.0
1030
0.0
1010
0.0
1020
0.0
1030
0.0
1010
0.0
1020
0.0
1030
0.0
1070
     0
1002
}
1002
{
1002
{
1040
0.0
1040
0.0
1002
{
1070
     1
1002
{
1040
1.0
1040
1.0
1000

1040
0.0
1002
{
1002
}
1040
0.0
1002
{
1002
}
1040
0.0
1002
}
1002
}
1002
}
1070
     0
1040
0.0
1002
{
1002
}
1002
}
1002
{
1002
}
1002
}
1002
{
1071
        0
1070
     3
1070
     0
1002
{
1070
     2
1070
     1
1070
     0
1040
0.0
1002
}
1070
     0
1070
     2
1002
{
1002
}
1002
}
1002
{
1040
0.0
1040
0.0
1040
0.0
1040
0.0
1040
0.0
1040
0.0
1040
0.0
1040
0.0
1002
}
1002
}
  0
ATTRIB
  5
17283B
  8
PLATINE
 10
0.0
 20
0.0
 30
0.0
 40
0.2
  1
CHECKER TEXTURE
  2
NAME
 70
     1
  0
ATTRIB
  5
17283C
  8
PLATINE
 10
0.0
 20
0.0
 30
0.0
 40
0.2
  1

  2
ACADCOLOR
 70
     1
  0
ATTRIB
  5
17283D
  8
PLATINE
 10
0.0
 20
0.0
 30
0.0
 40
0.2
  1
0.0000,1.0000,0.0000
  2
COLOR
 70
     1
  0
ATTRIB
  5
17283E
  8
PLATINE
 10
0.0
 20
0.0
 30
0.0
 40
0.2
  1
1.0,1.0,1.0
  2
OPACITY
 70
     1
  0
ATTRIB
  5
17283F
  8
PLATINE
 10
0.0
 20
0.0
 30
0.0
 40
0.2
  1
("nullsurf" "")
  2
SURFACE
 70
     1
  0
ATTRIB
  5
172840
  8
PLATINE
 10
0.0
 20
0.0
 30
0.0
 40
0.2
  1
(11 "Ka" "0.4")(11 "Kd" "0")(11 "Ks" "1")(11 "roughness" "1")
  2
SURF1
 70
     1
  0
ATTRIB
  5
172841
  8
PLATINE
 10
0.0
 20
0.0
 30
0.0
 40
0.2
  1

  2
SURF2
 70
     1
  0
ATTRIB
  5
172842
  8
PLATINE
 10
0.0
 20
0.0
 30
0.0
 40
0.2
  1

  2
SURF3
 70
     1
  0
ATTRIB
  5
172843
  8
PLATINE
 10
0.0
 20
0.0
 30
0.0
 40
0.2
  1

  2
SURF4
 70
     1
  0
ATTRIB
  5
172844
  8
PLATINE
 10
0.0
 20
0.0
 30
0.0
 40
0.2
  1
-1.0
  2
SHADINGRATE
 70
     1
  0
ATTRIB
  5
172845
  8
PLATINE
 10
0.0
 20
0.0
 30
0.0
 40
0.2
  1
("nulldisp" "")
  2
DISPLACEMENT
 70
     1
  0
ATTRIB
  5
172846
  8
PLATINE
 10
0.0
 20
0.0
 30
0.0
 40
0.2
  1

  2
DISP1
 70
     1
  0
ATTRIB
  5
172847
  8
PLATINE
 10
0.0
 20
0.0
 30
0.0
 40
0.2
  1

  2
DISP2
 70
     1
  0
ATTRIB
  5
172848
  8
PLATINE
 10
0.0
 20
0.0
 30
0.0
 40
0.2
  1

  2
DISP3
 70
     1
  0
ATTRIB
  5
172849
  8
PLATINE
 10
0.0
 20
0.0
 30
0.0
 40
0.2
  1

  2
DISP4
 70
     1
  0
ATTRIB
  5
17284A
  8
PLATINE
 10
0.0
 20
0.0
 30
0.0
 40
0.2
  1
0.0
  2
DBOUND
 70
     1
  0
ATTRIB
  5
17284B
  8
PLATINE
 10
0.0
 20
0.0
 30
0.0
 40
0.2
  1
0
  2
SMOOTH
 70
     1
  0
ATTRIB
  5
17284C
  8
PLATINE
 10
0.0
 20
0.0
 30
0.0
 40
0.2
  1
("" "")
  2
ATMOSHPERE
 70
     1
  0
ATTRIB
  5
17284D
  8
PLATINE
 10
0.0
 20
0.0
 30
0.0
 40
0.2
  1

  2
ATMO1
 70
     1
  0
ATTRIB
  5
17284E
  8
PLATINE
 10
0.0
 20
0.0
 30
0.0
 40
0.2
  1

  2
ATMO2
 70
     1
  0
ATTRIB
  5
17284F
  8
PLATINE
 10
0.0
 20
0.0
 30
0.0
 40
0.2
  1

  2
ATMO3
 70
     1
  0
ATTRIB
  5
172850
  8
PLATINE
 10
0.0
 20
0.0
 30
0.0
 40
0.2
  1

  2
ATMO4
 70
     1
  0
ATTRIB
  5
172851
  8
PLATINE
 10
0.0
 20
0.0
 30
0.0
 40
0.2
  1
0.0 0.0 1.0 0.0 0.0 1.0 1.0 1.0
  2
TCCORD
 70
     1
  0
SEQEND
  5
172852
  8
PLATINE
  0
LINE
  5
173E7C
  8
P-0
 62
     2
 10
9968.2428425658982
 20
1491.5419780889681
 30
0.0
 11
10208.241161743959
 21
1491.541977984366
 31
0.0
  0
LINE
  5
173E7D
  8
P-0
 62
     2
 10
9968.2428425683593
 20
1497.5419780889681
 30
0.0
 11
10208.241161745191
 21
1497.541977984366
 31
0.0
  0
LINE
  5
173E90
  8
P0
 10
9971.6214544872073
 20
1520.802879814169
 30
0.0
 11
10231.30720748669
 21
1521.297052571965
 31
0.0
  0
LINE
  5
173E91
  8
P0
 10
9984.6997801228208
 20
1520.8317831069221
 30
0.0
 11
10150.47812912643
 21
1718.3987261063221
 31
0.0
  0
LINE
  5
173E92
  8
P0
 10
9971.6214544872073
 20
1520.802879814169
 30
0.0
 11
10147.698223037451
 21
1730.6430013063041
 31
0.0
  0
LINE
  5
173E93
  8
P0
 10
10231.30720748669
 20
1521.297052571965
 30
0.0
 11
10147.698223037451
 21
1730.6430013063041
 31
0.0
  0
LINE
  5
173E94
  8
P0
 10
10209.2411617456
 20
1499.5419779841609
 30
0.0
 11
10239.2411617456
 21
1499.54197797801
 31
0.0
  0
LINE
  5
173E95
  8
P0
 10
10209.241161743539
 20
1489.54197798416
 30
0.0
 11
10239.241161743539
 21
1489.5419779780079
 31
0.0
  0
ARC
  5
173E96
  8
P0
 10
10239.24116174518
 20
1497.54197797801
 30
0.0
 40
2.0
 50
359.99999998824921
 51
89.999999988223095
  0
ARC
  5
173E97
  8
P0
 10
10239.24116174395
 20
1491.5419779780079
 30
0.0
 40
2.0
 50
269.99999998822312
 51
359.99999998824921
  0
LINE
  5
173E98
  8
P0
 10
10241.24116174488
 20
1496.0419779775989
 30
0.0
 11
10241.24116174518
 21
1497.5419779776
 31
0.0
  0
LINE
  5
173E99
  8
P0
 10
10240.241161744671
 20
1495.041977977804
 30
0.0
 11
10241.24116174488
 21
1496.0419779775989
 31
0.0
  0
LINE
  5
173E9A
  8
P0
 10
10241.24116174395
 20
1491.541977977598
 30
0.0
 11
10241.241161744259
 21
1493.0419779775989
 31
0.0
  0
LINE
  5
173E9B
  8
P0
 10
10240.24116174447
 20
1494.041977977804
 30
0.0
 11
10241.241161744259
 21
1493.0419779775989
 31
0.0
  0
LINE
  5
173E9C
  8
P0
 10
10237.107187148251
 20
1494.041977978447
 30
0.0
 11
10240.24116174447
 21
1494.041977977804
 31
0.0
  0
LINE
  5
173E9D
  8
P0
 10
10237.10718714846
 20
1495.041977978447
 30
0.0
 11
10240.241161744671
 21
1495.041977977804
 31
0.0
  0
ARC
  5
173E9E
  8
P0
 10
10209.241161745391
 20
1498.541977984162
 30
0.0
 40
1.0
 50
89.999999988223095
 51
179.9999999882491
  0
ARC
  5
173E9F
  8
P0
 10
10209.24116174375
 20
1490.54197798416
 30
0.0
 40
1.0
 50
179.9999999882491
 51
269.99999998822312
  0
LINE
  5
173EA0
  8
P0
 10
10208.24116174375
 20
1490.5419779843651
 30
0.0
 11
10208.241161745391
 21
1498.5419779843669
 31
0.0
  0
LINE
  5
173EA1
  8
P-0
 10
10211.30720748669
 20
1521.297052571965
 30
0.0
 11
10223.325620945079
 21
1541.281900109175
 31
0.0
  0
TEXT
  5
173ED1
  8
FONDPLAN
 10
10097.26446500625
 20
1323.3444164234679
 30
0.0
 40
23.790595303007422
  1
PARAB_derive
  0
TEXT
  5
173ED2
  8
FONDPLAN
 10
10273.60821500625
 20
1357.8260169453561
 30
0.0
 40
11.895297651503711
  1
Ech X
  0
TEXT
  5
173ED3
  8
FONDPLAN
 10
10273.60821500625
 20
1376.3885169453561
 30
0.0
 40
11.895297651503711
  1
Marc Lemaitre
  0
LINE
  5
173ED4
  8
FONDPLAN
 10
10084.69326045904
 20
1354.721988986372
 30
0.0
 11
10437.38076045904
 21
1354.721988986372
 31
0.0
  0
LINE
  5
173ED5
  8
FONDPLAN
 10
10084.69326045904
 20
1373.284488986372
 30
0.0
 11
10437.38076045904
 21
1373.284488986372
 31
0.0
  0
LINE
  5
173ED6
  8
FONDPLAN
 10
10084.69326045904
 20
1317.596988986372
 30
0.0
 11
10437.38076045904
 21
1317.596988986372
 31
0.0
  0
LINE
  5
173ED7
  8
FONDPLAN
 10
10437.38076045904
 20
1391.846988986372
 30
0.0
 11
10084.69326045904
 21
1391.846988986372
 31
0.0
  0
TEXT
  5
173ED8
  8
FONDPLAN
 10
10097.26446500625
 20
1376.3885169453561
 30
0.0
 40
11.895297651503711
  1
Date:1/6/99
  0
TEXT
  5
173ED9
  8
FONDPLAN
 10
10097.26446500625
 20
1357.8260169453561
 30
0.0
 40
11.895297651503711
  1
Parab'aile
  0
LINE
  5
173EDA
  8
FONDPLAN
 10
10084.69326045904
 20
1391.846988986372
 30
0.0
 11
10084.69326045904
 21
1317.596988986372
 31
0.0
  0
LINE
  5
173EDB
  8
FONDPLAN
 10
10261.03701045904
 20
1391.846988986372
 30
0.0
 11
10261.03701045904
 21
1354.721988986372
 31
0.0
  0
CIRCLE
  5
173EDC
  8
FONDPLAN
 10
10375.272998676341
 20
1364.003238986372
 30
0.0
 40
7.3036409638203992
  0
LINE
  5
173EDD
  8
FONDPLAN
 10
10362.74875112185
 20
1364.003238986372
 30
0.0
 11
10428.481519796231
 21
1364.003238986372
 31
0.0
  0
LINE
  5
173EDE
  8
FONDPLAN
 10
10353.84951045904
 20
1373.284488986372
 30
0.0
 11
10353.84951045904
 21
1354.721988986372
 31
0.0
  0
LINE
  5
173EDF
  8
FONDPLAN
 10
10400.77645795341
 20
1356.699598022552
 30
0.0
 11
10418.863094889701
 21
1359.62105440808
 31
0.0
  0
LINE
  5
173EE0
  8
FONDPLAN
 10
10400.77645795341
 20
1356.699598022552
 30
0.0
 11
10400.77645795341
 21
1371.306879950193
 31
0.0
  0
LINE
  5
173EE1
  8
FONDPLAN
 10
10375.272998676341
 20
1355.238869829788
 30
0.0
 11
10375.272998676341
 21
1372.767608142957
 31
0.0
  0
LINE
  5
173EE2
  8
FONDPLAN
 10
10400.77645795341
 20
1371.306879950193
 30
0.0
 11
10418.863094889701
 21
1368.3854235646641
 31
0.0
  0
CIRCLE
  5
173EE3
  8
FONDPLAN
 10
10375.272998676341
 20
1364.003238986372
 30
0.0
 40
4.3821845782922377
  0
LINE
  5
173EE4
  8
FONDPLAN
 10
10418.863094889701
 20
1359.62105440808
 30
0.0
 11
10418.863094889701
 21
1368.3854235646641
 31
0.0
  0
LINE
  5
173EE5
  8
FONDPLAN
 10
10437.38076045904
 20
1317.596988986372
 30
0.0
 11
10437.38076045904
 21
1391.846988986372
 31
0.0
  0
ARC
  5
173FFD
  8
P0
 10
10236.24116174457
 20
1494.5419779786239
 30
0.0
 40
1.0000000000003291
 50
267.65000075035431
 51
329.99999998827138
  0
ARC
  5
173FFE
  8
P0
 10
10236.24116174457
 20
1494.5419779786239
 30
0.0
 40
0.99999999999985
 50
29.999999988314599
 51
50.000000000027349
  0
ARC
  5
173FFF
  8
P0
 10
10236.24116174457
 20
1494.5419779786239
 30
0.0
 40
1.0000000000000011
 50
50.000000000018979
 51
267.65000075035431
  0
ARC
  5
174000
  8
P0
 10
10236.24116174457
 20
1494.5419779786239
 30
0.0
 40
0.9999999999997653
 50
230.00000000004411
 51
267.6500007504585
  0
LINE
  5
174001
  8
FONDPLAN
 10
9691.1682604590424
 20
1313.8844889863731
 30
0.0
 11
9691.1682604590424
 21
1835.490738986372
 31
0.0
  0
LINE
  5
174002
  8
FONDPLAN
 10
9691.1682604590424
 20
1835.490738986372
 30
0.0
 11
10441.09326045904
 21
1835.490738986372
 31
0.0
  0
LINE
  5
174003
  8
FONDPLAN
 10
10441.09326045904
 20
1835.490738986372
 30
0.0
 11
10441.09326045904
 21
1313.8844889863731
 31
0.0
  0
LINE
  5
174004
  8
FONDPLAN
 10
10441.09326045904
 20
1313.8844889863731
 30
0.0
 11
9691.1682604590424
 21
1313.8844889863731
 31
0.0
  0
LINE
  5
174005
  8
FONDPLAN
 10
9694.8807604590438
 20
1317.596988986372
 30
0.0
 11
9694.8807604590438
 21
1831.778238986373
 31
0.0
  0
LINE
  5
174006
  8
FONDPLAN
 10
9694.8807604590438
 20
1831.778238986373
 30
0.0
 11
10437.38076045904
 21
1831.778238986373
 31
0.0
  0
LINE
  5
174007
  8
FONDPLAN
 10
10437.38076045904
 20
1831.778238986373
 30
0.0
 11
10437.38076045904
 21
1317.596988986372
 31
0.0
  0
LINE
  5
174008
  8
FONDPLAN
 10
10437.38076045904
 20
1317.596988986372
 30
0.0
 11
9694.8807604590438
 21
1317.596988986372
 31
0.0
  0
LINE
  5
174024
  8
P0
 10
9789.9128787460722
 20
1494.541977984356
 30
0.0
 11
10118.91287874607
 21
1494.541977984356
 31
0.0
  0
LINE
  5
174025
  8
P0
 10
9848.7081397460715
 20
1483.2477369843559
 30
0.0
 11
9864.3484707460702
 21
1483.0437569843559
 31
0.0
  0
LINE
  5
174026
  8
P0
 10
9874.3813257460715
 20
1521.4383859843549
 30
0.0
 11
9860.3613197460727
 21
1520.7958489843561
 31
0.0
  0
LINE
  5
174027
  8
P0
 10
9819.1093257460707
 20
1484.6992849843559
 30
0.0
 11
9833.5274217460701
 21
1483.762621984356
 31
0.0
  0
LINE
  5
174028
  8
P0
 10
9833.1151847460715
 20
1517.015309984356
 30
0.0
 11
9820.4483557460717
 21
1513.9549519843561
 31
0.0
  0
LINE
  5
174029
  8
P0
 10
9800.4115977460715
 20
1487.295423984355
 30
0.0
 11
9807.720332746072
 21
1485.877762984356
 31
0.0
  0
LINE
  5
17402A
  8
P0
 10
9809.4870627460696
 20
1510.317856984356
 30
0.0
 11
9801.9713867460705
 21
1506.8399979843559
 31
0.0
  0
LINE
  5
17402B
  8
P0
 10
9795.99378574607
 20
1488.492654984356
 30
0.0
 11
9800.4115977460715
 21
1487.295423984355
 31
0.0
  0
LINE
  5
17402C
  8
P0
 10
9793.3644177460701
 20
1489.786611984355
 30
0.0
 11
9795.99378574607
 21
1488.492654984356
 31
0.0
  0
LINE
  5
17402D
  8
P0
 10
9791.7111927460701
 20
1491.1526199843561
 30
0.0
 11
9793.3644177460701
 21
1489.786611984355
 31
0.0
  0
LINE
  5
17402E
  8
P0
 10
9791.6225853656433
 20
1491.2625639770099
 30
0.0
 11
9791.7111927460701
 21
1491.1526199843561
 31
0.0
  0
LINE
  5
17402F
  8
P0
 10
9790.1323217460704
 20
1496.0501139843559
 30
0.0
 11
9790.0787432778325
 21
1495.6818925474699
 31
0.0
  0
LINE
  5
174030
  8
P0
 10
9790.7712397460709
 20
1497.3476899843561
 30
0.0
 11
9790.1323217460704
 21
1496.0501139843559
 31
0.0
  0
LINE
  5
174031
  8
P0
 10
9791.9273457460713
 20
1498.859773984356
 30
0.0
 11
9790.7712397460709
 21
1497.3476899843561
 31
0.0
  0
LINE
  5
174032
  8
P0
 10
9793.9289817460703
 20
1500.867660984356
 30
0.0
 11
9791.9273457460713
 21
1498.859773984356
 31
0.0
  0
LINE
  5
174033
  8
P0
 10
9797.2469467460705
 20
1503.7401599843561
 30
0.0
 11
9793.9289817460703
 21
1500.867660984356
 31
0.0
  0
LINE
  5
174034
  8
P0
 10
9801.9713867460705
 20
1506.8399979843559
 30
0.0
 11
9797.2469467460705
 21
1503.7401599843561
 31
0.0
  0
POINT
  5
174035
  8
DEFPOINTS
  6
BYBLOCK
 62
     0
 10
9789.9128787460722
 20
1494.541977984356
 30
0.0
  0
ARC
  5
174036
  8
P3
 10
9793.9128787460704
 20
1494.541977984356
 30
0.0
 40
4.0
 50
235.07013141317171
 51
163.4424281522397
  0
LINE
  5
174037
  8
P0
 10
9807.720332746072
 20
1485.877762984356
 30
0.0
 11
9819.1093257460707
 21
1484.6992849843559
 31
0.0
  0
LINE
  5
174038
  8
P0
 10
9820.4483557460717
 20
1513.9549519843561
 30
0.0
 11
9809.4870627460696
 21
1510.317856984356
 31
0.0
  0
LINE
  5
174039
  8
P0
 10
9833.5274217460701
 20
1483.762621984356
 30
0.0
 11
9848.7081397460715
 21
1483.2477369843559
 31
0.0
  0
LINE
  5
17403A
  8
P0
 10
9846.7492737460707
 20
1519.3380499843561
 30
0.0
 11
9833.1151847460715
 21
1517.015309984356
 31
0.0
  0
LINE
  5
17403B
  8
P0
 10
9860.3613197460727
 20
1520.7958489843561
 30
0.0
 11
9846.7492737460707
 21
1519.3380499843561
 31
0.0
  0
LINE
  5
17403C
  8
P0
 10
9864.3484707460702
 20
1483.0437569843559
 30
0.0
 11
9880.2987197460716
 21
1483.0161209843559
 31
0.0
  0
LINE
  5
17403D
  8
P0
 10
9928.9597937460712
 20
1483.026319984356
 30
0.0
 11
9945.2222637460709
 21
1483.0276359843549
 31
0.0
  0
LINE
  5
17403E
  8
P0
 10
9950.56884274607
 20
1518.067780984356
 30
0.0
 11
9935.4104967460717
 21
1519.538410984356
 31
0.0
  0
TEXT
  5
17403F
  8
P0
 10
9873.6001746734364
 20
1501.5384037063679
 30
0.0
 40
10.270655747113009
  1
Clark YS
  0
LINE
  5
174040
  8
P0
 10
9896.4664377460704
 20
1483.032570984356
 30
0.0
 11
9912.7111417460728
 21
1483.029938984356
 31
0.0
  0
LINE
  5
174041
  8
P0
 10
9905.0569567460698
 20
1521.2396699843559
 30
0.0
 11
9889.4373527460702
 21
1521.514384984356
 31
0.0
  0
LINE
  5
174042
  8
P0
 10
9889.4373527460702
 20
1521.514384984356
 30
0.0
 11
9874.3813257460715
 21
1521.4383859843549
 31
0.0
  0
LINE
  5
174043
  8
P0
 10
9880.2987197460716
 20
1483.0161209843559
 30
0.0
 11
9896.4664377460704
 21
1483.032570984356
 31
0.0
  0
LINE
  5
174044
  8
P0
 10
9912.7111417460728
 20
1483.029938984356
 30
0.0
 11
9928.9597937460712
 21
1483.026319984356
 31
0.0
  0
LINE
  5
174045
  8
P0
 10
9920.3659847460713
 20
1520.5984489843561
 30
0.0
 11
9905.0569567460698
 21
1521.2396699843559
 31
0.0
  0
LINE
  5
174046
  8
P0
 10
9935.4104967460717
 20
1519.538410984356
 30
0.0
 11
9920.3659847460713
 21
1520.5984489843561
 31
0.0
  0
LINE
  5
174047
  8
P0
 10
10098.09046874607
 20
1495.9231199843559
 30
0.0
 11
10083.259806746069
 21
1497.4503379843561
 31
0.0
  0
LINE
  5
174048
  8
P0
 10
10082.09284374607
 20
1487.6115929843561
 30
0.0
 11
10097.57328074607
 21
1490.345582984356
 31
0.0
  0
LINE
  5
174049
  8
P0
 10
10027.03271974607
 20
1505.791803984356
 30
0.0
 11
10012.000380746071
 21
1508.8307769843559
 31
0.0
  0
LINE
  5
17404A
  8
P0
 10
10010.01749774607
 20
1483.051652984356
 30
0.0
 11
10025.95919274607
 21
1482.9986839843559
 31
0.0
  0
LINE
  5
17404B
  8
P0
 10
9961.4676257460706
 20
1483.0246749843559
 30
0.0
 11
9977.6356727460698
 21
1483.0207269843561
 31
0.0
  0
LINE
  5
17404C
  8
P0
 10
9981.2796767460713
 20
1514.0622059843561
 30
0.0
 11
9965.9091257460732
 21
1516.2266969843561
 31
0.0
  0
LINE
  5
17404D
  8
PLATINE
  6
CACHE
 10
9968.9428425658989
 20
1491.541978088967
 30
0.0
 11
10003.942842568409
 21
1491.541978065404
 31
0.0
  0
LINE
  5
17404E
  8
PLATINE
  6
CACHE
 10
9968.94284256836
 20
1497.541978088967
 30
0.0
 11
10003.94284257087
 21
1497.541978065386
 31
0.0
  0
LINE
  5
17404F
  8
P0
 10
9945.2222637460709
 20
1483.0276359843549
 30
0.0
 11
9961.4676257460706
 21
1483.0246749843559
 31
0.0
  0
LINE
  5
174050
  8
P0
 10
9965.9091257460732
 20
1516.2266969843561
 30
0.0
 11
9950.56884274607
 21
1518.067780984356
 31
0.0
  0
LINE
  5
174051
  8
PLATINE
 10
9957.0004766236143
 20
1497.5384891450069
 30
0.0
 11
9953.9362988511384
 21
1500.109639583756
 31
0.0
  0
LINE
  5
174052
  8
PLATINE
 10
9954.8256001276914
 20
1498.0580199212609
 30
0.0
 11
9957.0004766236143
 21
1497.5384891450069
 31
0.0
  0
LINE
  5
174053
  8
PLATINE
  6
CACHE
 10
9953.9362988511384
 20
1500.1096395837551
 30
0.0
 11
9967.296213890515
 21
1516.031366328685
 31
0.0
  0
LINE
  5
174054
  8
PLATINE
 10
9953.9362988511384
 20
1500.1096395837551
 30
0.0
 11
9954.8256001276914
 21
1498.0580199212609
 31
0.0
  0
LINE
  5
174055
  8
PLATINE
  6
CACHE
 10
9968.9428425658989
 20
1497.541978088967
 30
0.0
 11
9967.2107917583289
 21
1494.541978088967
 31
0.0
  0
LINE
  5
174056
  8
PLATINE
  6
CACHE
 10
9968.9428425658989
 20
1491.541978088967
 30
0.0
 11
9967.2107917583289
 21
1494.541978088967
 31
0.0
  0
LINE
  5
174057
  8
PLATINE
  6
CACHE
 10
9968.9428425658989
 20
1491.541978088967
 30
0.0
 11
9968.9428425687202
 21
1497.541978088967
 31
0.0
  0
LINE
  5
174058
  8
PLATINE
  6
CACHE
 10
9957.0004766236143
 20
1497.5384891450069
 30
0.0
 11
9971.9660439857362
 21
1515.373757814024
 31
0.0
  0
LINE
  5
174059
  8
P0
 10
9977.6356727460698
 20
1483.0207269843561
 30
0.0
 11
9993.8132607460702
 21
1483.036518984356
 31
0.0
  0
LINE
  5
17405A
  8
P0
 10
9996.6446347460696
 20
1511.6006279843559
 30
0.0
 11
9981.2796767460713
 21
1514.0622059843561
 31
0.0
  0
LINE
  5
17405B
  8
P0
 10
9993.8132607460702
 20
1483.036518984356
 30
0.0
 11
10003.94284256492
 21
1483.045979540336
 31
0.0
  0
LINE
  5
17405C
  8
P0
 10
10003.9428425761
 20
1510.284186031213
 30
0.0
 11
9996.6446347460696
 21
1511.6006279843559
 31
0.0
  0
LINE
  5
17405D
  8
PLATINE
 10
10003.94284256492
 20
1483.045979540336
 30
0.0
 11
10003.9428425761
 21
1510.284186031213
 31
0.0
  0
LINE
  5
17405E
  8
P0
 10
10055.17866974607
 20
1500.4889819843561
 30
0.0
 11
10041.37251374607
 21
1502.847253984356
 31
0.0
  0
LINE
  5
17405F
  8
P0
 10
10040.71714574607
 20
1483.0911329843559
 30
0.0
 11
10054.41440274607
 21
1483.790257984356
 31
0.0
  0
LINE
  5
174060
  8
P0
 10
10041.37251374607
 20
1502.847253984356
 30
0.0
 11
10027.03271974607
 21
1505.791803984356
 31
0.0
  0
LINE
  5
174061
  8
P0
 10
10025.95919274607
 20
1482.9986839843559
 30
0.0
 11
10040.71714574607
 21
1483.0911329843559
 31
0.0
  0
LINE
  5
174062
  8
P0
 10
10083.259806746069
 20
1497.4503379843561
 30
0.0
 11
10068.96574374607
 21
1498.8423369843561
 31
0.0
  0
LINE
  5
174063
  8
P0
 10
10067.881688746071
 20
1485.3444539843561
 30
0.0
 11
10082.09284374607
 21
1487.6115929843561
 31
0.0
  0
LINE
  5
174064
  8
P0
 10
10068.96574374607
 20
1498.8423369843561
 30
0.0
 11
10055.17866974607
 21
1500.4889819843561
 31
0.0
  0
LINE
  5
174065
  8
P0
 10
10054.41440274607
 20
1483.790257984356
 30
0.0
 11
10067.881688746071
 21
1485.3444539843561
 31
0.0
  0
LINE
  5
174066
  8
P0
 10
10108.90075074607
 20
1495.0798929843561
 30
0.0
 11
10098.09046874607
 21
1495.9231199843559
 31
0.0
  0
LINE
  5
174067
  8
P0
 10
10097.57328074607
 20
1490.345582984356
 30
0.0
 11
10108.94911374607
 21
1492.504151984356
 31
0.0
  0
LINE
  5
174068
  8
P0
 10
10115.587017746069
 20
1494.7867539843551
 30
0.0
 11
10108.90075074607
 21
1495.0798929843561
 31
0.0
  0
LINE
  5
174069
  8
P0
 10
10118.91287874607
 20
1494.541977984356
 30
0.0
 11
10115.587017746069
 21
1494.7867539843551
 31
0.0
  0
LINE
  5
17406A
  8
P0
 10
10115.64722474607
 20
1493.858644984356
 30
0.0
 11
10118.91287874607
 21
1494.541977984356
 31
0.0
  0
LINE
  5
17406B
  8
P0
 10
10108.94911374607
 20
1492.504151984356
 30
0.0
 11
10115.64722474607
 21
1493.858644984356
 31
0.0
  0
POINT
  5
17406C
  8
DEFPOINTS
  6
BYBLOCK
 62
     0
 10
10118.91287874607
 20
1494.541977984356
 30
0.0
  0
LINE
  5
17406D
  8
0
  6
BYBLOCK
 62
     4
 10
10118.91287874607
 20
1493.041977984356
 30
0.0
 11
10118.91287874607
 21
1471.8124297455879
 31
0.0
  0
DIMENSION
  5
17406E
  8
P-0
  2
*D26
 10
10078.91287874607
 20
1441.4423699428701
 30
0.0
 11
9995.4843073174998
 21
1441.4423699428701
 31
0.0
 70
   128
  1
Elevons <>
 13
10118.91287874607
 23
1494.541977984356
 33
0.0
 14
10078.91287874607
 24
1494.541977984356
 34
0.0
1001
ACAD
1000
DSTYLE
1002
{
1070
   287
1070
     3
1070
    42
1040
4.0
1070
    44
1040
4.0
1070
   140
1040
15.0
1070
   272
1070
     4
1070
   279
1070
     0
1070
   340
1005
172411
1002
}
  0
DIMENSION
  5
17406F
  8
P-0
  2
*D27
 10
10118.91287874607
 20
1467.3867208046261
 30
0.0
 11
9954.4128787460704
 21
1467.3867208046261
 31
0.0
 70
     0
 13
9789.9128787460722
 23
1494.541977984356
 33
0.0
 14
10118.91287874607
 24
1494.541977984356
 34
0.0
1001
ACAD
1000
DSTYLE
1002
{
1070
   287
1070
     3
1070
    42
1040
4.0
1070
    44
1040
4.0
1070
   140
1040
15.0
1070
   272
1070
     4
1070
   279
1070
     0
1070
   340
1005
172411
1002
}
  0
DIMENSION
  5
174070
  8
P-0
  2
*D28
 10
9971.6214544872073
 20
1553.469723116156
 30
0.0
 11
9880.7671666166389
 21
1553.469723116156
 31
0.0
 70
     0
 13
9789.9128787460722
 23
1490.541977984356
 33
0.0
 14
9971.6214544872073
 24
1520.802879814169
 34
0.0
1001
ACAD
1000
DSTYLE
1002
{
1070
   287
1070
     3
1070
    42
1040
4.0
1070
    44
1040
4.0
1070
   140
1040
15.0
1070
   272
1070
     4
1070
   279
1070
     0
1070
   340
1005
172411
1002
}
  0
DIMENSION
  5
174071
  8
P-0
  2
*D29
 10
10147.698223037451
 20
1742.2565449160891
 30
0.0
 11
10059.659838762331
 21
1742.2565449160891
 31
0.0
 70
     0
 13
9971.6214544872073
 23
1520.802879814169
 33
0.0
 14
10147.698223037451
 24
1730.6430013063041
 34
0.0
1001
ACAD
1000
DSTYLE
1002
{
1070
   287
1070
     3
1070
    42
1040
4.0
1070
    44
1040
4.0
1070
   140
1040
15.0
1070
   272
1070
     4
1070
   279
1070
     0
1070
   340
1005
172411
1002
}
  0
DIMENSION
  5
174072
  8
P-0
  2
*D30
 10
10231.30720748669
 20
1742.2565449160891
 30
0.0
 11
10189.50271526207
 21
1742.2565449160891
 31
0.0
 70
     0
 13
10147.698223037451
 23
1730.6430013063041
 33
0.0
 14
10231.30720748669
 24
1521.297052571965
 34
0.0
1001
ACAD
1000
DSTYLE
1002
{
1070
   287
1070
     3
1070
    42
1040
4.0
1070
    44
1040
4.0
1070
   140
1040
15.0
1070
   272
1070
     4
1070
   279
1070
     0
1070
   340
1005
172411
1002
}
  0
DIMENSION
  5
174073
  8
P-0
  2
*D31
 10
9992.0023019780601
 20
1520.802879814169
 30
0.0
 11
9992.0023019780601
 21
1625.7229405602391
 31
0.0
 70
     0
 13
10147.698223037451
 23
1730.6430013063041
 33
0.0
 14
9971.6214544872073
 24
1520.802879814169
 34
0.0
 50
90.0
1001
ACAD
1000
DSTYLE
1002
{
1070
   287
1070
     3
1070
    42
1040
4.0
1070
    44
1040
4.0
1070
   140
1040
15.0
1070
   272
1070
     4
1070
   279
1070
     0
1070
   340
1005
172411
1002
}
  0
TEXT
  5
174074
  8
P-0
 10
10069.587795277879
 20
1577.6182967921659
 30
0.0
 40
7.687389352725404
  1
DERIVE 2.72 dm^ 2
  7
MONOTXT
  0
DIMENSION
  5
174075
  8
P-0
  2
*D32
 10
10297.243868273739
 20
1494.541977984356
 30
0.0
 11
10262.3867254166
 21
1468.0679947889721
 31
0.0
 70
   128
 13
9971.6214544872073
 23
1520.802879814169
 33
0.0
 14
9789.9128787460722
 24
1494.541977984356
 34
0.0
 50
90.0
1001
ACAD
1000
DSTYLE
1002
{
1070
   287
1070
     3
1070
    42
1040
4.0
1070
    44
1040
4.0
1070
   140
1040
15.0
1070
   272
1070
     4
1070
   279
1070
     0
1070
   340
1005
172411
1002
}
  0
VIEWPORT
  5
346F
 67
     1
  8
0
 10
1094.6742519500201
 20
690.17411353577631
 30
0.0
 40
6238.4663250759977
 41
3762.6514541046608
 68
     1
 69
     1
1001
ACAD
1000
MVIEW
1002
{
1070
    16
1010
0.0
1020
0.0
1030
0.0
1010
0.0
1020
0.0
1030
1.0
1040
0.0
1040
3762.6514541046608
1040
1094.6742519500201
1040
690.17411353577631
1040
50.0
1040
0.0
1040
0.0
1070
     0
1070
   100
1070
     1
1070
     0
1070
     0
1070
     0
1070
     0
1070
     0
1040
0.0
1040
0.0
1040
0.0
1040
5.0
1040
5.0
1040
5.0
1040
5.0
1070
     0
1002
{
1002
}
1002
}
  0
INSERT
  5
12E30
 67
     1
  8
0
  2
SEMAFOR
 10
1551.969059470797
 20
505.39998612816697
 30
0.0
  0
INSERT
  5
12E32
 67
     1
  8
0
  2
SEMAFOR
 10
1551.969059470797
 20
505.39998612816697
 30
0.0
  0
INSERT
  5
12E34
 67
     1
  8
0
  2
SEMAFOR
 10
1551.969059470797
 20
505.39998612816697
 30
0.0
  0
INSERT
  5
12E36
 67
     1
  8
0
  2
SEMAFOR
 10
1551.969059470797
 20
505.39998612816697
 30
0.0
  0
INSERT
  5
12E38
 67
     1
  8
0
  2
SEMAFOR
 10
1551.969059470797
 20
505.39998612816697
 30
0.0
  0
INSERT
  5
12E3A
 67
     1
  8
0
  2
SEMAFOR
 10
1551.969059470797
 20
505.39998612816697
 30
0.0
  0
INSERT
  5
12E3B
 67
     1
  8
0
  2
ACAD
 10
6285.4080222155899
 20
1132.389211653142
 30
0.0
  0
INSERT
  5
12E3C
 67
     1
  8
0
  2
ACAD
 10
5953.2094616325576
 20
931.96680571315505
 30
0.0
  0
INSERT
  5
12E3D
 67
     1
  8
0
  2
ACAD
 10
5953.2094616325576
 20
931.96680571315505
 30
0.0
  0
INSERT
  5
12E3E
 67
     1
  8
0
  2
ACAD
 10
11395.627562480169
 20
4667.1623854158906
 30
0.0
  0
INSERT
  5
12E3F
 67
     1
  8
0
  2
ACAD
 10
11887.378737478661
 20
4633.4225722779684
 30
0.0
  0
INSERT
  5
12E40
 67
     1
  8
0
  2
ACAD
 10
7246.105355049016
 20
8702.7877805356638
 30
0.0
  0
INSERT
  5
12E41
 67
     1
  8
0
  2
ACAD
 10
7737.8565300475066
 20
8669.0479673977425
 30
0.0
  0
INSERT
  5
12E42
 67
     1
  8
P2
  2
ACAD
 10
9963.0472677726484
 20
3356.3156142261878
 30
0.0
 41
0.02
 42
0.02
 43
0.02
  0
INSERT
  5
12E44
 67
     1
  8
0
  2
SEMAFOR
 10
1551.969059470797
 20
505.39998612816697
 30
0.0
 41
3.75
 42
3.75
 43
3.75
  0
INSERT
  5
12E46
 67
     1
  8
0
  2
SEMAFOR
 10
1551.969059470797
 20
505.39998612816697
 30
0.0
 41
3.75
 42
3.75
 43
3.75
  0
INSERT
  5
12E48
 67
     1
  8
0
  2
SEMAFOR
 10
1551.969059470797
 20
505.39998612816697
 30
0.0
 41
3.75
 42
3.75
 43
3.75
  0
INSERT
  5
12E49
 67
     1
  8
0
  2
ACAD
 10
6552.0160031004089
 20
4054.634365868309
 30
0.0
  0
INSERT
  5
12E4A
 67
     1
  8
0
  2
ACAD
 10
7043.7671780989003
 20
4020.8945527303858
 30
0.0
  0
INSERT
  5
12E4C
 67
     1
  8
0
  2
SEMAFOR
 10
5260.5404640183306
 20
1505.2244122610859
 30
0.0
  0
INSERT
  5
12E4E
 67
     1
  8
0
  2
SEMAFOR
 10
5260.5404640183306
 20
1505.2244122610859
 30
0.0
  0
INSERT
  5
12E50
 67
     1
  8
0
  2
SEMAFOR
 10
5260.5404640183306
 20
1505.2244122610859
 30
0.0
  0
INSERT
  5
12E52
 67
     1
  8
0
  2
SEMAFOR
 10
5260.5404640183306
 20
1505.2244122610859
 30
0.0
  0
INSERT
  5
12E54
 67
     1
  8
0
  2
SEMAFOR
 10
5260.5404640183306
 20
1505.2244122610859
 30
0.0
  0
INSERT
  5
12E56
 67
     1
  8
0
  2
SEMAFOR
 10
5260.5404640183306
 20
1505.2244122610859
 30
0.0
  0
INSERT
  5
12E57
 67
     1
  8
0
  2
ACAD
 10
9993.9794267631241
 20
2132.213637786062
 30
0.0
  0
INSERT
  5
12E58
 67
     1
  8
0
  2
ACAD
 10
9661.7808661800937
 20
1931.791231846074
 30
0.0
  0
INSERT
  5
12E59
 67
     1
  8
0
  2
ACAD
 10
9661.7808661800937
 20
1931.791231846074
 30
0.0
  0
INSERT
  5
12E5A
 67
     1
  8
0
  2
ACAD
 10
15104.1989670277
 20
5666.9868115488098
 30
0.0
  0
INSERT
  5
12E5B
 67
     1
  8
0
  2
ACAD
 10
15595.9501420262
 20
5633.2469984108866
 30
0.0
  0
INSERT
  5
12E5C
 67
     1
  8
0
  2
ACAD
 10
10954.67675959655
 20
9702.6122066685821
 30
0.0
  0
INSERT
  5
12E5D
 67
     1
  8
0
  2
ACAD
 10
11446.42793459504
 20
9668.8723935306625
 30
0.0
  0
INSERT
  5
12E5E
 67
     1
  8
P2
  2
ACAD
 10
13671.618672320181
 20
4356.1400403591069
 30
0.0
 41
0.02
 42
0.02
 43
0.02
  0
INSERT
  5
12E60
 67
     1
  8
0
  2
SEMAFOR
 10
5260.5404640183306
 20
1505.2244122610859
 30
0.0
 41
3.75
 42
3.75
 43
3.75
  0
INSERT
  5
12E62
 67
     1
  8
0
  2
SEMAFOR
 10
5260.5404640183306
 20
1505.2244122610859
 30
0.0
 41
3.75
 42
3.75
 43
3.75
  0
INSERT
  5
12E64
 67
     1
  8
0
  2
SEMAFOR
 10
5260.5404640183306
 20
1505.2244122610859
 30
0.0
 41
3.75
 42
3.75
 43
3.75
  0
INSERT
  5
12E65
 67
     1
  8
0
  2
ACAD
 10
12556.63630765708
 20
3191.891501135447
 30
0.0
  0
INSERT
  5
12E66
 67
     1
  8
0
  2
ACAD
 10
12224.437747074049
 20
2991.469095195459
 30
0.0
  0
INSERT
  5
12E67
 67
     1
  8
0
  2
ACAD
 10
12224.437747074049
 20
2991.469095195459
 30
0.0
  0
INSERT
  5
12E68
 67
     1
  8
0
  2
ACAD
 10
17666.855847921659
 20
6726.6646748981948
 30
0.0
  0
INSERT
  5
12E69
 67
     1
  8
0
  2
ACAD
 10
18158.60702292015
 20
6692.9248617602716
 30
0.0
  0
INSERT
  5
12E6A
 67
     1
  8
0
  2
ACAD
 10
13517.3336404905
 20
10762.290070017971
 30
0.0
  0
INSERT
  5
12E6B
 67
     1
  8
0
  2
ACAD
 10
14009.08481548899
 20
10728.55025688004
 30
0.0
  0
INSERT
  5
12E6D
 67
     1
  8
0
  2
SEMAFOR
 10
5260.5404640183306
 20
1505.2244122610859
 30
0.0
 41
10.0
 42
10.0
 43
10.0
  0
INSERT
  5
12E6F
 67
     1
  8
0
  2
SEMAFOR
 10
5260.5404640183306
 20
1505.2244122610859
 30
0.0
 41
10.0
 42
10.0
 43
10.0
  0
INSERT
  5
12E71
 67
     1
  8
0
  2
SEMAFOR
 10
5260.5404640183306
 20
1505.2244122610859
 30
0.0
 41
10.0
 42
10.0
 43
10.0
  0
INSERT
  5
12E73
 67
     1
  8
0
  2
SEMAFOR
 10
5076.0374900192664
 20
712.6009124297882
 30
0.0
  0
INSERT
  5
12E75
 67
     1
  8
0
  2
SEMAFOR
 10
5076.0374900192664
 20
712.6009124297882
 30
0.0
  0
INSERT
  5
12E77
 67
     1
  8
0
  2
SEMAFOR
 10
5076.0374900192664
 20
712.6009124297882
 30
0.0
  0
INSERT
  5
12E79
 67
     1
  8
0
  2
SEMAFOR
 10
5076.0374900192664
 20
712.6009124297882
 30
0.0
  0
INSERT
  5
12E7B
 67
     1
  8
0
  2
SEMAFOR
 10
5076.0374900192664
 20
712.6009124297882
 30
0.0
  0
INSERT
  5
12E7D
 67
     1
  8
0
  2
SEMAFOR
 10
5076.0374900192664
 20
712.6009124297882
 30
0.0
  0
INSERT
  5
12E7E
 67
     1
  8
0
  2
ACAD
 10
9809.4764527640582
 20
1339.590137954764
 30
0.0
  0
INSERT
  5
12E7F
 67
     1
  8
0
  2
ACAD
 10
9477.2778921810259
 20
1139.167732014776
 30
0.0
  0
INSERT
  5
12E80
 67
     1
  8
0
  2
ACAD
 10
9477.2778921810259
 20
1139.167732014776
 30
0.0
  0
INSERT
  5
12E81
 67
     1
  8
0
  2
ACAD
 10
14919.695993028639
 20
4874.3633117175123
 30
0.0
  0
INSERT
  5
12E82
 67
     1
  8
0
  2
ACAD
 10
15411.447168027131
 20
4840.6234985795891
 30
0.0
  0
INSERT
  5
12E83
 67
     1
  8
0
  2
ACAD
 10
10770.173785597481
 20
8909.9887068372846
 30
0.0
  0
INSERT
  5
12E84
 67
     1
  8
0
  2
ACAD
 10
11261.924960595979
 20
8876.2488936993632
 30
0.0
  0
INSERT
  5
12E85
 67
     1
  8
P2
  2
ACAD
 10
13487.115698321109
 20
3563.516540527809
 30
0.0
 41
0.02
 42
0.02
 43
0.02
  0
INSERT
  5
12E87
 67
     1
  8
0
  2
SEMAFOR
 10
5076.0374900192664
 20
712.6009124297882
 30
0.0
 41
3.75
 42
3.75
 43
3.75
  0
INSERT
  5
12E89
 67
     1
  8
0
  2
SEMAFOR
 10
5076.0374900192664
 20
712.6009124297882
 30
0.0
 41
3.75
 42
3.75
 43
3.75
  0
INSERT
  5
12E8B
 67
     1
  8
0
  2
SEMAFOR
 10
5076.0374900192664
 20
712.6009124297882
 30
0.0
 41
3.75
 42
3.75
 43
3.75
  0
INSERT
  5
12E8C
 67
     1
  8
0
  2
ACAD
 10
12372.13333365801
 20
2399.268001304149
 30
0.0
  0
INSERT
  5
12E8D
 67
     1
  8
0
  2
ACAD
 10
12039.93477307498
 20
2198.845595364161
 30
0.0
  0
INSERT
  5
12E8E
 67
     1
  8
0
  2
ACAD
 10
12039.93477307498
 20
2198.845595364161
 30
0.0
  0
INSERT
  5
12E8F
 67
     1
  8
0
  2
ACAD
 10
17482.352873922591
 20
5934.0411750668982
 30
0.0
  0
INSERT
  5
12E90
 67
     1
  8
0
  2
ACAD
 10
17974.104048921079
 20
5900.301361928975
 30
0.0
  0
INSERT
  5
12E91
 67
     1
  8
0
  2
ACAD
 10
13332.83066649144
 20
9969.6665701866696
 30
0.0
  0
INSERT
  5
12E92
 67
     1
  8
0
  2
ACAD
 10
13824.58184148993
 20
9935.9267570487482
 30
0.0
  0
INSERT
  5
12E94
 67
     1
  8
0
  2
SEMAFOR
 10
5076.0374900192664
 20
712.6009124297882
 30
0.0
 41
10.0
 42
10.0
 43
10.0
  0
INSERT
  5
12E96
 67
     1
  8
0
  2
SEMAFOR
 10
5076.0374900192664
 20
712.6009124297882
 30
0.0
 41
10.0
 42
10.0
 43
10.0
  0
INSERT
  5
12E98
 67
     1
  8
0
  2
SEMAFOR
 10
5076.0374900192664
 20
712.6009124297882
 30
0.0
 41
10.0
 42
10.0
 43
10.0
  0
INSERT
  5
12E9A
 67
     1
  8
0
  2
SEMAFOR
 10
16938.929523281189
 20
3773.2879267246931
 30
0.0
  0
INSERT
  5
12E9C
 67
     1
  8
0
  2
SEMAFOR
 10
16938.929523281189
 20
3773.2879267246931
 30
0.0
  0
INSERT
  5
12E9E
 67
     1
  8
0
  2
SEMAFOR
 10
16938.929523281189
 20
3773.2879267246931
 30
0.0
  0
INSERT
  5
12E9F
 67
     1
  8
0
  2
ACAD
 10
21672.368486025989
 20
4400.2771522496678
 30
0.0
  0
INSERT
  5
12EA0
 67
     1
  8
0
  2
ACAD
 10
21340.169925442951
 20
4199.8547463096811
 30
0.0
  0
INSERT
  5
12EA1
 67
     1
  8
0
  2
ACAD
 10
21340.169925442951
 20
4199.8547463096811
 30
0.0
  0
INSERT
  5
12EA2
 67
     1
  8
0
  2
ACAD
 10
26782.58802629057
 20
7935.0503260124169
 30
0.0
  0
INSERT
  5
12EA3
 67
     1
  8
0
  2
ACAD
 10
27274.339201289062
 20
7901.3105128744946
 30
0.0
  0
INSERT
  5
12EA4
 67
     1
  8
0
  2
ACAD
 10
22633.06581885941
 20
11970.675721132189
 30
0.0
  0
INSERT
  5
12EA5
 67
     1
  8
0
  2
ACAD
 10
23124.816993857909
 20
11936.93590799427
 30
0.0
  0
INSERT
  5
12EA6
 67
     1
  8
P2
  2
ACAD
 10
25350.007731583049
 20
6624.2035548227132
 30
0.0
 41
0.02
 42
0.02
 43
0.02
  0
INSERT
  5
12EA8
 67
     1
  8
0
  2
SEMAFOR
 10
16938.929523281189
 20
3773.2879267246931
 30
0.0
 41
3.75
 42
3.75
 43
3.75
  0
INSERT
  5
12EAA
 67
     1
  8
0
  2
SEMAFOR
 10
16938.929523281189
 20
3773.2879267246931
 30
0.0
 41
3.75
 42
3.75
 43
3.75
  0
INSERT
  5
12EAC
 67
     1
  8
0
  2
SEMAFOR
 10
16938.929523281189
 20
3773.2879267246931
 30
0.0
 41
3.75
 42
3.75
 43
3.75
  0
INSERT
  5
12EAD
 67
     1
  8
0
  2
ACAD
 10
21938.976466910801
 20
7322.5223064648353
 30
0.0
  0
INSERT
  5
12EAE
 67
     1
  8
0
  2
ACAD
 10
22430.7276419093
 20
7288.7824933269121
 30
0.0
  0
INSERT
  5
12EB0
 67
     1
  8
0
  2
SEMAFOR
 10
20647.500927828729
 20
4773.1123528576118
 30
0.0
  0
INSERT
  5
12EB2
 67
     1
  8
0
  2
SEMAFOR
 10
20647.500927828729
 20
4773.1123528576118
 30
0.0
  0
INSERT
  5
12EB4
 67
     1
  8
0
  2
SEMAFOR
 10
20647.500927828729
 20
4773.1123528576118
 30
0.0
  0
INSERT
  5
12EB6
 67
     1
  8
0
  2
SEMAFOR
 10
20647.500927828729
 20
4773.1123528576118
 30
0.0
  0
INSERT
  5
12EB8
 67
     1
  8
0
  2
SEMAFOR
 10
20647.500927828729
 20
4773.1123528576118
 30
0.0
  0
INSERT
  5
12EBA
 67
     1
  8
0
  2
SEMAFOR
 10
20647.500927828729
 20
4773.1123528576118
 30
0.0
  0
INSERT
  5
12EBB
 67
     1
  8
0
  2
ACAD
 10
25380.939890573522
 20
5400.1015783825878
 30
0.0
  0
INSERT
  5
12EBC
 67
     1
  8
0
  2
ACAD
 10
25048.741329990491
 20
5199.6791724426002
 30
0.0
  0
INSERT
  5
12EBD
 67
     1
  8
0
  2
ACAD
 10
25048.741329990491
 20
5199.6791724426002
 30
0.0
  0
INSERT
  5
12EBE
 67
     1
  8
0
  2
ACAD
 10
30491.159430838099
 20
8934.8747521453352
 30
0.0
  0
INSERT
  5
12EBF
 67
     1
  8
0
  2
ACAD
 10
30982.910605836591
 20
8901.1349390074101
 30
0.0
  0
INSERT
  5
12EC0
 67
     1
  8
0
  2
ACAD
 10
26341.637223406949
 20
12970.5001472651
 30
0.0
  0
INSERT
  5
12EC1
 67
     1
  8
0
  2
ACAD
 10
26833.388398405441
 20
12936.760334127181
 30
0.0
  0
INSERT
  5
12EC2
 67
     1
  8
P2
  2
ACAD
 10
29058.579136130578
 20
7624.0279809556332
 30
0.0
 41
0.02
 42
0.02
 43
0.02
  0
INSERT
  5
12EC4
 67
     1
  8
0
  2
SEMAFOR
 10
20647.500927828729
 20
4773.1123528576118
 30
0.0
 41
3.75
 42
3.75
 43
3.75
  0
INSERT
  5
12EC6
 67
     1
  8
0
  2
SEMAFOR
 10
20647.500927828729
 20
4773.1123528576118
 30
0.0
 41
3.75
 42
3.75
 43
3.75
  0
INSERT
  5
12EC8
 67
     1
  8
0
  2
SEMAFOR
 10
20647.500927828729
 20
4773.1123528576118
 30
0.0
 41
3.75
 42
3.75
 43
3.75
  0
INSERT
  5
12EC9
 67
     1
  8
0
  2
ACAD
 10
27943.596771467481
 20
6459.7794417319728
 30
0.0
  0
INSERT
  5
12ECA
 67
     1
  8
0
  2
ACAD
 10
27611.398210884439
 20
6259.3570357919853
 30
0.0
  0
INSERT
  5
12ECB
 67
     1
  8
0
  2
ACAD
 10
27611.398210884439
 20
6259.3570357919853
 30
0.0
  0
INSERT
  5
12ECC
 67
     1
  8
0
  2
ACAD
 10
33053.816311732051
 20
9994.5526154947202
 30
0.0
  0
INSERT
  5
12ECD
 67
     1
  8
0
  2
ACAD
 10
33545.56748673055
 20
9960.8128023567988
 30
0.0
  0
INSERT
  5
12ECE
 67
     1
  8
0
  2
ACAD
 10
28904.294104300901
 20
14030.178010614491
 30
0.0
  0
INSERT
  5
12ECF
 67
     1
  8
0
  2
ACAD
 10
29396.045279299389
 20
13996.438197476569
 30
0.0
  0
INSERT
  5
12ED1
 67
     1
  8
0
  2
SEMAFOR
 10
20647.500927828729
 20
4773.1123528576118
 30
0.0
 41
10.0
 42
10.0
 43
10.0
  0
INSERT
  5
12ED3
 67
     1
  8
0
  2
SEMAFOR
 10
20647.500927828729
 20
4773.1123528576118
 30
0.0
 41
10.0
 42
10.0
 43
10.0
  0
INSERT
  5
12ED5
 67
     1
  8
0
  2
SEMAFOR
 10
20647.500927828729
 20
4773.1123528576118
 30
0.0
 41
10.0
 42
10.0
 43
10.0
  0
INSERT
  5
12ED7
 67
     1
  8
0
  2
SEMAFOR
 10
14719.95229818593
 20
2996.6335243490948
 30
0.0
  0
INSERT
  5
12ED9
 67
     1
  8
0
  2
SEMAFOR
 10
14719.95229818593
 20
2996.6335243490948
 30
0.0
  0
INSERT
  5
12EDB
 67
     1
  8
0
  2
SEMAFOR
 10
14719.95229818593
 20
2996.6335243490948
 30
0.0
  0
INSERT
  5
12EDD
 67
     1
  8
0
  2
SEMAFOR
 10
19258.743964614729
 20
3517.6450265281801
 30
0.0
  0
INSERT
  5
12EDF
 67
     1
  8
0
  2
SEMAFOR
 10
19258.743964614729
 20
3517.6450265281801
 30
0.0
  0
INSERT
  5
12EE1
 67
     1
  8
0
  2
SEMAFOR
 10
19258.743964614729
 20
3517.6450265281801
 30
0.0
  0
INSERT
  5
12EE2
 67
     1
  8
0
  2
ACAD
 10
22629.770037863909
 20
8565.9914518828828
 30
0.0
  0
INSERT
  5
12EE3
 67
     1
  8
0
  2
ACAD
 10
23121.521212862401
 20
8532.2516387449596
 30
0.0
  0
INSERT
  5
12EE7
 67
     1
  8
ASHADE
 62
     2
  2
AVE_RENDER
 10
14719.95229818593
 20
2996.6335243490948
 30
0.0
1001
AVE_RENDER
1002
{
1070
     0
1000
ESS
1000

1002
{
1070
     1
1002
}
1002
}
  0
INSERT
  5
12EE9
 67
     1
  8
0
  2
SEMAFOR
 10
21170.00389801697
 20
4181.0152020349278
 30
0.0
 41
8.0
 42
8.0
 43
8.0
  0
INSERT
  5
12EEB
 67
     1
  8
0
  2
SEMAFOR
 10
21170.00389801697
 20
4181.0152020349278
 30
0.0
 41
8.0
 42
8.0
 43
8.0
  0
INSERT
  5
12EED
 67
     1
  8
0
  2
SEMAFOR
 10
21170.00389801697
 20
4181.0152020349278
 30
0.0
 41
8.0
 42
8.0
 43
8.0
  0
INSERT
  5
30C14
 67
     1
  8
AME_FRZ
  2
AME_NIL
 10
0.0
 20
0.0
 30
0.0
  0
INSERT
  5
30C15
 67
     1
  8
AME_FRZ
  2
AME_SOL
 10
0.0
 20
0.0
 30
0.0
1001
AME_SOL
1000
R2.1
1000
AME2
1000
sq cm
1070
     3
1070
     0
1070
     3
1000
wire
1040
45.0
1000
U
1040
1.0
1000
cm
1000
gm
1000
MILD_STEEL
1070
    25
1000
CSG
1070
     1
1070
     3
1070
     3
1070
     3
1070
     0
1000
cu cm
1070
     1
1070
     0
1005
30C14
  0
INSERT
  5
34E79
 67
     1
  8
0
  2
SEMAFOR
 10
1447.964444386256
 20
1825.897531263299
 30
0.0
  0
INSERT
  5
34E7B
 67
     1
  8
0
  2
SEMAFOR
 10
1447.964444386256
 20
1825.897531263299
 30
0.0
  0
INSERT
  5
34E7D
 67
     1
  8
0
  2
SEMAFOR
 10
1447.964444386256
 20
1825.897531263299
 30
0.0
  0
INSERT
  5
34E7F
 67
     1
  8
0
  2
SEMAFOR
 10
1447.964444386256
 20
1825.897531263299
 30
0.0
  0
INSERT
  5
34E81
 67
     1
  8
0
  2
SEMAFOR
 10
1447.964444386256
 20
1825.897531263299
 30
0.0
  0
INSERT
  5
34E83
 67
     1
  8
0
  2
SEMAFOR
 10
1447.964444386256
 20
1825.897531263299
 30
0.0
  0
INSERT
  5
34E84
 67
     1
  8
0
  2
ACAD
 10
6181.4034071310507
 20
2452.8867567882749
 30
0.0
  0
INSERT
  5
34E85
 67
     1
  8
0
  2
ACAD
 10
5849.2048465480193
 20
2252.4643508482868
 30
0.0
  0
INSERT
  5
34E86
 67
     1
  8
0
  2
ACAD
 10
5849.2048465480193
 20
2252.4643508482868
 30
0.0
  0
INSERT
  5
34E87
 67
     1
  8
0
  2
ACAD
 10
11291.62294739563
 20
5987.6599305510217
 30
0.0
  0
INSERT
  5
34E88
 67
     1
  8
0
  2
ACAD
 10
11783.37412239412
 20
5953.9201174131003
 30
0.0
  0
INSERT
  5
34E89
 67
     1
  8
0
  2
ACAD
 10
7142.1007399644759
 20
10023.285325670789
 30
0.0
  0
INSERT
  5
34E8A
 67
     1
  8
0
  2
ACAD
 10
7633.8519149629692
 20
9989.5455125328754
 30
0.0
  0
INSERT
  5
34F37
 67
     1
  8
P2
  2
ACAD
 10
9859.0426526881074
 20
4676.8131593613189
 30
0.0
 41
0.02
 42
0.02
 43
0.02
  0
INSERT
  5
35021
 67
     1
  8
0
  2
SEMAFOR
 10
1447.964444386256
 20
1825.897531263299
 30
0.0
 41
3.75
 42
3.75
 43
3.75
  0
INSERT
  5
35023
 67
     1
  8
0
  2
SEMAFOR
 10
1447.964444386256
 20
1825.897531263299
 30
0.0
 41
3.75
 42
3.75
 43
3.75
  0
INSERT
  5
35025
 67
     1
  8
0
  2
SEMAFOR
 10
1447.964444386256
 20
1825.897531263299
 30
0.0
 41
3.75
 42
3.75
 43
3.75
  0
INSERT
  5
3505E
 67
     1
  8
0
  2
ACAD
 10
6448.0113880158697
 20
5375.1319110034401
 30
0.0
  0
INSERT
  5
3505F
 67
     1
  8
0
  2
ACAD
 10
6939.7625630143611
 20
5341.3920978655187
 30
0.0
  0
INSERT
  5
35072
 67
     1
  8
0
  2
SEMAFOR
 10
5156.5358489337896
 20
2825.7219573962188
 30
0.0
  0
INSERT
  5
35074
 67
     1
  8
0
  2
SEMAFOR
 10
5156.5358489337896
 20
2825.7219573962188
 30
0.0
  0
INSERT
  5
35076
 67
     1
  8
0
  2
SEMAFOR
 10
5156.5358489337896
 20
2825.7219573962188
 30
0.0
  0
INSERT
  5
35078
 67
     1
  8
0
  2
SEMAFOR
 10
5156.5358489337896
 20
2825.7219573962188
 30
0.0
  0
INSERT
  5
3507A
 67
     1
  8
0
  2
SEMAFOR
 10
5156.5358489337896
 20
2825.7219573962188
 30
0.0
  0
INSERT
  5
3507C
 67
     1
  8
0
  2
SEMAFOR
 10
5156.5358489337896
 20
2825.7219573962188
 30
0.0
  0
INSERT
  5
3507D
 67
     1
  8
0
  2
ACAD
 10
9889.9748116785868
 20
3452.711182921194
 30
0.0
  0
INSERT
  5
3507E
 67
     1
  8
0
  2
ACAD
 10
9557.7762510955508
 20
3252.288776981206
 30
0.0
  0
INSERT
  5
3507F
 67
     1
  8
0
  2
ACAD
 10
9557.7762510955508
 20
3252.288776981206
 30
0.0
  0
INSERT
  5
35080
 67
     1
  8
0
  2
ACAD
 10
15000.194351943161
 20
6987.4843566839418
 30
0.0
  0
INSERT
  5
35081
 67
     1
  8
0
  2
ACAD
 10
15491.94552694165
 20
6953.7445435460204
 30
0.0
  0
INSERT
  5
35082
 67
     1
  8
0
  2
ACAD
 10
10850.672144512009
 20
11023.10975180371
 30
0.0
  0
INSERT
  5
35083
 67
     1
  8
0
  2
ACAD
 10
11342.423319510501
 20
10989.36993866579
 30
0.0
  0
INSERT
  5
35084
 67
     1
  8
P2
  2
ACAD
 10
13567.61405723564
 20
5676.6375854942389
 30
0.0
 41
0.02
 42
0.02
 43
0.02
  0
INSERT
  5
35086
 67
     1
  8
0
  2
SEMAFOR
 10
5156.5358489337896
 20
2825.7219573962188
 30
0.0
 41
3.75
 42
3.75
 43
3.75
  0
INSERT
  5
35088
 67
     1
  8
0
  2
SEMAFOR
 10
5156.5358489337896
 20
2825.7219573962188
 30
0.0
 41
3.75
 42
3.75
 43
3.75
  0
INSERT
  5
3508A
 67
     1
  8
0
  2
SEMAFOR
 10
5156.5358489337896
 20
2825.7219573962188
 30
0.0
 41
3.75
 42
3.75
 43
3.75
  0
INSERT
  5
3508B
 67
     1
  8
0
  2
ACAD
 10
12452.63169257254
 20
4512.3890462705785
 30
0.0
  0
INSERT
  5
3508C
 67
     1
  8
0
  2
ACAD
 10
12120.433131989501
 20
4311.966640330591
 30
0.0
  0
INSERT
  5
3508D
 67
     1
  8
0
  2
ACAD
 10
12120.433131989501
 20
4311.966640330591
 30
0.0
  0
INSERT
  5
3508E
 67
     1
  8
0
  2
ACAD
 10
17562.851232837122
 20
8047.1622200333259
 30
0.0
  0
INSERT
  5
3508F
 67
     1
  8
0
  2
ACAD
 10
18054.602407835609
 20
8013.4224068954036
 30
0.0
  0
INSERT
  5
35090
 67
     1
  8
0
  2
ACAD
 10
13413.329025405959
 20
12082.7876151531
 30
0.0
  0
INSERT
  5
35091
 67
     1
  8
0
  2
ACAD
 10
13905.080200404451
 20
12049.04780201518
 30
0.0
  0
INSERT
  5
350AA
 67
     1
  8
0
  2
SEMAFOR
 10
5156.5358489337896
 20
2825.7219573962188
 30
0.0
 41
10.0
 42
10.0
 43
10.0
  0
INSERT
  5
350AC
 67
     1
  8
0
  2
SEMAFOR
 10
5156.5358489337896
 20
2825.7219573962188
 30
0.0
 41
10.0
 42
10.0
 43
10.0
  0
INSERT
  5
350AE
 67
     1
  8
0
  2
SEMAFOR
 10
5156.5358489337896
 20
2825.7219573962188
 30
0.0
 41
10.0
 42
10.0
 43
10.0
  0
INSERT
  5
350B7
 67
     1
  8
0
  2
SEMAFOR
 10
4972.0328749347254
 20
2033.0984575649211
 30
0.0
  0
INSERT
  5
350B9
 67
     1
  8
0
  2
SEMAFOR
 10
4972.0328749347254
 20
2033.0984575649211
 30
0.0
  0
INSERT
  5
350BB
 67
     1
  8
0
  2
SEMAFOR
 10
4972.0328749347254
 20
2033.0984575649211
 30
0.0
  0
INSERT
  5
350BD
 67
     1
  8
0
  2
SEMAFOR
 10
4972.0328749347254
 20
2033.0984575649211
 30
0.0
  0
INSERT
  5
350BF
 67
     1
  8
0
  2
SEMAFOR
 10
4972.0328749347254
 20
2033.0984575649211
 30
0.0
  0
INSERT
  5
350C1
 67
     1
  8
0
  2
SEMAFOR
 10
4972.0328749347254
 20
2033.0984575649211
 30
0.0
  0
INSERT
  5
350C2
 67
     1
  8
0
  2
ACAD
 10
9705.4718376795172
 20
2660.087683089896
 30
0.0
  0
INSERT
  5
350C3
 67
     1
  8
0
  2
ACAD
 10
9373.2732770964867
 20
2459.6652771499089
 30
0.0
  0
INSERT
  5
350C4
 67
     1
  8
0
  2
ACAD
 10
9373.2732770964867
 20
2459.6652771499089
 30
0.0
  0
INSERT
  5
350C5
 67
     1
  8
0
  2
ACAD
 10
14815.6913779441
 20
6194.8608568526452
 30
0.0
  0
INSERT
  5
350C6
 67
     1
  8
0
  2
ACAD
 10
15307.44255294259
 20
6161.121043714722
 30
0.0
  0
INSERT
  5
350C7
 67
     1
  8
0
  2
ACAD
 10
10666.16917051294
 20
10230.48625197241
 30
0.0
  0
INSERT
  5
350C8
 67
     1
  8
0
  2
ACAD
 10
11157.920345511429
 20
10196.746438834491
 30
0.0
  0
INSERT
  5
350C9
 67
     1
  8
P2
  2
ACAD
 10
13383.11108323657
 20
4884.0140856629396
 30
0.0
 41
0.02
 42
0.02
 43
0.02
  0
INSERT
  5
350CB
 67
     1
  8
0
  2
SEMAFOR
 10
4972.0328749347254
 20
2033.0984575649211
 30
0.0
 41
3.75
 42
3.75
 43
3.75
  0
INSERT
  5
350CD
 67
     1
  8
0
  2
SEMAFOR
 10
4972.0328749347254
 20
2033.0984575649211
 30
0.0
 41
3.75
 42
3.75
 43
3.75
  0
INSERT
  5
350CF
 67
     1
  8
0
  2
SEMAFOR
 10
4972.0328749347254
 20
2033.0984575649211
 30
0.0
 41
3.75
 42
3.75
 43
3.75
  0
INSERT
  5
350D0
 67
     1
  8
0
  2
ACAD
 10
12268.128718573471
 20
3719.7655464392819
 30
0.0
  0
INSERT
  5
350D1
 67
     1
  8
0
  2
ACAD
 10
11935.93015799044
 20
3519.3431404992939
 30
0.0
  0
INSERT
  5
350D2
 67
     1
  8
0
  2
ACAD
 10
11935.93015799044
 20
3519.3431404992939
 30
0.0
  0
INSERT
  5
350D3
 67
     1
  8
0
  2
ACAD
 10
17378.34825883805
 20
7254.5387202020293
 30
0.0
  0
INSERT
  5
350D4
 67
     1
  8
0
  2
ACAD
 10
17870.099433836542
 20
7220.798907064107
 30
0.0
  0
INSERT
  5
350D5
 67
     1
  8
0
  2
ACAD
 10
13228.826051406901
 20
11290.164115321801
 30
0.0
  0
INSERT
  5
350D6
 67
     1
  8
0
  2
ACAD
 10
13720.57722640539
 20
11256.424302183879
 30
0.0
  0
INSERT
  5
35107
 67
     1
  8
0
  2
SEMAFOR
 10
4972.0328749347254
 20
2033.0984575649211
 30
0.0
 41
10.0
 42
10.0
 43
10.0
  0
INSERT
  5
35109
 67
     1
  8
0
  2
SEMAFOR
 10
4972.0328749347254
 20
2033.0984575649211
 30
0.0
 41
10.0
 42
10.0
 43
10.0
  0
INSERT
  5
3510B
 67
     1
  8
0
  2
SEMAFOR
 10
4972.0328749347254
 20
2033.0984575649211
 30
0.0
 41
10.0
 42
10.0
 43
10.0
  0
INSERT
  5
35115
 67
     1
  8
0
  2
SEMAFOR
 10
16834.924908196652
 20
5093.7854718598237
 30
0.0
  0
INSERT
  5
35117
 67
     1
  8
0
  2
SEMAFOR
 10
16834.924908196652
 20
5093.7854718598237
 30
0.0
  0
INSERT
  5
35119
 67
     1
  8
0
  2
SEMAFOR
 10
16834.924908196652
 20
5093.7854718598237
 30
0.0
  0
INSERT
  5
3511A
 67
     1
  8
0
  2
ACAD
 10
21568.363870941441
 20
5720.7746973848007
 30
0.0
  0
INSERT
  5
3511B
 67
     1
  8
0
  2
ACAD
 10
21236.165310358421
 20
5520.3522914448131
 30
0.0
  0
INSERT
  5
3511C
 67
     1
  8
0
  2
ACAD
 10
21236.165310358421
 20
5520.3522914448131
 30
0.0
  0
INSERT
  5
3511D
 67
     1
  8
0
  2
ACAD
 10
26678.583411206029
 20
9255.547871147548
 30
0.0
  0
INSERT
  5
3511E
 67
     1
  8
0
  2
ACAD
 10
27170.334586204521
 20
9221.8080580096266
 30
0.0
  0
INSERT
  5
3511F
 67
     1
  8
0
  2
ACAD
 10
22529.061203774869
 20
13291.17326626732
 30
0.0
  0
INSERT
  5
35120
 67
     1
  8
0
  2
ACAD
 10
23020.81237877336
 20
13257.433453129401
 30
0.0
  0
INSERT
  5
35121
 67
     1
  8
P2
  2
ACAD
 10
25246.003116498508
 20
7944.7010999578461
 30
0.0
 41
0.02
 42
0.02
 43
0.02
  0
INSERT
  5
35123
 67
     1
  8
0
  2
SEMAFOR
 10
16834.924908196652
 20
5093.7854718598237
 30
0.0
 41
3.75
 42
3.75
 43
3.75
  0
INSERT
  5
35125
 67
     1
  8
0
  2
SEMAFOR
 10
16834.924908196652
 20
5093.7854718598237
 30
0.0
 41
3.75
 42
3.75
 43
3.75
  0
INSERT
  5
35127
 67
     1
  8
0
  2
SEMAFOR
 10
16834.924908196652
 20
5093.7854718598237
 30
0.0
 41
3.75
 42
3.75
 43
3.75
  0
INSERT
  5
35128
 67
     1
  8
0
  2
ACAD
 10
21834.971851826271
 20
8643.0198515999655
 30
0.0
  0
INSERT
  5
35129
 67
     1
  8
0
  2
ACAD
 10
22326.723026824751
 20
8609.2800384620459
 30
0.0
  0
INSERT
  5
3512B
 67
     1
  8
0
  2
SEMAFOR
 10
20543.496312744192
 20
6093.6098979927447
 30
0.0
  0
INSERT
  5
3512D
 67
     1
  8
0
  2
SEMAFOR
 10
20543.496312744192
 20
6093.6098979927447
 30
0.0
  0
INSERT
  5
3512F
 67
     1
  8
0
  2
SEMAFOR
 10
20543.496312744192
 20
6093.6098979927447
 30
0.0
  0
INSERT
  5
35131
 67
     1
  8
0
  2
SEMAFOR
 10
20543.496312744192
 20
6093.6098979927447
 30
0.0
  0
INSERT
  5
35133
 67
     1
  8
0
  2
SEMAFOR
 10
20543.496312744192
 20
6093.6098979927447
 30
0.0
  0
INSERT
  5
35135
 67
     1
  8
0
  2
SEMAFOR
 10
20543.496312744192
 20
6093.6098979927447
 30
0.0
  0
INSERT
  5
35136
 67
     1
  8
0
  2
ACAD
 10
25276.935275488981
 20
6720.5991235177189
 30
0.0
  0
INSERT
  5
35137
 67
     1
  8
0
  2
ACAD
 10
24944.73671490595
 20
6520.1767175777322
 30
0.0
  0
INSERT
  5
35138
 67
     1
  8
0
  2
ACAD
 10
24944.73671490595
 20
6520.1767175777322
 30
0.0
  0
INSERT
  5
35139
 67
     1
  8
0
  2
ACAD
 10
30387.154815753562
 20
10255.37229728047
 30
0.0
  0
INSERT
  5
3513A
 67
     1
  8
0
  2
ACAD
 10
30878.90599075205
 20
10221.632484142539
 30
0.0
  0
INSERT
  5
3513B
 67
     1
  8
0
  2
ACAD
 10
26237.632608322401
 20
14290.99769240024
 30
0.0
  0
INSERT
  5
3513C
 67
     1
  8
0
  2
ACAD
 10
26729.3837833209
 20
14257.257879262321
 30
0.0
  0
INSERT
  5
3513D
 67
     1
  8
P2
  2
ACAD
 10
28954.574521046041
 20
8944.5255260907652
 30
0.0
 41
0.02
 42
0.02
 43
0.02
  0
INSERT
  5
3513F
 67
     1
  8
0
  2
SEMAFOR
 10
20543.496312744192
 20
6093.6098979927447
 30
0.0
 41
3.75
 42
3.75
 43
3.75
  0
INSERT
  5
35141
 67
     1
  8
0
  2
SEMAFOR
 10
20543.496312744192
 20
6093.6098979927447
 30
0.0
 41
3.75
 42
3.75
 43
3.75
  0
INSERT
  5
35143
 67
     1
  8
0
  2
SEMAFOR
 10
20543.496312744192
 20
6093.6098979927447
 30
0.0
 41
3.75
 42
3.75
 43
3.75
  0
INSERT
  5
35144
 67
     1
  8
0
  2
ACAD
 10
27839.592156382929
 20
7780.2769868671048
 30
0.0
  0
INSERT
  5
35145
 67
     1
  8
0
  2
ACAD
 10
27507.393595799898
 20
7579.8545809271181
 30
0.0
  0
INSERT
  5
35146
 67
     1
  8
0
  2
ACAD
 10
27507.393595799898
 20
7579.8545809271181
 30
0.0
  0
INSERT
  5
35147
 67
     1
  8
0
  2
ACAD
 10
32949.811696647514
 20
11315.050160629849
 30
0.0
  0
INSERT
  5
35148
 67
     1
  8
0
  2
ACAD
 10
33441.562871646012
 20
11281.31034749193
 30
0.0
  0
INSERT
  5
35149
 67
     1
  8
0
  2
ACAD
 10
28800.28948921636
 20
15350.67555574962
 30
0.0
  0
INSERT
  5
3514A
 67
     1
  8
0
  2
ACAD
 10
29292.040664214848
 20
15316.9357426117
 30
0.0
  0
INSERT
  5
3514C
 67
     1
  8
0
  2
SEMAFOR
 10
20543.496312744192
 20
6093.6098979927447
 30
0.0
 41
10.0
 42
10.0
 43
10.0
  0
INSERT
  5
3514E
 67
     1
  8
0
  2
SEMAFOR
 10
20543.496312744192
 20
6093.6098979927447
 30
0.0
 41
10.0
 42
10.0
 43
10.0
  0
INSERT
  5
35150
 67
     1
  8
0
  2
SEMAFOR
 10
20543.496312744192
 20
6093.6098979927447
 30
0.0
 41
10.0
 42
10.0
 43
10.0
  0
INSERT
  5
3516C
 67
     1
  8
0
  2
SEMAFOR
 10
14615.947683101391
 20
4317.1310694842268
 30
0.0
  0
INSERT
  5
3516E
 67
     1
  8
0
  2
SEMAFOR
 10
14615.947683101391
 20
4317.1310694842268
 30
0.0
  0
INSERT
  5
35170
 67
     1
  8
0
  2
SEMAFOR
 10
14615.947683101391
 20
4317.1310694842268
 30
0.0
  0
INSERT
  5
35172
 67
     1
  8
0
  2
SEMAFOR
 10
19154.739349530191
 20
4838.1425716633112
 30
0.0
  0
INSERT
  5
35174
 67
     1
  8
0
  2
SEMAFOR
 10
19154.739349530191
 20
4838.1425716633112
 30
0.0
  0
INSERT
  5
35176
 67
     1
  8
0
  2
SEMAFOR
 10
19154.739349530191
 20
4838.1425716633112
 30
0.0
  0
INSERT
  5
35177
 67
     1
  8
0
  2
ACAD
 10
22525.765422779368
 20
9886.4889970180157
 30
0.0
  0
INSERT
  5
35178
 67
     1
  8
0
  2
ACAD
 10
23017.51659777786
 20
9852.7491838800925
 30
0.0
  0
INSERT
  5
35186
 67
     1
  8
0
  2
SEMAFOR
 10
21065.999282932429
 20
5501.5127471700607
 30
0.0
 41
8.0
 42
8.0
 43
8.0
  0
INSERT
  5
35188
 67
     1
  8
0
  2
SEMAFOR
 10
21065.999282932429
 20
5501.5127471700607
 30
0.0
 41
8.0
 42
8.0
 43
8.0
  0
INSERT
  5
3518A
 67
     1
  8
0
  2
SEMAFOR
 10
21065.999282932429
 20
5501.5127471700607
 30
0.0
 41
8.0
 42
8.0
 43
8.0
  0
LINE
  5
1690A5
 67
     1
  8
P-0
 62
     2
 10
-254.70671086323091
 20
-127.47247025165549
 30
0.0
 11
-14.708391685172501
 21
-127.4724703562579
 31
0.0
  0
LINE
  5
1690A8
 67
     1
  8
P-0
 62
     2
 10
-254.70671086076939
 20
-121.47247025165549
 30
0.0
 11
-14.7083916839415
 21
-121.4724703562579
 31
0.0
  0
LINE
  5
172D85
 67
     1
  8
P0
 10
762.80210287749514
 20
335.3344828351178
 30
0.0
 11
192.8021028774958
 21
477.8344828351178
 31
0.0
  0
LINE
  5
172DB9
 67
     1
  8
P0
 10
132.8021028774933
 20
477.83448283511729
 30
0.0
 11
-437.1978971225048
 21
335.3344828351178
 31
0.0
  0
LINE
  5
172DC0
 67
     1
  8
P0
 10
165.80210289265531
 20
477.8344828351178
 30
0.0
 11
165.8021028783287
 21
351.00484783512002
 31
0.0
  0
LINE
  5
172DC1
 67
     1
  8
P0
 10
159.80210289265369
 20
477.8344828351178
 30
0.0
 11
159.8021028783287
 21
351.00484783512002
 31
0.0
  0
ARC
  5
172DC2
 67
     1
  8
P0
 10
166.8021028783287
 20
350.00484783512002
 30
0.0
 40
1.0
 50
0.0000000000008397
 51
90.0
  0
LINE
  5
172DC3
 67
     1
  8
P0
 10
167.8021028783287
 20
324.00484783512002
 30
0.0
 11
157.8021028783287
 21
324.00484783512002
 31
0.0
  0
ARC
  5
172DC4
 67
     1
  8
P0
 10
165.80210287832961
 20
320.00484783511962
 30
0.0
 40
2.0
 50
270.0
 51
0.0
  0
LINE
  5
172DC5
 67
     1
  8
P0
 10
167.8021028783287
 20
322.00484783512002
 30
0.0
 11
157.80210287832779
 21
322.00484783511962
 31
0.0
  0
ARC
  5
172DC6
 67
     1
  8
P0
 10
158.8021028783287
 20
350.00484783512002
 30
0.0
 40
1.0
 50
90.0
 51
179.9999999999992
  0
LINE
  5
172DC7
 67
     1
  8
P0
 10
166.8021028783287
 20
351.00484783512002
 30
0.0
 11
158.8021028783287
 21
351.00484783512002
 31
0.0
  0
ARC
  5
172DC9
 67
     1
  8
P0
 10
159.80210287832779
 20
320.00484783512002
 30
0.0
 40
2.0
 50
179.9999999999992
 51
269.9999999999996
  0
LINE
  5
172DCA
 67
     1
  8
P0
 10
165.80210287832961
 20
318.00484783511962
 30
0.0
 11
159.80210287832779
 21
318.00484783512002
 31
0.0
  0
LINE
  5
172DCB
 67
     1
  8
P0
 10
157.8021028783287
 20
350.00484783512002
 30
0.0
 11
157.80210287832779
 21
320.00484783512002
 31
0.0
  0
LINE
  5
172DCC
 67
     1
  8
P0
 10
167.8021028783287
 20
350.00484783512002
 30
0.0
 11
167.80210287832961
 21
320.00484783511962
 31
0.0
  0
LINE
  5
172DCD
 67
     1
  8
P0
 10
192.80210287749509
 20
766.11624883512013
 30
0.0
 11
192.80210287749489
 21
477.83448283511802
 31
0.0
  0
LINE
  5
172DCE
 67
     1
  8
P0
 10
132.80210287749509
 20
766.11624883512013
 30
0.0
 11
132.80210287749469
 21
477.83448283511751
 31
0.0
  0
LINE
  5
172DD6
 67
     1
  8
P0
 10
715.30972826601328
 20
398.55058534060208
 30
0.0
 11
715.30972826601374
 21
347.20757648798838
 31
0.0
  0
LINE
  5
172DD7
 67
     1
  8
P0
 10
-389.70552251102299
 20
398.55058534060208
 30
0.0
 11
-389.70552251102339
 21
347.20757648798832
 31
0.0
  0
LINE
  5
172E2D
 67
     1
  8
P0
 10
-251.3280989419215
 20
-98.211568526454371
 30
0.0
 11
8.3576540575654672
 21
-97.717395768659117
 31
0.0
  0
LINE
  5
172E2E
 67
     1
  8
P0
 10
-238.2497733063106
 20
-98.182665233701755
 30
0.0
 11
-72.471424302691034
 21
99.384277765698698
 31
0.0
  0
LINE
  5
172E2F
 67
     1
  8
P0
 10
-251.3280989419215
 20
-98.211568526454371
 30
0.0
 11
-75.251330391675765
 21
111.6285529656807
 31
0.0
  0
LINE
  5
172E30
 67
     1
  8
P0
 10
8.3576540575654672
 20
-97.717395768659117
 30
0.0
 11
-75.251330391675765
 21
111.6285529656807
 31
0.0
  0
LINE
  5
172E34
 67
     1
  8
P0
 10
-13.708391683531771
 20
-119.47247035646249
 30
0.0
 11
16.291608316468231
 21
-119.47247036261339
 31
0.0
  0
LINE
  5
172E35
 67
     1
  8
P0
 10
-13.70839168558223
 20
-129.47247035646339
 30
0.0
 11
16.29160831441822
 21
-129.47247036261521
 31
0.0
  0
ARC
  5
172E36
 67
     1
  8
P0
 10
16.291608316058952
 20
-121.4724703626139
 30
0.0
 40
2.0
 50
359.99999998825109
 51
89.99999998825146
  0
ARC
  5
172E37
 67
     1
  8
P0
 10
16.291608314828409
 20
-127.4724703626152
 30
0.0
 40
2.0
 50
269.99999998825069
 51
359.99999998825069
  0
LINE
  5
172E38
 67
     1
  8
P0
 10
18.291608315750629
 20
-122.9724703630245
 30
0.0
 11
18.291608316058038
 21
-121.472470363024
 31
0.0
  0
LINE
  5
172E39
 67
     1
  8
P0
 10
17.291608315546
 20
-123.97247036281991
 30
0.0
 11
18.291608315750629
 21
-122.9724703630245
 31
0.0
  0
LINE
  5
172E3A
 67
     1
  8
P0
 10
18.29160831482795
 20
-127.47247036302539
 30
0.0
 11
18.29160831513536
 21
-125.9724703630245
 31
0.0
  0
LINE
  5
172E3B
 67
     1
  8
P0
 10
17.291608315340451
 20
-124.97247036281939
 30
0.0
 11
18.29160831513536
 21
-125.9724703630245
 31
0.0
  0
LINE
  5
172E3C
 67
     1
  8
P0
 10
14.157633719124529
 20
-124.97247036217679
 30
0.0
 11
17.291608315340451
 21
-124.97247036281939
 31
0.0
  0
LINE
  5
172E3D
 67
     1
  8
P0
 10
14.157633719330081
 20
-123.97247036217679
 30
0.0
 11
17.291608315546
 21
-123.97247036281991
 31
0.0
  0
ARC
  5
172E41
 67
     1
  8
P0
 10
-13.70839168373641
 20
-120.472470356462
 30
0.0
 40
1.0
 50
89.999999988251005
 51
179.9999999882474
  0
ARC
  5
172E42
 67
     1
  8
P0
 10
-13.70839168537713
 20
-128.47247035646379
 30
0.0
 40
1.0
 50
179.99999998824941
 51
269.99999998825029
  0
LINE
  5
172E43
 67
     1
  8
P0
 10
-14.70839168537759
 20
-128.47247035625881
 30
0.0
 11
-14.70839168373641
 21
-120.47247035625691
 31
0.0
  0
LINE
  5
172E48
 67
     1
  8
P-0
 10
-11.642345942434529
 20
-97.717395768659117
 30
0.0
 11
0.3760675159533093
 21
-77.732548231449073
 31
0.0
  0
LINE
  5
172F25
 67
     1
  8
P0
 10
705.60830326455971
 20
308.40187648217488
 30
0.0
 11
183.100677876042
 21
439.02878282930459
 31
0.0
  0
LINE
  5
172F26
 67
     1
  8
P0
 10
142.50352787894781
 20
439.02878282930408
 30
0.0
 11
-380.00409750957027
 21
308.40187648217483
 31
0.0
  0
LINE
  5
172F27
 67
     1
  8
P-0
 10
-389.70552251102339
 20
347.20757648798809
 30
0.0
 11
-380.00409750957027
 21
308.40187648217483
 31
0.0
  0
LINE
  5
172F28
 67
     1
  8
P-0
 10
132.80210287749469
 20
477.83448283511751
 30
0.0
 11
192.80210287749469
 21
477.83448283511802
 31
0.0
  0
LINE
  5
172F29
 67
     1
  8
P-0
 10
132.80210287749469
 20
477.83448283511751
 30
0.0
 11
142.50352787894781
 21
439.02878282930408
 31
0.0
  0
LINE
  5
172F2A
 67
     1
  8
P-0
 10
192.80210287749469
 20
477.83448283511802
 30
0.0
 11
183.1006778760418
 21
439.02878282930459
 31
0.0
  0
LINE
  5
172F2B
 67
     1
  8
P-0
 10
715.30972826601374
 20
347.20757648798809
 30
0.0
 11
705.60830326456005
 21
308.40187648217483
 31
0.0
  0
LINE
  5
172F52
 67
     1
  8
P-0
 10
162.80210287749469
 20
477.8344828351178
 30
0.0
 11
162.80210287749441
 21
768.00484783511956
 31
0.0
  0
LINE
  5
172F90
 67
     1
  8
P-0
 10
276.80210287749492
 20
456.83448283511802
 30
0.0
 11
276.80210287749452
 21
752.2508491336082
 31
0.0
  0
LINE
  5
172F91
 67
     1
  8
P-0
 10
288.80210287749492
 20
453.83448283511802
 30
0.0
 11
288.80210287749469
 21
748.73202302996276
 31
0.0
  0
LINE
  5
172F92
 67
     1
  8
P-0
 10
396.80210287749492
 20
426.83448283511768
 30
0.0
 11
396.80210287749469
 21
701.67271191435236
 31
0.0
  0
LINE
  5
172F93
 67
     1
  8
P-0
 10
408.80210287749469
 20
423.83448283511802
 30
0.0
 11
408.80210287749441
 21
694.67538083542331
 31
0.0
  0
LINE
  5
172F94
 67
     1
  8
P-0
 10
516.80210287749469
 20
396.83448283511791
 30
0.0
 11
516.80210287749469
 21
616.25198509475831
 31
0.0
  0
LINE
  5
172F95
 67
     1
  8
P-0
 10
528.80210287749469
 20
393.8344828351178
 30
0.0
 11
528.80210287749469
 21
605.80989503717524
 31
0.0
  0
LINE
  5
172F96
 67
     1
  8
P-0
 10
636.80210287749469
 20
366.83448283511791
 30
0.0
 11
636.80210287749469
 21
496.1463900574862
 31
0.0
  0
LINE
  5
172F97
 67
     1
  8
P-0
 10
648.80210287749458
 20
363.83448283511802
 30
0.0
 11
648.80210287749458
 21
482.34945431336467
 31
0.0
  0
POINT
  5
173037
 67
     1
  8
P-0
 10
162.80210287749469
 20
608.00484783511945
 30
0.0
  0
POINT
  5
173038
 67
     1
  8
P-0
 10
162.80210287749469
 20
598.00484783511956
 30
0.0
  0
LINE
  5
17305B
 67
     1
  8
P-0
  6
CACHEX2
 10
-437.1978971225048
 20
335.33448283511831
 30
0.0
 11
-380.00409750957027
 21
308.40187648217483
 31
0.0
  0
LINE
  5
17305E
 67
     1
  8
P-0
  6
CACHE
 10
142.50352787894781
 20
439.02878282930408
 30
0.0
 11
183.1006778760418
 21
439.02878282930459
 31
0.0
  0
POINT
  5
1731CD
 67
     1
  8
P-0
 10
1755.1601195114949
 20
138.80000000000001
 30
0.0
  0
LINE
  5
1731DD
 67
     1
  8
P-0
 10
1755.1601195114961
 20
380.01468652502763
 30
0.0
 11
2042.2571872008441
 21
380.01468652502763
 31
0.0
  0
LINE
  5
1731FC
 67
     1
  8
P-0
 10
1755.1601195114961
 20
215.0146865250276
 30
0.0
 11
2042.2571872008441
 21
215.0146865250276
 31
0.0
  0
POINT
  5
17321A
 67
     1
  8
P-0
 10
1755.1601195114949
 20
215.0146865250276
 30
0.0
  0
POINT
  5
17321B
 67
     1
  8
P-0
 10
1770.1601195114949
 20
260.71468652502762
 30
0.0
  0
POINT
  5
17321C
 67
     1
  8
P-0
 10
1740.1601195114961
 20
260.71468652502762
 30
0.0
  0
TEXT
  5
173356
 67
     1
  8
FONDPLAN
 10
1825.8576397127431
 20
-326.3645283830125
 30
0.0
 40
42.294391649790967
  1
Masses 001
  0
TEXT
  5
173357
 67
     1
  8
FONDPLAN
 10
2139.3576397127431
 20
-265.06390523298933
 30
0.0
 40
21.147195824895491
  1
Ech X
  0
TEXT
  5
173358
 67
     1
  8
FONDPLAN
 10
2139.3576397127431
 20
-232.06390523298941
 30
0.0
 40
21.147195824895491
  1
Marc Lemaitre
  0
LINE
  5
173359
 67
     1
  8
FONDPLAN
 10
1803.5088316288211
 20
-270.58217716007198
 30
0.0
 11
2430.5088316288211
 21
-270.58217716007198
 31
0.0
  0
LINE
  5
17335A
 67
     1
  8
FONDPLAN
 10
1803.5088316288211
 20
-237.58217716007201
 30
0.0
 11
2430.5088316288211
 21
-237.58217716007201
 31
0.0
  0
LINE
  5
17335B
 67
     1
  8
FONDPLAN
 10
1803.5088316288211
 20
-336.58217716007198
 30
0.0
 11
2430.5088316288211
 21
-336.58217716007198
 31
0.0
  0
LINE
  5
17335C
 67
     1
  8
FONDPLAN
 10
2430.5088316288211
 20
-204.58217716007201
 30
0.0
 11
1803.5088316288211
 21
-204.58217716007201
 31
0.0
  0
TEXT
  5
17335D
 67
     1
  8
FONDPLAN
 10
1825.8576397127431
 20
-232.06390523298941
 30
0.0
 40
21.147195824895491
  1
Date:1/6/99
  0
TEXT
  5
17335E
 67
     1
  8
FONDPLAN
 10
1825.8576397127431
 20
-265.06390523298933
 30
0.0
 40
21.147195824895491
  1
Parab'aile
  0
LINE
  5
17335F
 67
     1
  8
FONDPLAN
 10
1803.5088316288211
 20
-204.58217716007201
 30
0.0
 11
1803.5088316288211
 21
-336.58217716007198
 31
0.0
  0
LINE
  5
173360
 67
     1
  8
FONDPLAN
 10
2117.0088316288211
 20
-204.58217716007201
 30
0.0
 11
2117.0088316288211
 21
-270.58217716007198
 31
0.0
  0
CIRCLE
  5
173361
 67
     1
  8
FONDPLAN
 10
2320.0950329040211
 20
-254.08217716007201
 30
0.0
 40
12.98425060234737
  0
LINE
  5
173362
 67
     1
  8
FONDPLAN
 10
2297.829703918258
 20
-254.08217716007201
 30
0.0
 11
2414.6879593393851
 21
-254.08217716007201
 31
0.0
  0
LINE
  5
173363
 67
     1
  8
FONDPLAN
 10
2282.0088316288211
 20
-237.58217716007201
 30
0.0
 11
2282.0088316288211
 21
-270.58217716007198
 31
0.0
  0
LINE
  5
173364
 67
     1
  8
FONDPLAN
 10
2365.4345160632552
 20
-267.06642776241932
 30
0.0
 11
2397.5885372833259
 21
-261.87272752148039
 31
0.0
  0
LINE
  5
173365
 67
     1
  8
FONDPLAN
 10
2365.4345160632552
 20
-267.06642776241932
 30
0.0
 11
2365.4345160632552
 21
-241.09792655772461
 31
0.0
  0
LINE
  5
173366
 67
     1
  8
FONDPLAN
 10
2320.0950329040211
 20
-269.66327788288879
 30
0.0
 11
2320.0950329040211
 21
-238.50107643725511
 31
0.0
  0
LINE
  5
173367
 67
     1
  8
FONDPLAN
 10
2365.4345160632552
 20
-241.09792655772461
 30
0.0
 11
2397.5885372833259
 21
-246.29162679866349
 31
0.0
  0
CIRCLE
  5
173368
 67
     1
  8
FONDPLAN
 10
2320.0950329040211
 20
-254.08217716007201
 30
0.0
 40
7.7905503614084237
  0
LINE
  5
173369
 67
     1
  8
FONDPLAN
 10
2397.5885372833259
 20
-261.87272752148039
 30
0.0
 11
2397.5885372833259
 21
-246.29162679866349
 31
0.0
  0
LINE
  5
17336A
 67
     1
  8
FONDPLAN
 10
2430.5088316288211
 20
-336.58217716007198
 30
0.0
 11
2430.5088316288211
 21
-204.58217716007201
 31
0.0
  0
TEXT
  5
1735AB
 67
     1
  8
FONDPLAN
 10
227.7513162776801
 20
-197.68291624934179
 30
0.0
 40
47.581190606014829
  1
PARAB_TRIPTYQUE
  0
TEXT
  5
1735AC
 67
     1
  8
FONDPLAN
 10
580.43881627767985
 20
-128.7197152055659
 30
0.0
 40
23.790595303007422
  1
Ech X
  0
TEXT
  5
1735AD
 67
     1
  8
FONDPLAN
 10
580.43881627767985
 20
-91.594715205565933
 30
0.0
 40
23.790595303007422
  1
Marc Lemaitre
  0
LINE
  5
1735AE
 67
     1
  8
FONDPLAN
 10
202.6089071832688
 20
-134.9277711235338
 30
0.0
 11
907.98390718326846
 21
-134.9277711235338
 31
0.0
  0
LINE
  5
1735AF
 67
     1
  8
FONDPLAN
 10
202.6089071832688
 20
-97.80277112353383
 30
0.0
 11
907.98390718326846
 21
-97.80277112353383
 31
0.0
  0
LINE
  5
1735B0
 67
     1
  8
FONDPLAN
 10
202.6089071832688
 20
-209.1777711235338
 30
0.0
 11
907.98390718326846
 21
-209.1777711235338
 31
0.0
  0
LINE
  5
1735B1
 67
     1
  8
FONDPLAN
 10
907.98390718326846
 20
-60.67777112353383
 30
0.0
 11
202.6089071832688
 21
-60.67777112353383
 31
0.0
  0
TEXT
  5
1735B2
 67
     1
  8
FONDPLAN
 10
227.7513162776801
 20
-91.594715205565933
 30
0.0
 40
23.790595303007422
  1
Date:1/6/99
  0
TEXT
  5
1735B3
 67
     1
  8
FONDPLAN
 10
227.7513162776801
 20
-128.7197152055659
 30
0.0
 40
23.790595303007422
  1
Parab'aile
  0
LINE
  5
1735B4
 67
     1
  8
FONDPLAN
 10
202.6089071832688
 20
-60.67777112353383
 30
0.0
 11
202.6089071832688
 21
-209.1777711235338
 31
0.0
  0
LINE
  5
1735B5
 67
     1
  8
FONDPLAN
 10
555.29640718326846
 20
-60.67777112353383
 30
0.0
 11
555.29640718326846
 21
-134.9277711235338
 31
0.0
  0
CIRCLE
  5
1735B6
 67
     1
  8
FONDPLAN
 10
783.76838361786736
 20
-116.3652711235338
 30
0.0
 40
14.6072819276408
  0
LINE
  5
1735B7
 67
     1
  8
FONDPLAN
 10
758.71988850888533
 20
-116.3652711235338
 30
0.0
 11
890.18542585765215
 21
-116.3652711235338
 31
0.0
  0
LINE
  5
1735B8
 67
     1
  8
FONDPLAN
 10
740.92140718326846
 20
-97.80277112353383
 30
0.0
 11
740.92140718326846
 21
-134.9277711235338
 31
0.0
  0
LINE
  5
1735B9
 67
     1
  8
FONDPLAN
 10
834.77530217200729
 20
-130.972553051175
 30
0.0
 11
870.94857604458559
 21
-125.129640280118
 31
0.0
  0
LINE
  5
1735BA
 67
     1
  8
FONDPLAN
 10
834.77530217200729
 20
-130.972553051175
 30
0.0
 11
834.77530217200729
 21
-101.7579891958927
 31
0.0
  0
LINE
  5
1735BB
 67
     1
  8
FONDPLAN
 10
783.76838361786736
 20
-133.89400943670279
 30
0.0
 11
783.76838361786736
 21
-98.836532810364645
 31
0.0
  0
LINE
  5
1735BC
 67
     1
  8
FONDPLAN
 10
834.77530217200729
 20
-101.7579891958927
 30
0.0
 11
870.94857604458559
 21
-107.60090196694939
 31
0.0
  0
CIRCLE
  5
1735BD
 67
     1
  8
FONDPLAN
 10
783.76838361786736
 20
-116.3652711235338
 30
0.0
 40
8.7643691565844772
  0
LINE
  5
1735BE
 67
     1
  8
FONDPLAN
 10
870.94857604458559
 20
-125.129640280118
 30
0.0
 11
870.94857604458559
 21
-107.60090196694939
 31
0.0
  0
LINE
  5
1735BF
 67
     1
  8
FONDPLAN
 10
907.98390718326846
 20
-209.1777711235338
 30
0.0
 11
907.98390718326846
 21
-60.67777112353383
 31
0.0
  0
LINE
  5
1735C1
 67
     1
  8
0
  6
BYBLOCK
 62
     4
 10
709.48887326514159
 20
307.4317339820293
 30
0.0
 11
820.36383392128437
 21
279.71299381799309
 31
0.0
  0
LINE
  5
1735C2
 67
     1
  8
0
  6
BYBLOCK
 62
     4
 10
719.19029826659505
 20
346.23743398784291
 30
0.0
 11
830.06525892273794
 21
318.5186938238067
 31
0.0
  0
LINE
  5
1735C3
 67
     1
  8
0
  6
BYBLOCK
 62
     4
 10
811.63255141997661
 20
261.28028631523171
 30
0.0
 11
806.78183891924971
 21
241.87743631232499
 31
0.0
  0
LINE
  5
1735C4
 67
     1
  8
0
  6
BYBLOCK
 62
     4
 10
831.03540142288375
 20
338.89168632685869
 30
0.0
 11
835.88611392361065
 21
358.29453632976521
 31
0.0
  0
SOLID
  5
1735C5
 67
     1
  8
0
  6
BYBLOCK
 62
     4
 10
808.39874308615879
 20
262.08873839868619
 30
0.0
 11
814.86635975379431
 21
260.47183423177728
 31
0.0
 12
816.48326392070339
 22
280.68313631813839
 32
0.0
 13
816.48326392070339
 23
280.68313631813839
 33
0.0
  0
SOLID
  5
1735C6
 67
     1
  8
0
  6
BYBLOCK
 62
     4
 10
827.80159308906605
 20
339.70013841031312
 30
0.0
 11
834.26920975670146
 21
338.08323424340409
 31
0.0
 12
826.18468892215685
 22
319.488836323952
 32
0.0
 13
826.18468892215685
 23
319.488836323952
 33
0.0
  0
POINT
  5
1735C8
 67
     1
  8
DEFPOINTS
  6
BYBLOCK
 62
     0
 10
705.60830326456005
 20
308.40187648217471
 30
0.0
  0
POINT
  5
1735C9
 67
     1
  8
DEFPOINTS
  6
BYBLOCK
 62
     0
 10
715.30972826601374
 20
347.20757648798832
 30
0.0
  0
POINT
  5
1735CA
 67
     1
  8
DEFPOINTS
  6
BYBLOCK
 62
     0
 10
826.18468892215685
 20
319.488836323952
 30
0.0
  0
LINE
  5
1735CB
 67
     1
  8
0
  6
BYBLOCK
 62
     4
 10
648.80210287749458
 20
359.83448283511791
 30
0.0
 11
648.80210287749458
 21
233.56973340077641
 31
0.0
  0
LINE
  5
1735CC
 67
     1
  8
0
  6
BYBLOCK
 62
     4
 10
636.80210287749469
 20
362.83448283511791
 30
0.0
 11
636.80210287749469
 21
233.56973340077641
 31
0.0
  0
LINE
  5
1735CD
 67
     1
  8
0
  6
BYBLOCK
 62
     4
 10
668.80210287749458
 20
237.56973340077641
 30
0.0
 11
688.80210287749469
 21
237.56973340077641
 31
0.0
  0
LINE
  5
1735CE
 67
     1
  8
0
  6
BYBLOCK
 62
     4
 10
616.80210287749469
 20
237.56973340077641
 30
0.0
 11
596.80210287749469
 21
237.56973340077641
 31
0.0
  0
LINE
  5
1735D0
 67
     1
  8
0
  6
BYBLOCK
 62
     4
 10
648.80210287749458
 20
237.56973340077641
 30
0.0
 11
636.80210287749469
 21
237.56973340077641
 31
0.0
  0
SOLID
  5
1735D1
 67
     1
  8
0
  6
BYBLOCK
 62
     4
 10
668.80210287749458
 20
240.9030667341097
 30
0.0
 11
668.80210287749458
 21
234.23640006744299
 31
0.0
 12
648.80210287749458
 22
237.56973340077641
 32
0.0
 13
648.80210287749458
 23
237.56973340077641
 33
0.0
  0
SOLID
  5
1735D2
 67
     1
  8
0
  6
BYBLOCK
 62
     4
 10
616.80210287749469
 20
240.9030667341097
 30
0.0
 11
616.80210287749469
 21
234.23640006744299
 31
0.0
 12
636.80210287749469
 22
237.56973340077641
 32
0.0
 13
636.80210287749469
 23
237.56973340077641
 33
0.0
  0
POINT
  5
1735D3
 67
     1
  8
DEFPOINTS
  6
BYBLOCK
 62
     0
 10
648.80210287749458
 20
363.83448283511791
 30
0.0
  0
POINT
  5
1735D4
 67
     1
  8
DEFPOINTS
  6
BYBLOCK
 62
     0
 10
636.80210287749469
 20
366.83448283511791
 30
0.0
  0
POINT
  5
1735D5
 67
     1
  8
DEFPOINTS
  6
BYBLOCK
 62
     0
 10
636.80210287749469
 20
237.56973340077641
 30
0.0
  0
LINE
  5
1735D6
 67
     1
  8
0
  6
BYBLOCK
 62
     4
 10
762.80210287749469
 20
331.33448283511802
 30
0.0
 11
762.80210287749469
 21
242.59243136851461
 31
0.0
  0
LINE
  5
1735D7
 67
     1
  8
0
  6
BYBLOCK
 62
     4
 10
715.30972826601374
 20
343.20757648798809
 30
0.0
 11
715.30972826601374
 21
242.59243136851461
 31
0.0
  0
LINE
  5
1735D8
 67
     1
  8
0
  6
BYBLOCK
 62
     4
 10
742.80210287749469
 20
246.59243136851461
 30
0.0
 11
735.30972826601374
 21
246.59243136851461
 31
0.0
  0
SOLID
  5
1735DA
 67
     1
  8
0
  6
BYBLOCK
 62
     4
 10
742.80210287749469
 20
249.9257647018479
 30
0.0
 11
742.80210287749469
 21
243.25909803518121
 31
0.0
 12
762.80210287749469
 22
246.59243136851461
 32
0.0
 13
762.80210287749469
 23
246.59243136851461
 33
0.0
  0
SOLID
  5
1735DB
 67
     1
  8
0
  6
BYBLOCK
 62
     4
 10
735.30972826601374
 20
249.9257647018479
 30
0.0
 11
735.30972826601374
 21
243.25909803518121
 31
0.0
 12
715.30972826601374
 22
246.59243136851461
 32
0.0
 13
715.30972826601374
 23
246.59243136851461
 33
0.0
  0
POINT
  5
1735DC
 67
     1
  8
DEFPOINTS
  6
BYBLOCK
 62
     0
 10
762.80210287749469
 20
335.33448283511802
 30
0.0
  0
POINT
  5
1735DD
 67
     1
  8
DEFPOINTS
  6
BYBLOCK
 62
     0
 10
715.30972826601374
 20
347.20757648798809
 30
0.0
  0
POINT
  5
1735DE
 67
     1
  8
DEFPOINTS
  6
BYBLOCK
 62
     0
 10
715.30972826601374
 20
246.59243136851461
 30
0.0
  0
LINE
  5
1735DF
 67
     1
  8
FONDPLAN
 10
1103.908831628821
 20
-343.182177160072
 30
0.0
 11
1103.908831628821
 21
584.11782283992807
 31
0.0
  0
LINE
  5
1735E0
 67
     1
  8
FONDPLAN
 10
1103.908831628821
 20
584.11782283992807
 30
0.0
 11
2437.1088316288219
 21
584.11782283992807
 31
0.0
  0
LINE
  5
1735E1
 67
     1
  8
FONDPLAN
 10
2437.1088316288219
 20
584.11782283992807
 30
0.0
 11
2437.1088316288219
 21
-343.182177160072
 31
0.0
  0
LINE
  5
1735E2
 67
     1
  8
FONDPLAN
 10
2437.1088316288219
 20
-343.182177160072
 30
0.0
 11
1103.908831628821
 21
-343.182177160072
 31
0.0
  0
LINE
  5
1735E3
 67
     1
  8
FONDPLAN
 10
1110.5088316288211
 20
-336.58217716007198
 30
0.0
 11
1110.5088316288211
 21
577.51782283992804
 31
0.0
  0
LINE
  5
1735E4
 67
     1
  8
FONDPLAN
 10
1110.5088316288211
 20
577.51782283992804
 30
0.0
 11
2430.5088316288211
 21
577.51782283992804
 31
0.0
  0
LINE
  5
1735E5
 67
     1
  8
FONDPLAN
 10
2430.5088316288211
 20
577.51782283992804
 30
0.0
 11
2430.5088316288211
 21
-336.58217716007198
 31
0.0
  0
LINE
  5
1735E6
 67
     1
  8
FONDPLAN
 10
2430.5088316288211
 20
-336.58217716007198
 30
0.0
 11
1110.5088316288211
 21
-336.58217716007198
 31
0.0
  0
LINE
  5
1735E7
 67
     1
  8
0
  6
BYBLOCK
 62
     4
 10
1759.1601195114961
 20
215.0146865250276
 30
0.0
 11
2224.03231240485
 21
215.0146865250276
 31
0.0
  0
LINE
  5
1735E8
 67
     1
  8
0
  6
BYBLOCK
 62
     4
 10
1759.1601195114961
 20
138.80000000000001
 30
0.0
 11
2224.03231240485
 21
138.7999999999999
 31
0.0
  0
LINE
  5
1735E9
 67
     1
  8
0
  6
BYBLOCK
 62
     4
 10
2220.03231240485
 20
195.0146865250276
 30
0.0
 11
2220.03231240485
 21
186.40734326251371
 31
0.0
  0
LINE
  5
1735EA
 67
     1
  8
0
  6
BYBLOCK
 62
     4
 10
2220.03231240485
 20
158.7999999999999
 30
0.0
 11
2220.03231240485
 21
167.40734326251371
 31
0.0
  0
SOLID
  5
1735EB
 67
     1
  8
0
  6
BYBLOCK
 62
     4
 10
2216.698979071517
 20
195.0146865250276
 30
0.0
 11
2223.365645738184
 21
195.0146865250276
 31
0.0
 12
2220.03231240485
 22
215.0146865250276
 32
0.0
 13
2220.03231240485
 23
215.0146865250276
 33
0.0
  0
SOLID
  5
1735EC
 67
     1
  8
0
  6
BYBLOCK
 62
     4
 10
2216.698979071517
 20
158.7999999999999
 30
0.0
 11
2223.365645738184
 21
158.7999999999999
 31
0.0
 12
2220.03231240485
 22
138.7999999999999
 32
0.0
 13
2220.03231240485
 23
138.7999999999999
 33
0.0
  0
POINT
  5
1735EE
 67
     1
  8
DEFPOINTS
  6
BYBLOCK
 62
     0
 10
1755.1601195114949
 20
215.0146865250276
 30
0.0
  0
POINT
  5
1735EF
 67
     1
  8
DEFPOINTS
  6
BYBLOCK
 62
     0
 10
1755.1601195114949
 20
138.80000000000001
 30
0.0
  0
POINT
  5
1735F0
 67
     1
  8
DEFPOINTS
  6
BYBLOCK
 62
     0
 10
2220.03231240485
 20
138.7999999999999
 30
0.0
  0
LINE
  5
1735F1
 67
     1
  8
0
  6
BYBLOCK
 62
     4
 10
1774.1601195114949
 20
260.71468652502762
 30
0.0
 11
2163.3624195245079
 21
260.71468652502762
 31
0.0
  0
LINE
  5
1735F2
 67
     1
  8
0
  6
BYBLOCK
 62
     4
 10
1759.1601195114961
 20
215.0146865250276
 30
0.0
 11
2163.3624195245079
 21
215.0146865250276
 31
0.0
  0
LINE
  5
1735F3
 67
     1
  8
0
  6
BYBLOCK
 62
     4
 10
2159.3624195245088
 20
240.71468652502759
 30
0.0
 11
2159.3624195245088
 21
235.0146865250276
 31
0.0
  0
SOLID
  5
1735F5
 67
     1
  8
0
  6
BYBLOCK
 62
     4
 10
2156.0290861911749
 20
240.71468652502759
 30
0.0
 11
2162.6957528578419
 21
240.71468652502759
 31
0.0
 12
2159.3624195245088
 22
260.71468652502762
 32
0.0
 13
2159.3624195245088
 23
260.71468652502762
 33
0.0
  0
SOLID
  5
1735F6
 67
     1
  8
0
  6
BYBLOCK
 62
     4
 10
2156.0290861911749
 20
235.0146865250276
 30
0.0
 11
2162.6957528578419
 21
235.0146865250276
 31
0.0
 12
2159.3624195245088
 22
215.0146865250276
 32
0.0
 13
2159.3624195245088
 23
215.0146865250276
 33
0.0
  0
POINT
  5
1735F7
 67
     1
  8
DEFPOINTS
  6
BYBLOCK
 62
     0
 10
1770.1601195114949
 20
260.71468652502762
 30
0.0
  0
POINT
  5
1735F8
 67
     1
  8
DEFPOINTS
  6
BYBLOCK
 62
     0
 10
1755.1601195114949
 20
215.0146865250276
 30
0.0
  0
POINT
  5
1735F9
 67
     1
  8
DEFPOINTS
  6
BYBLOCK
 62
     0
 10
2159.3624195245088
 20
215.0146865250276
 30
0.0
  0
LINE
  5
1735FA
 67
     1
  8
0
  6
BYBLOCK
 62
     4
 10
1751.1601195114961
 20
380.01468652502763
 30
0.0
 11
1657.8692872369249
 21
380.01468652502763
 31
0.0
  0
LINE
  5
1735FB
 67
     1
  8
0
  6
BYBLOCK
 62
     4
 10
1751.1601195114949
 20
138.80000000000001
 30
0.0
 11
1657.8692872369249
 21
138.80000000000001
 31
0.0
  0
LINE
  5
1735FC
 67
     1
  8
0
  6
BYBLOCK
 62
     4
 10
1661.8692872369249
 20
360.01468652502763
 30
0.0
 11
1661.8692872369249
 21
202.52427114161131
 31
0.0
  0
LINE
  5
1735FD
 67
     1
  8
0
  6
BYBLOCK
 62
     4
 10
1661.8692872369249
 20
158.80000000000001
 30
0.0
 11
1661.8692872369249
 21
178.52427114161119
 31
0.0
  0
SOLID
  5
1735FF
 67
     1
  8
0
  6
BYBLOCK
 62
     4
 10
1658.5359539035919
 20
360.01468652502763
 30
0.0
 11
1665.2026205702589
 21
360.01468652502763
 31
0.0
 12
1661.8692872369249
 22
380.01468652502763
 32
0.0
 13
1661.8692872369249
 23
380.01468652502763
 33
0.0
  0
SOLID
  5
173600
 67
     1
  8
0
  6
BYBLOCK
 62
     4
 10
1658.5359539035919
 20
158.80000000000001
 30
0.0
 11
1665.2026205702589
 21
158.80000000000001
 31
0.0
 12
1661.8692872369249
 22
138.80000000000001
 32
0.0
 13
1661.8692872369249
 23
138.80000000000001
 33
0.0
  0
POINT
  5
173601
 67
     1
  8
DEFPOINTS
  6
BYBLOCK
 62
     0
 10
1755.1601195114961
 20
380.01468652502763
 30
0.0
  0
POINT
  5
173602
 67
     1
  8
DEFPOINTS
  6
BYBLOCK
 62
     0
 10
1755.1601195114949
 20
138.80000000000001
 30
0.0
  0
POINT
  5
173603
 67
     1
  8
DEFPOINTS
  6
BYBLOCK
 62
     0
 10
1661.8692872369249
 20
138.80000000000001
 30
0.0
  0
LINE
  5
173604
 67
     1
  8
0
  6
BYBLOCK
 62
     4
 10
1759.1601195114961
 20
380.01468652502763
 30
0.0
 11
2008.6541881073031
 21
380.01468652502763
 31
0.0
  0
LINE
  5
173605
 67
     1
  8
0
  6
BYBLOCK
 62
     4
 10
1774.1601195114949
 20
260.71468652502762
 30
0.0
 11
2008.6541881073031
 21
260.71468652502762
 31
0.0
  0
LINE
  5
173606
 67
     1
  8
0
  6
BYBLOCK
 62
     4
 10
2004.6541881073031
 20
360.01468652502763
 30
0.0
 11
2004.6541881073031
 21
332.36468652502759
 31
0.0
  0
LINE
  5
173607
 67
     1
  8
0
  6
BYBLOCK
 62
     4
 10
2004.6541881073031
 20
280.71468652502762
 30
0.0
 11
2004.6541881073031
 21
308.36468652502771
 31
0.0
  0
SOLID
  5
173608
 67
     1
  8
0
  6
BYBLOCK
 62
     4
 10
2001.32085477397
 20
360.01468652502763
 30
0.0
 11
2007.9875214406361
 21
360.01468652502763
 31
0.0
 12
2004.6541881073031
 22
380.01468652502763
 32
0.0
 13
2004.6541881073031
 23
380.01468652502763
 33
0.0
  0
SOLID
  5
173609
 67
     1
  8
0
  6
BYBLOCK
 62
     4
 10
2001.32085477397
 20
280.71468652502762
 30
0.0
 11
2007.9875214406361
 21
280.71468652502762
 31
0.0
 12
2004.6541881073031
 22
260.71468652502762
 32
0.0
 13
2004.6541881073031
 23
260.71468652502762
 33
0.0
  0
POINT
  5
17360B
 67
     1
  8
DEFPOINTS
  6
BYBLOCK
 62
     0
 10
1755.1601195114961
 20
380.01468652502763
 30
0.0
  0
POINT
  5
17360C
 67
     1
  8
DEFPOINTS
  6
BYBLOCK
 62
     0
 10
1770.1601195114949
 20
260.71468652502762
 30
0.0
  0
POINT
  5
17360D
 67
     1
  8
DEFPOINTS
  6
BYBLOCK
 62
     0
 10
2004.6541881073031
 20
260.71468652502762
 30
0.0
  0
LINE
  5
17360E
 67
     1
  8
0
  6
BYBLOCK
 62
     4
 10
1759.1601195114961
 20
215.0146865250276
 30
0.0
 11
2280.7064088729071
 21
215.0146865250276
 31
0.0
  0
LINE
  5
17360F
 67
     1
  8
0
  6
BYBLOCK
 62
     4
 10
1759.1601195114961
 20
380.01468652502763
 30
0.0
 11
2280.7064088729071
 21
380.01468652502763
 31
0.0
  0
LINE
  5
173610
 67
     1
  8
0
  6
BYBLOCK
 62
     4
 10
2276.7064088729071
 20
235.0146865250276
 30
0.0
 11
2276.7064088729071
 21
285.51468652502751
 31
0.0
  0
LINE
  5
173611
 67
     1
  8
0
  6
BYBLOCK
 62
     4
 10
2276.7064088729071
 20
360.01468652502763
 30
0.0
 11
2276.7064088729071
 21
309.51468652502751
 31
0.0
  0
SOLID
  5
173612
 67
     1
  8
0
  6
BYBLOCK
 62
     4
 10
2273.3730755395741
 20
235.0146865250276
 30
0.0
 11
2280.039742206241
 21
235.0146865250276
 31
0.0
 12
2276.7064088729071
 22
215.0146865250276
 32
0.0
 13
2276.7064088729071
 23
215.0146865250276
 33
0.0
  0
SOLID
  5
173613
 67
     1
  8
0
  6
BYBLOCK
 62
     4
 10
2273.3730755395741
 20
360.01468652502763
 30
0.0
 11
2280.039742206241
 21
360.01468652502763
 31
0.0
 12
2276.7064088729071
 22
380.01468652502763
 32
0.0
 13
2276.7064088729071
 23
380.01468652502763
 33
0.0
  0
POINT
  5
173615
 67
     1
  8
DEFPOINTS
  6
BYBLOCK
 62
     0
 10
1755.1601195114949
 20
215.0146865250276
 30
0.0
  0
POINT
  5
173616
 67
     1
  8
DEFPOINTS
  6
BYBLOCK
 62
     0
 10
1755.1601195114961
 20
380.01468652502763
 30
0.0
  0
POINT
  5
173617
 67
     1
  8
DEFPOINTS
  6
BYBLOCK
 62
     0
 10
2276.7064088729071
 20
380.01468652502763
 30
0.0
  0
LINE
  5
173618
 67
     1
  8
P-0
 10
1734.8615445129481
 20
51.038621519212263
 30
0.0
 11
1212.3539191244299
 21
-79.588284827917164
 31
0.0
  0
LINE
  5
173619
 67
     1
  8
P-0
 10
1775.4586945100421
 20
51.038621519212711
 30
0.0
 11
1734.8615445129481
 21
51.038621519212263
 31
0.0
  0
LINE
  5
17361A
 67
     1
  8
P-0
 10
1212.3539191244299
 20
-79.588284827917164
 30
0.0
 11
1155.1601195114961
 21
-52.655678474974138
 31
0.0
  0
LINE
  5
17361B
 67
     1
  8
P-0
 10
2297.9663198985609
 20
-79.588284827917164
 30
0.0
 11
1775.4586945100421
 21
51.038621519212711
 31
0.0
  0
LINE
  5
17361C
 67
     1
  8
P-0
 10
1155.1601195114961
 20
-52.655678474974138
 30
0.0
 11
1205.1601195114961
 21
13.89827152503403
 31
0.0
  0
LINE
  5
17361D
 67
     1
  8
P-0
 10
2355.1601195114959
 20
-52.655678474974138
 30
0.0
 11
2297.9663198985609
 21
-79.588284827917164
 31
0.0
  0
LINE
  5
17361E
 67
     1
  8
P-0
 10
1205.1601195114961
 20
13.89827152503403
 30
0.0
 11
1255.1601195114961
 21
77.536856525033727
 31
0.0
  0
LINE
  5
17361F
 67
     1
  8
P-0
 10
2305.1601195114959
 20
13.89827152503403
 30
0.0
 11
2355.1601195114959
 21
-52.655678474974138
 31
0.0
  0
LINE
  5
173620
 67
     1
  8
P-0
 10
1255.1601195114961
 20
77.536856525033727
 30
0.0
 11
1305.1601195114961
 21
134.88591902503319
 31
0.0
  0
LINE
  5
173621
 67
     1
  8
P-0
 10
2255.1601195114959
 20
77.536856525033727
 30
0.0
 11
2305.1601195114959
 21
13.89827152503403
 31
0.0
  0
LINE
  5
173622
 67
     1
  8
P-0
 10
1305.1601195114961
 20
134.88591902503319
 30
0.0
 11
1355.1601195114961
 21
186.42748152503279
 31
0.0
  0
LINE
  5
173623
 67
     1
  8
P-0
 10
2205.1601195114959
 20
134.88591902503319
 30
0.0
 11
2255.1601195114959
 21
77.536856525033727
 31
0.0
  0
LINE
  5
173624
 67
     1
  8
P-0
 10
1355.1601195114961
 20
186.42748152503279
 30
0.0
 11
1405.1601195114961
 21
231.67952152503219
 31
0.0
  0
LINE
  5
173625
 67
     1
  8
P-0
 10
2155.1601195114959
 20
186.42748152503279
 30
0.0
 11
2205.1601195114959
 21
134.88591902503319
 31
0.0
  0
LINE
  5
173626
 67
     1
  8
P-0
 10
1405.1601195114961
 20
231.67952152503219
 30
0.0
 11
1455.1601195114961
 21
271.12406152503172
 31
0.0
  0
LINE
  5
173627
 67
     1
  8
P-0
 10
2105.1601195114959
 20
231.67952152503219
 30
0.0
 11
2155.1601195114959
 21
186.42748152503279
 31
0.0
  0
LINE
  5
173628
 67
     1
  8
P-0
 10
1455.1601195114961
 20
271.12406152503172
 30
0.0
 11
1505.1601195114961
 21
304.27327152503091
 31
0.0
  0
LINE
  5
173629
 67
     1
  8
P-0
 10
2055.1601195114959
 20
271.12406152503172
 30
0.0
 11
2105.1601195114959
 21
231.67952152503219
 31
0.0
  0
LINE
  5
17362A
 67
     1
  8
P-0
 10
1505.1601195114961
 20
304.27327152503091
 30
0.0
 11
1555.1601195114961
 21
331.61498152503009
 31
0.0
  0
LINE
  5
17362B
 67
     1
  8
P-0
 10
2005.1601195114961
 20
304.27327152503091
 30
0.0
 11
2055.1601195114959
 21
271.12406152503172
 31
0.0
  0
LINE
  5
17362C
 67
     1
  8
P-0
 10
1555.1601195114961
 20
331.61498152503009
 30
0.0
 11
1605.1601195114961
 21
352.66716902502958
 31
0.0
  0
LINE
  5
17362D
 67
     1
  8
P-0
 10
1955.1601195114961
 20
331.61498152503009
 30
0.0
 11
2005.1601195114961
 21
304.27327152503091
 31
0.0
  0
LINE
  5
17362E
 67
     1
  8
P-0
 10
1605.1601195114961
 20
352.66716902502958
 30
0.0
 11
1655.1601195114961
 21
367.91185652502918
 31
0.0
  0
LINE
  5
17362F
 67
     1
  8
P-0
 10
1905.1601195114961
 20
352.66716902502958
 30
0.0
 11
1955.1601195114961
 21
331.61498152503009
 31
0.0
  0
LINE
  5
173630
 67
     1
  8
P-0
 10
1655.1601195114961
 20
367.91185652502918
 30
0.0
 11
1705.1601195114961
 21
376.86702152502858
 31
0.0
  0
LINE
  5
173631
 67
     1
  8
P-0
 10
1855.1601195114961
 20
367.91185652502918
 30
0.0
 11
1905.1601195114961
 21
352.66716902502958
 31
0.0
  0
LINE
  5
173632
 67
     1
  8
P-0
 10
1705.1601195114961
 20
376.86702152502858
 30
0.0
 11
1755.1601195114961
 21
380.01468652502763
 31
0.0
  0
LINE
  5
173633
 67
     1
  8
P-0
 10
1805.1601195114961
 20
376.86702152502858
 30
0.0
 11
1855.1601195114961
 21
367.91185652502918
 31
0.0
  0
LINE
  5
173634
 67
     1
  8
P-0
 10
1755.1601195114961
 20
380.01468652502763
 30
0.0
 11
1805.1601195114961
 21
376.86702152502858
 31
0.0
  0
LINE
  5
173635
 67
     1
  8
0
  6
BYBLOCK
 62
     4
 10
1770.1601195114949
 20
264.71468652502762
 30
0.0
 11
1770.1601195114949
 21
432.43573467469201
 31
0.0
  0
LINE
  5
173636
 67
     1
  8
0
  6
BYBLOCK
 62
     4
 10
1740.1601195114961
 20
264.71468652502762
 30
0.0
 11
1740.1601195114961
 21
432.43573467469201
 31
0.0
  0
LINE
  5
173637
 67
     1
  8
0
  6
BYBLOCK
 62
     4
 10
1790.1601195114961
 20
428.43573467469201
 30
0.0
 11
1810.1601195114949
 21
428.43573467469201
 31
0.0
  0
LINE
  5
173638
 67
     1
  8
0
  6
BYBLOCK
 62
     4
 10
1720.1601195114949
 20
428.43573467469201
 30
0.0
 11
1700.1601195114961
 21
428.43573467469201
 31
0.0
  0
LINE
  5
17363A
 67
     1
  8
0
  6
BYBLOCK
 62
     4
 10
1770.1601195114949
 20
428.43573467469201
 30
0.0
 11
1740.1601195114961
 21
428.43573467469201
 31
0.0
  0
SOLID
  5
17363B
 67
     1
  8
0
  6
BYBLOCK
 62
     4
 10
1790.1601195114961
 20
431.76906800802527
 30
0.0
 11
1790.1601195114961
 21
425.10240134135859
 31
0.0
 12
1770.1601195114949
 22
428.43573467469201
 32
0.0
 13
1770.1601195114949
 23
428.43573467469201
 33
0.0
  0
SOLID
  5
17363C
 67
     1
  8
0
  6
BYBLOCK
 62
     4
 10
1720.1601195114949
 20
431.76906800802527
 30
0.0
 11
1720.1601195114949
 21
425.10240134135859
 31
0.0
 12
1740.1601195114961
 22
428.43573467469201
 32
0.0
 13
1740.1601195114961
 23
428.43573467469201
 33
0.0
  0
POINT
  5
17363D
 67
     1
  8
DEFPOINTS
  6
BYBLOCK
 62
     0
 10
1770.1601195114949
 20
260.71468652502762
 30
0.0
  0
POINT
  5
17363E
 67
     1
  8
DEFPOINTS
  6
BYBLOCK
 62
     0
 10
1740.1601195114961
 20
260.71468652502762
 30
0.0
  0
POINT
  5
17363F
 67
     1
  8
DEFPOINTS
  6
BYBLOCK
 62
     0
 10
1740.1601195114961
 20
428.43573467469201
 30
0.0
  0
LINE
  5
173640
 67
     1
  8
0
  6
BYBLOCK
 62
     4
 10
166.80210287749469
 20
477.8344828351178
 30
0.0
 11
713.17564915324601
 21
477.83448283511751
 31
0.0
  0
LINE
  5
173641
 67
     1
  8
0
  6
BYBLOCK
 62
     4
 10
166.80210287749441
 20
768.00484783511956
 30
0.0
 11
713.17564915324601
 21
768.00484783511934
 31
0.0
  0
LINE
  5
173642
 67
     1
  8
0
  6
BYBLOCK
 62
     4
 10
709.17564915324601
 20
497.83448283511751
 30
0.0
 11
709.17564915324601
 21
613.41966533511845
 31
0.0
  0
LINE
  5
173643
 67
     1
  8
0
  6
BYBLOCK
 62
     4
 10
709.17564915324601
 20
748.00484783511934
 30
0.0
 11
709.17564915324601
 21
632.41966533511845
 31
0.0
  0
SOLID
  5
173644
 67
     1
  8
0
  6
BYBLOCK
 62
     4
 10
705.84231581991253
 20
497.83448283511751
 30
0.0
 11
712.5089824865795
 21
497.83448283511751
 31
0.0
 12
709.17564915324601
 22
477.83448283511751
 32
0.0
 13
709.17564915324601
 23
477.83448283511751
 33
0.0
  0
SOLID
  5
173645
 67
     1
  8
0
  6
BYBLOCK
 62
     4
 10
705.84231581991253
 20
748.00484783511934
 30
0.0
 11
712.5089824865795
 21
748.00484783511934
 31
0.0
 12
709.17564915324601
 22
768.00484783511934
 32
0.0
 13
709.17564915324601
 23
768.00484783511934
 33
0.0
  0
POINT
  5
173647
 67
     1
  8
DEFPOINTS
  6
BYBLOCK
 62
     0
 10
162.80210287749469
 20
477.8344828351178
 30
0.0
  0
POINT
  5
173648
 67
     1
  8
DEFPOINTS
  6
BYBLOCK
 62
     0
 10
162.80210287749441
 20
768.00484783511956
 30
0.0
  0
POINT
  5
173649
 67
     1
  8
DEFPOINTS
  6
BYBLOCK
 62
     0
 10
709.17564915324601
 20
768.00484783511934
 30
0.0
  0
LINE
  5
17364A
 67
     1
  8
0
  6
BYBLOCK
 62
     4
 10
276.80210287749469
 20
452.83448283511802
 30
0.0
 11
276.80210287749469
 21
330.56376271372301
 31
0.0
  0
LINE
  5
17364B
 67
     1
  8
0
  6
BYBLOCK
 62
     4
 10
396.80210287749469
 20
422.83448283511802
 30
0.0
 11
396.80210287749469
 21
330.56376271372301
 31
0.0
  0
LINE
  5
17364C
 67
     1
  8
0
  6
BYBLOCK
 62
     4
 10
296.80210287749469
 20
334.56376271372301
 30
0.0
 11
299.80210287749469
 21
334.56376271372301
 31
0.0
  0
LINE
  5
17364D
 67
     1
  8
0
  6
BYBLOCK
 62
     4
 10
376.80210287749469
 20
334.56376271372301
 30
0.0
 11
373.80210287749469
 21
334.56376271372301
 31
0.0
  0
SOLID
  5
17364E
 67
     1
  8
0
  6
BYBLOCK
 62
     4
 10
296.80210287749469
 20
337.89709604705638
 30
0.0
 11
296.80210287749469
 21
331.23042938038958
 31
0.0
 12
276.80210287749469
 22
334.56376271372301
 32
0.0
 13
276.80210287749469
 23
334.56376271372301
 33
0.0
  0
SOLID
  5
17364F
 67
     1
  8
0
  6
BYBLOCK
 62
     4
 10
376.80210287749469
 20
337.89709604705638
 30
0.0
 11
376.80210287749469
 21
331.23042938038958
 31
0.0
 12
396.80210287749469
 22
334.56376271372301
 32
0.0
 13
396.80210287749469
 23
334.56376271372301
 33
0.0
  0
POINT
  5
173651
 67
     1
  8
DEFPOINTS
  6
BYBLOCK
 62
     0
 10
276.80210287749469
 20
456.83448283511802
 30
0.0
  0
POINT
  5
173652
 67
     1
  8
DEFPOINTS
  6
BYBLOCK
 62
     0
 10
396.80210287749469
 20
426.83448283511802
 30
0.0
  0
POINT
  5
173653
 67
     1
  8
DEFPOINTS
  6
BYBLOCK
 62
     0
 10
396.80210287749469
 20
334.56376271372301
 30
0.0
  0
LINE
  5
173654
 67
     1
  8
0
  6
BYBLOCK
 62
     4
 10
766.80210287749469
 20
335.33448283511802
 30
0.0
 11
800.06282579982417
 21
335.33448283511802
 31
0.0
  0
LINE
  5
173655
 67
     1
  8
0
  6
BYBLOCK
 62
     4
 10
166.80210287749421
 20
768.00484783511956
 30
0.0
 11
800.06282579982417
 21
768.00484783511934
 31
0.0
  0
LINE
  5
173656
 67
     1
  8
0
  6
BYBLOCK
 62
     4
 10
796.06282579982417
 20
355.33448283511802
 30
0.0
 11
796.06282579982417
 21
542.16966533511868
 31
0.0
  0
LINE
  5
173657
 67
     1
  8
0
  6
BYBLOCK
 62
     4
 10
796.06282579982417
 20
748.00484783511934
 30
0.0
 11
796.06282579982417
 21
561.16966533511857
 31
0.0
  0
SOLID
  5
173658
 67
     1
  8
0
  6
BYBLOCK
 62
     4
 10
792.72949246649068
 20
355.33448283511802
 30
0.0
 11
799.39615913315765
 21
355.33448283511802
 31
0.0
 12
796.06282579982417
 22
335.33448283511802
 32
0.0
 13
796.06282579982417
 23
335.33448283511802
 33
0.0
  0
SOLID
  5
173659
 67
     1
  8
0
  6
BYBLOCK
 62
     4
 10
792.72949246649068
 20
748.00484783511934
 30
0.0
 11
799.39615913315765
 21
748.00484783511934
 31
0.0
 12
796.06282579982417
 22
768.00484783511934
 32
0.0
 13
796.06282579982417
 23
768.00484783511934
 33
0.0
  0
POINT
  5
17365B
 67
     1
  8
DEFPOINTS
  6
BYBLOCK
 62
     0
 10
762.80210287749469
 20
335.33448283511802
 30
0.0
  0
POINT
  5
17365C
 67
     1
  8
DEFPOINTS
  6
BYBLOCK
 62
     0
 10
162.80210287749421
 20
768.00484783511956
 30
0.0
  0
POINT
  5
17365D
 67
     1
  8
DEFPOINTS
  6
BYBLOCK
 62
     0
 10
796.06282579982417
 20
768.00484783511934
 30
0.0
  0
LINE
  5
17365E
 67
     1
  8
0
  6
BYBLOCK
 62
     4
 10
762.80210287749469
 20
339.33448283511802
 30
0.0
 11
762.80210287749469
 21
801.12280448582896
 31
0.0
  0
LINE
  5
17365F
 67
     1
  8
0
  6
BYBLOCK
 62
     4
 10
-437.1978971225048
 20
339.33448283511831
 30
0.0
 11
-437.1978971225048
 21
801.12280448582896
 31
0.0
  0
LINE
  5
173660
 67
     1
  8
0
  6
BYBLOCK
 62
     4
 10
742.80210287749469
 20
797.12280448582885
 30
0.0
 11
207.30210287749489
 21
797.12280448582885
 31
0.0
  0
LINE
  5
173661
 67
     1
  8
0
  6
BYBLOCK
 62
     4
 10
-417.19789712250491
 20
797.12280448582885
 30
0.0
 11
118.3021028774949
 21
797.12280448582885
 31
0.0
  0
SOLID
  5
173662
 67
     1
  8
0
  6
BYBLOCK
 62
     4
 10
742.80210287749469
 20
800.45613781916222
 30
0.0
 11
742.80210287749469
 21
793.78947115249571
 31
0.0
 12
762.80210287749469
 22
797.12280448582885
 32
0.0
 13
762.80210287749469
 23
797.12280448582885
 33
0.0
  0
SOLID
  5
173663
 67
     1
  8
0
  6
BYBLOCK
 62
     4
 10
-417.19789712250491
 20
800.45613781916222
 30
0.0
 11
-417.19789712250491
 21
793.78947115249571
 31
0.0
 12
-437.1978971225048
 22
797.12280448582885
 32
0.0
 13
-437.1978971225048
 23
797.12280448582885
 33
0.0
  0
POINT
  5
173665
 67
     1
  8
DEFPOINTS
  6
BYBLOCK
 62
     0
 10
762.80210287749469
 20
335.33448283511802
 30
0.0
  0
POINT
  5
173666
 67
     1
  8
DEFPOINTS
  6
BYBLOCK
 62
     0
 10
-437.1978971225048
 20
335.33448283511831
 30
0.0
  0
POINT
  5
173667
 67
     1
  8
DEFPOINTS
  6
BYBLOCK
 62
     0
 10
-437.1978971225048
 20
797.12280448582885
 30
0.0
  0
ARC
  5
173672
 67
     1
  8
P0
 10
3554.250275532529
 20
-2595.368789730549
 30
0.0
 40
4951.8360419967767
 50
143.08355303148031
 51
143.71218693898561
  0
ARC
  5
173673
 67
     1
  8
P0
 10
716.63972564673531
 20
-463.55651571467149
 30
0.0
 40
1402.659066349057
 50
141.90238854376841
 51
143.08355303147169
  0
ARC
  5
173674
 67
     1
  8
P0
 10
57969.82168395519
 20
-45351.93148332429
 30
0.0
 40
74154.930863069603
 50
141.84374501601991
 51
141.90238854376841
  0
ARC
  5
173675
 67
     1
  8
P0
 10
-84.018161553697837
 20
260.2076344055605
 30
0.0
 40
325.96936622110343
 50
140.9592283820692
 51
141.8437450160217
  0
ARC
  5
173676
 67
     1
  8
P0
 10
332.48563242817733
 20
-77.561508074613698
 30
0.0
 40
862.21875224694168
 50
138.9163294780048
 51
140.9592283820692
  0
ARC
  5
173677
 67
     1
  8
P0
 10
1097.0843192438811
 20
-744.17980441996315
 30
0.0
 40
1876.6107400419339
 50
137.53162826488341
 51
138.9163294780239
  0
ARC
  5
173678
 67
     1
  8
P0
 10
635.47187185081384
 20
-321.6584709588829
 30
0.0
 40
1250.8229734485401
 50
135.86977428878711
 51
137.53162826488341
  0
ARC
  5
173679
 67
     1
  8
P0
 10
599.19332618140277
 20
-286.46498446990631
 30
0.0
 40
1200.278791121221
 50
134.1732879759823
 51
135.86977428878311
  0
ARC
  5
17367A
 67
     1
  8
P0
 10
380.96858701239807
 20
-61.850137297477197
 30
0.0
 40
887.11131778518995
 50
132.14638029838719
 51
134.17328797598239
  0
ARC
  5
17367B
 67
     1
  8
P0
 10
571.94235115068568
 20
-272.86135815983403
 30
0.0
 40
1171.710534085883
 50
130.38275077885791
 51
132.146380298389
  0
ARC
  5
17367C
 67
     1
  8
P0
 10
379.0009398199357
 20
-46.017637124377643
 30
0.0
 40
873.9111687750858
 50
128.26958355931899
 51
130.38275077885791
  0
ARC
  5
17367D
 67
     1
  8
P0
 10
353.70161814794369
 20
-13.948152130881789
 30
0.0
 40
833.06379989028505
 50
126.10522312806989
 51
128.2695835593251
  0
ARC
  5
17367E
 67
     1
  8
P0
 10
232.0164249956176
 20
152.8919496691372
 30
0.0
 40
626.56221200011976
 50
123.5437493007681
 51
126.10522312806989
  0
ARC
  5
17367F
 67
     1
  8
P0
 10
337.57148447145551
 20
-6.3200790275521959
 30
0.0
 40
817.58666243163725
 50
121.3014340448439
 51
123.5437493007673
  0
ARC
  5
173680
 67
     1
  8
P0
 10
240.72589538966099
 20
152.9539521544815
 30
0.0
 40
631.18042558969205
 50
118.6713469683319
 51
121.3014340448439
  0
ARC
  5
173681
 67
     1
  8
P0
 10
221.4143454246161
 20
188.2691353764734
 30
0.0
 40
590.92998300758791
 50
115.95314656258
 51
118.6713469683324
  0
ARC
  5
173682
 67
     1
  8
P0
 10
167.93682265378061
 20
298.14225336181943
 30
0.0
 40
468.73363487260059
 50
112.8332219304415
 51
115.95314656258
  0
ARC
  5
173683
 67
     1
  8
P0
 10
216.8523197467743
 20
181.96549716255149
 30
0.0
 40
594.78824421648289
 50
110.0636375590212
 51
112.8332219304435
  0
ARC
  5
173684
 67
     1
  8
P0
 10
182.30645407361951
 20
276.55247343532301
 30
0.0
 40
494.09011655000899
 50
106.95613615386711
 51
110.0636375590212
  0
ARC
  5
173685
 67
     1
  8
P0
 10
168.7048116327073
 20
321.16356317029818
 30
0.0
 40
447.45157021296689
 50
103.6906567513018
 51
106.9561361538637
  0
ARC
  5
173686
 67
     1
  8
P0
 10
155.4571115083065
 20
375.54635231365421
 30
0.0
 40
391.47845779640772
 50
100.1542012051199
 51
103.6906567513017
  0
ARC
  5
173687
 67
     1
  8
P0
 10
170.47311530864221
 20
291.70644651447492
 30
0.0
 40
476.65245720084408
 50
96.949342429125196
 51
100.15420120512169
  0
ARC
  5
173688
 67
     1
  8
P0
 10
166.61852606100891
 20
323.33068309105101
 30
0.0
 40
444.79417417555828
 50
93.602204760949775
 51
96.949342429125707
  0
ARC
  5
173689
 67
     1
  8
P0
 10
162.80210287749151
 20
383.95376692464322
 30
0.0
 40
384.05108091047629
 50
89.99999999999946
 51
93.60220476094733
  0
ARC
  5
17368A
 67
     1
  8
P0
 10
162.80210287749509
 20
383.95376692458439
 30
0.0
 40
384.05108091053512
 50
86.397795239051874
 51
90.0
  0
ARC
  5
17368B
 67
     1
  8
P0
 10
158.98567969397709
 20
323.33068309098343
 30
0.0
 40
444.79417417562593
 50
83.05065757087479
 51
86.397795239049515
  0
ARC
  5
17368C
 67
     1
  8
P0
 10
155.1310904464076
 20
291.70644651496309
 30
0.0
 40
476.65245720035239
 50
79.845798794875137
 51
83.05065757087479
  0
ARC
  5
17368D
 67
     1
  8
P0
 10
170.14709424677929
 20
375.5463523140462
 30
0.0
 40
391.47845779600419
 50
76.309343248698241
 51
79.845798794883947
  0
ARC
  5
17368E
 67
     1
  8
P0
 10
156.89939412221179
 20
321.163563170006
 30
0.0
 40
447.45157021326747
 50
73.043863846139473
 51
76.309343248698227
  0
ARC
  5
17368F
 67
     1
  8
P0
 10
143.29775168125701
 20
276.55247343501128
 30
0.0
 40
494.09011655034078
 50
69.936362440978741
 51
73.043863846131686
  0
ARC
  5
173690
 67
     1
  8
P0
 10
108.7518860078917
 20
181.9654971616645
 30
0.0
 40
594.78824421742729
 50
67.166778069561275
 51
69.936362440978726
  0
ARC
  5
173691
 67
     1
  8
P0
 10
157.66738310088411
 20
298.14225336115049
 30
0.0
 40
468.73363487334439
 50
64.046853437419983
 51
67.166778069554042
  0
ARC
  5
173692
 67
     1
  8
P0
 10
104.18986033144409
 20
188.26913537867171
 30
0.0
 40
590.92998300514284
 50
61.32865303165552
 51
64.046853437419983
  0
ARC
  5
173693
 67
     1
  8
P0
 10
84.878310366685128
 20
152.9539521567113
 30
0.0
 40
631.18042558708248
 50
58.698565955156063
 51
61.328653031678179
  0
ARC
  5
173694
 67
     1
  8
P0
 10
-11.967278715706691
 20
-6.32007902630437
 30
0.0
 40
817.58666243017683
 50
56.456250699229066
 51
58.698565955156063
  0
ARC
  5
173695
 67
     1
  8
P0
 10
93.587780760033866
 20
152.89194967004391
 30
0.0
 40
626.56221199899767
 50
53.894776871930112
 51
56.456250699237003
  0
ARC
  5
173696
 67
     1
  8
P0
 10
-28.097412395896072
 20
-13.94815213491642
 30
0.0
 40
833.06379989527875
 50
51.730416440686568
 51
53.894776871930112
  0
ARC
  5
173697
 67
     1
  8
P0
 10
-53.396734068339811
 20
-46.017637128368619
 30
0.0
 40
873.91116878032506
 50
49.617249221142039
 51
51.730416440667028
  0
ARC
  5
173698
 67
     1
  8
P0
 10
-246.3381453973648
 20
-272.86135816179723
 30
0.0
 40
1171.71053408846
 50
47.853619701614768
 51
49.61724922114206
  0
ARC
  5
173699
 67
     1
  8
P0
 10
-55.364381258769747
 20
-61.850137298879311
 30
0.0
 40
887.11131778714457
 50
45.826712024017638
 51
47.853619701608281
  0
ARC
  5
17369A
 67
     1
  8
P0
 10
-273.5891204279983
 20
-286.46498447153789
 30
0.0
 40
1200.2787911234959
 50
44.130225711220952
 51
45.82671202401761
  0
ARC
  5
17369B
 67
     1
  8
P0
 10
-309.86766609757018
 20
-321.65847096048202
 30
0.0
 40
1250.8229734509091
 50
42.468371735116563
 51
44.130225711210628
  0
ARC
  5
17369C
 67
     1
  8
P0
 10
-771.48011348631644
 20
-744.17980441760665
 30
0.0
 40
1876.6107400384431
 50
41.083670521973353
 51
42.468371735116563
  0
ARC
  5
17369D
 67
     1
  8
P0
 10
-6.8814266719018633
 20
-77.561508073570508
 30
0.0
 40
862.21875224528628
 50
39.040771617930702
 51
41.083670521998769
  0
ARC
  5
17369E
 67
     1
  8
P0
 10
409.62236751774611
 20
260.20763457509929
 30
0.0
 40
325.96936595194052
 50
38.156254983236018
 51
39.040771617930702
  0
ARC
  5
17369F
 67
     1
  8
P0
 10
-57644.2174300236
 20
-45351.931445552262
 30
0.0
 40
74154.930801851049
 50
38.097611456231583
 51
38.156254984028507
  0
ARC
  5
1736A0
 67
     1
  8
P0
 10
-391.03551987568579
 20
-463.55651570208101
 30
0.0
 40
1402.6590663286511
 50
36.916446968512737
 51
38.097611456231583
  0
ARC
  5
1736A1
 67
     1
  8
P0
 10
-3228.646069718498
 20
-2595.3687896871902
 30
0.0
 40
4951.836041923526
 50
36.287813061014319
 51
36.91644696852935
  0
TEXT
  5
1736A2
 67
     1
  8
P-0
 62
    90
 10
-405.77591567691059
 20
717.28834880383044
 30
0.0
 40
15.0
  1
Parabole coef 0.001202
  7
MONOTXT
  0
TEXT
  5
1736A3
 67
     1
  8
P-0
 62
    90
 10
-408.99156421957292
 20
285.0010984847907
 30
0.0
 40
15.0
  1
MODELISATION ?
  7
MONOTXT
  0
LINE
  5
1736A5
 67
     1
  8
0
  6
BYBLOCK
 62
     4
 10
158.80210287749421
 20
768.00484783511956
 30
0.0
 11
83.762213159127896
 21
768.00484783511956
 31
0.0
  0
LINE
  5
1736A6
 67
     1
  8
0
  6
BYBLOCK
 62
     4
 10
158.80210287749469
 20
608.00484783511945
 30
0.0
 11
83.762213159127896
 21
608.00484783511945
 31
0.0
  0
LINE
  5
1736A7
 67
     1
  8
0
  6
BYBLOCK
 62
     4
 10
87.762213159127896
 20
748.00484783511956
 30
0.0
 11
87.762213159127896
 21
719.77235142614177
 31
0.0
  0
LINE
  5
1736A8
 67
     1
  8
0
  6
BYBLOCK
 62
     4
 10
87.762213159127896
 20
628.00484783511945
 30
0.0
 11
87.762213159127896
 21
700.77235142614165
 31
0.0
  0
SOLID
  5
1736AA
 67
     1
  8
0
  6
BYBLOCK
 62
     4
 10
84.428879825794624
 20
748.00484783511956
 30
0.0
 11
91.095546492461153
 21
748.00484783511956
 31
0.0
 12
87.762213159127896
 22
768.00484783511956
 32
0.0
 13
87.762213159127896
 23
768.00484783511956
 33
0.0
  0
SOLID
  5
1736AB
 67
     1
  8
0
  6
BYBLOCK
 62
     4
 10
84.428879825794624
 20
628.00484783511945
 30
0.0
 11
91.095546492461153
 21
628.00484783511945
 31
0.0
 12
87.762213159127896
 22
608.00484783511945
 32
0.0
 13
87.762213159127896
 23
608.00484783511945
 33
0.0
  0
POINT
  5
1736AC
 67
     1
  8
DEFPOINTS
  6
BYBLOCK
 62
     0
 10
162.80210287749421
 20
768.00484783511956
 30
0.0
  0
POINT
  5
1736AD
 67
     1
  8
DEFPOINTS
  6
BYBLOCK
 62
     0
 10
162.80210287749469
 20
608.00484783511945
 30
0.0
  0
POINT
  5
1736AE
 67
     1
  8
DEFPOINTS
  6
BYBLOCK
 62
     0
 10
87.762213159127896
 20
608.00484783511945
 30
0.0
  0
LINE
  5
1736AF
 67
     1
  8
0
  6
BYBLOCK
 62
     4
 10
158.80210287749421
 20
768.00484783511956
 30
0.0
 11
10.20550499962701
 21
768.00484783511956
 31
0.0
  0
LINE
  5
1736B0
 67
     1
  8
0
  6
BYBLOCK
 62
     4
 10
158.80210287749469
 20
598.00484783511956
 30
0.0
 11
10.20550499962701
 21
598.00484783511956
 31
0.0
  0
LINE
  5
1736B1
 67
     1
  8
0
  6
BYBLOCK
 62
     4
 10
14.20550499962701
 20
748.00484783511956
 30
0.0
 11
14.20550499962701
 21
692.50484783511945
 31
0.0
  0
LINE
  5
1736B2
 67
     1
  8
0
  6
BYBLOCK
 62
     4
 10
14.20550499962701
 20
618.00484783511956
 30
0.0
 11
14.20550499962701
 21
673.50484783511945
 31
0.0
  0
SOLID
  5
1736B3
 67
     1
  8
0
  6
BYBLOCK
 62
     4
 10
10.872171666293751
 20
748.00484783511956
 30
0.0
 11
17.538838332960271
 21
748.00484783511956
 31
0.0
 12
14.20550499962701
 22
768.00484783511956
 32
0.0
 13
14.20550499962701
 23
768.00484783511956
 33
0.0
  0
SOLID
  5
1736B4
 67
     1
  8
0
  6
BYBLOCK
 62
     4
 10
10.872171666293751
 20
618.00484783511956
 30
0.0
 11
17.538838332960271
 21
618.00484783511956
 31
0.0
 12
14.20550499962701
 22
598.00484783511956
 32
0.0
 13
14.20550499962701
 23
598.00484783511956
 33
0.0
  0
POINT
  5
1736B6
 67
     1
  8
DEFPOINTS
  6
BYBLOCK
 62
     0
 10
162.80210287749421
 20
768.00484783511956
 30
0.0
  0
POINT
  5
1736B7
 67
     1
  8
DEFPOINTS
  6
BYBLOCK
 62
     0
 10
162.80210287749469
 20
598.00484783511956
 30
0.0
  0
POINT
  5
1736B8
 67
     1
  8
DEFPOINTS
  6
BYBLOCK
 62
     0
 10
14.20550499962701
 20
598.00484783511956
 30
0.0
  0
LINE
  5
1736B9
 67
     1
  8
0
  6
BYBLOCK
 62
     4
 10
166.80210287749421
 20
768.00484783511956
 30
0.0
 11
236.79231925020491
 21
768.00484783511956
 31
0.0
  0
LINE
  5
1736BA
 67
     1
  8
0
  6
BYBLOCK
 62
     4
 10
187.1006778760418
 20
439.02878282930459
 30
0.0
 11
236.79231925020491
 21
439.02878282930459
 31
0.0
  0
LINE
  5
1736BB
 67
     1
  8
0
  6
BYBLOCK
 62
     4
 10
232.79231925020491
 20
748.00484783511956
 30
0.0
 11
232.79231925020491
 21
613.01681533221188
 31
0.0
  0
LINE
  5
1736BC
 67
     1
  8
0
  6
BYBLOCK
 62
     4
 10
232.79231925020491
 20
459.02878282930459
 30
0.0
 11
232.79231925020491
 21
594.01681533221199
 31
0.0
  0
SOLID
  5
1736BD
 67
     1
  8
0
  6
BYBLOCK
 62
     4
 10
229.4589859168716
 20
748.00484783511956
 30
0.0
 11
236.12565258353811
 21
748.00484783511956
 31
0.0
 12
232.79231925020491
 22
768.00484783511956
 32
0.0
 13
232.79231925020491
 23
768.00484783511956
 33
0.0
  0
SOLID
  5
1736BE
 67
     1
  8
0
  6
BYBLOCK
 62
     4
 10
229.4589859168716
 20
459.02878282930459
 30
0.0
 11
236.12565258353811
 21
459.02878282930459
 31
0.0
 12
232.79231925020491
 22
439.02878282930459
 32
0.0
 13
232.79231925020491
 23
439.02878282930459
 33
0.0
  0
POINT
  5
1736C0
 67
     1
  8
DEFPOINTS
  6
BYBLOCK
 62
     0
 10
162.80210287749421
 20
768.00484783511956
 30
0.0
  0
POINT
  5
1736C1
 67
     1
  8
DEFPOINTS
  6
BYBLOCK
 62
     0
 10
183.1006778760418
 20
439.02878282930459
 30
0.0
  0
POINT
  5
1736C2
 67
     1
  8
DEFPOINTS
  6
BYBLOCK
 62
     0
 10
232.79231925020491
 20
439.02878282930459
 30
0.0
  0
LINE
  5
1736C3
 67
     1
  8
0
  6
BYBLOCK
 62
     4
 10
183.1006778760418
 20
435.02878282930459
 30
0.0
 11
183.1006778760418
 21
350.53579056100762
 31
0.0
  0
LINE
  5
1736C4
 67
     1
  8
0
  6
BYBLOCK
 62
     4
 10
142.50352787894781
 20
435.02878282930408
 30
0.0
 11
142.50352787894781
 21
350.53579056100762
 31
0.0
  0
LINE
  5
1736C5
 67
     1
  8
0
  6
BYBLOCK
 62
     4
 10
203.1006778760418
 20
354.53579056100762
 30
0.0
 11
223.1006778760418
 21
354.53579056100762
 31
0.0
  0
LINE
  5
1736C6
 67
     1
  8
0
  6
BYBLOCK
 62
     4
 10
122.50352787894781
 20
354.53579056100762
 30
0.0
 11
102.50352787894781
 21
354.53579056100762
 31
0.0
  0
LINE
  5
1736C8
 67
     1
  8
0
  6
BYBLOCK
 62
     4
 10
183.1006778760418
 20
354.53579056100762
 30
0.0
 11
142.50352787894781
 21
354.53579056100762
 31
0.0
  0
SOLID
  5
1736C9
 67
     1
  8
0
  6
BYBLOCK
 62
     4
 10
203.1006778760418
 20
357.86912389434099
 30
0.0
 11
203.1006778760418
 21
351.2024572276743
 31
0.0
 12
183.1006778760418
 22
354.53579056100762
 32
0.0
 13
183.1006778760418
 23
354.53579056100762
 33
0.0
  0
SOLID
  5
1736CA
 67
     1
  8
0
  6
BYBLOCK
 62
     4
 10
122.50352787894781
 20
357.86912389434099
 30
0.0
 11
122.50352787894781
 21
351.2024572276743
 31
0.0
 12
142.50352787894781
 22
354.53579056100762
 32
0.0
 13
142.50352787894781
 23
354.53579056100762
 33
0.0
  0
POINT
  5
1736CB
 67
     1
  8
DEFPOINTS
  6
BYBLOCK
 62
     0
 10
183.1006778760418
 20
439.02878282930459
 30
0.0
  0
POINT
  5
1736CC
 67
     1
  8
DEFPOINTS
  6
BYBLOCK
 62
     0
 10
142.50352787894781
 20
439.02878282930408
 30
0.0
  0
POINT
  5
1736CD
 67
     1
  8
DEFPOINTS
  6
BYBLOCK
 62
     0
 10
142.50352787894781
 20
354.53579056100762
 30
0.0
  0
TEXT
  5
1736CE
 67
     1
  8
P-0
 62
    90
 10
33.806446811671783
 20
384.86809895155989
 30
0.0
 40
15.0
  1
MOD ?
  7
MONOTXT
  0
LINE
  5
1736CF
 67
     1
  8
0
  6
BYBLOCK
 62
     4
 10
132.80210287749469
 20
473.83448283511751
 30
0.0
 11
132.80210287749469
 21
282.45728194369349
 31
0.0
  0
LINE
  5
1736D0
 67
     1
  8
0
  6
BYBLOCK
 62
     4
 10
192.80210287749469
 20
473.83448283511802
 30
0.0
 11
192.80210287749469
 21
282.45728194369349
 31
0.0
  0
LINE
  5
1736D1
 67
     1
  8
0
  6
BYBLOCK
 62
     4
 10
112.8021028774947
 20
286.45728194369349
 30
0.0
 11
92.802102877494676
 21
286.45728194369349
 31
0.0
  0
LINE
  5
1736D2
 67
     1
  8
0
  6
BYBLOCK
 62
     4
 10
212.80210287749469
 20
286.45728194369349
 30
0.0
 11
232.80210287749469
 21
286.45728194369349
 31
0.0
  0
SOLID
  5
1736D3
 67
     1
  8
0
  6
BYBLOCK
 62
     4
 10
112.8021028774947
 20
289.79061527702692
 30
0.0
 11
112.8021028774947
 21
283.12394861036012
 31
0.0
 12
132.80210287749469
 22
286.45728194369349
 32
0.0
 13
132.80210287749469
 23
286.45728194369349
 33
0.0
  0
SOLID
  5
1736D4
 67
     1
  8
0
  6
BYBLOCK
 62
     4
 10
212.80210287749469
 20
289.79061527702692
 30
0.0
 11
212.80210287749469
 21
283.12394861036012
 31
0.0
 12
192.80210287749469
 22
286.45728194369349
 32
0.0
 13
192.80210287749469
 23
286.45728194369349
 33
0.0
  0
POINT
  5
1736D6
 67
     1
  8
DEFPOINTS
  6
BYBLOCK
 62
     0
 10
132.80210287749469
 20
477.83448283511751
 30
0.0
  0
POINT
  5
1736D7
 67
     1
  8
DEFPOINTS
  6
BYBLOCK
 62
     0
 10
192.80210287749469
 20
477.83448283511802
 30
0.0
  0
POINT
  5
1736D8
 67
     1
  8
DEFPOINTS
  6
BYBLOCK
 62
     0
 10
192.80210287749469
 20
286.45728194369349
 30
0.0
  0
SOLID
  5
1736D9
 67
     1
  8
P-0
 62
     4
 10
137.4964632425156
 20
424.69947430171021
 30
0.0
 11
151.8415679208419
 21
439.02878282930408
 31
0.0
 12
142.9192176124557
 22
420.8215651372584
 32
0.0
 13
142.9192176124557
 23
420.8215651372584
 33
0.0
1001
ACAD
1000
DSTYLE
1002
{
1070
   140
1040
15.0
1070
    42
1040
4.0
1070
    44
1040
4.0
1070
    41
1040
20.0
1002
}
  0
LINE
  5
1736DB
 67
     1
  8
0
  6
BYBLOCK
 62
     4
 10
192.80210287749489
 20
473.83448283511888
 30
0.0
 11
192.80210287749489
 21
303.49566183457227
 31
0.0
  0
LINE
  5
1736DC
 67
     1
  8
0
  6
BYBLOCK
 62
     4
 10
276.80210287749469
 20
452.83448283511802
 30
0.0
 11
276.80210287749469
 21
303.49566183457227
 31
0.0
  0
LINE
  5
1736DD
 67
     1
  8
0
  6
BYBLOCK
 62
     4
 10
172.80210287749489
 20
307.49566183457227
 30
0.0
 11
152.80210287749489
 21
307.49566183457227
 31
0.0
  0
LINE
  5
1736DE
 67
     1
  8
0
  6
BYBLOCK
 62
     4
 10
296.80210287749469
 20
307.49566183457227
 30
0.0
 11
316.80210287749469
 21
307.49566183457227
 31
0.0
  0
SOLID
  5
1736DF
 67
     1
  8
0
  6
BYBLOCK
 62
     4
 10
172.80210287749489
 20
310.82899516790559
 30
0.0
 11
172.80210287749489
 21
304.1623285012389
 31
0.0
 12
192.80210287749489
 22
307.49566183457227
 32
0.0
 13
192.80210287749489
 23
307.49566183457227
 33
0.0
  0
SOLID
  5
1736E0
 67
     1
  8
0
  6
BYBLOCK
 62
     4
 10
296.80210287749469
 20
310.82899516790559
 30
0.0
 11
296.80210287749469
 21
304.1623285012389
 31
0.0
 12
276.80210287749469
 22
307.49566183457227
 32
0.0
 13
276.80210287749469
 23
307.49566183457227
 33
0.0
  0
POINT
  5
1736E2
 67
     1
  8
DEFPOINTS
  6
BYBLOCK
 62
     0
 10
192.80210287749489
 20
477.83448283511888
 30
0.0
  0
POINT
  5
1736E3
 67
     1
  8
DEFPOINTS
  6
BYBLOCK
 62
     0
 10
276.80210287749469
 20
456.83448283511802
 30
0.0
  0
POINT
  5
1736E4
 67
     1
  8
DEFPOINTS
  6
BYBLOCK
 62
     0
 10
276.80210287749469
 20
307.49566183457227
 30
0.0
  0
LINE
  5
173846
 67
     1
  8
0
  6
BYBLOCK
 62
     4
 10
516.80210287749469
 20
392.83448283511802
 30
0.0
 11
516.80210287749469
 21
258.38215804400897
 31
0.0
  0
LINE
  5
173847
 67
     1
  8
0
  6
BYBLOCK
 62
     4
 10
636.80210287749469
 20
362.83448283511791
 30
0.0
 11
636.80210287749469
 21
258.38215804400897
 31
0.0
  0
LINE
  5
173848
 67
     1
  8
0
  6
BYBLOCK
 62
     4
 10
536.80210287749458
 20
262.38215804400897
 30
0.0
 11
539.80210287749458
 21
262.38215804400897
 31
0.0
  0
LINE
  5
173849
 67
     1
  8
0
  6
BYBLOCK
 62
     4
 10
616.80210287749469
 20
262.38215804400897
 30
0.0
 11
613.80210287749469
 21
262.38215804400897
 31
0.0
  0
SOLID
  5
17384A
 67
     1
  8
0
  6
BYBLOCK
 62
     4
 10
536.80210287749458
 20
265.71549137734229
 30
0.0
 11
536.80210287749458
 21
259.0488247106756
 31
0.0
 12
516.80210287749469
 22
262.38215804400897
 32
0.0
 13
516.80210287749469
 23
262.38215804400897
 33
0.0
  0
SOLID
  5
17384B
 67
     1
  8
0
  6
BYBLOCK
 62
     4
 10
616.80210287749469
 20
265.71549137734229
 30
0.0
 11
616.80210287749469
 21
259.0488247106756
 31
0.0
 12
636.80210287749469
 22
262.38215804400897
 32
0.0
 13
636.80210287749469
 23
262.38215804400897
 33
0.0
  0
POINT
  5
17384D
 67
     1
  8
DEFPOINTS
  6
BYBLOCK
 62
     0
 10
516.80210287749469
 20
396.83448283511802
 30
0.0
  0
POINT
  5
17384E
 67
     1
  8
DEFPOINTS
  6
BYBLOCK
 62
     0
 10
636.80210287749469
 20
366.83448283511791
 30
0.0
  0
POINT
  5
17384F
 67
     1
  8
DEFPOINTS
  6
BYBLOCK
 62
     0
 10
636.80210287749469
 20
262.38215804400897
 30
0.0
  0
LINE
  5
173850
 67
     1
  8
0
  6
BYBLOCK
 62
     4
 10
396.80210287749469
 20
422.83448283511802
 30
0.0
 11
396.80210287749469
 21
298.98430936273422
 31
0.0
  0
LINE
  5
173851
 67
     1
  8
0
  6
BYBLOCK
 62
     4
 10
516.80210287749469
 20
392.83448283511802
 30
0.0
 11
516.80210287749469
 21
298.98430936273422
 31
0.0
  0
LINE
  5
173852
 67
     1
  8
0
  6
BYBLOCK
 62
     4
 10
416.80210287749469
 20
302.98430936273422
 30
0.0
 11
419.80210287749458
 21
302.98430936273422
 31
0.0
  0
LINE
  5
173853
 67
     1
  8
0
  6
BYBLOCK
 62
     4
 10
496.80210287749469
 20
302.98430936273422
 30
0.0
 11
493.80210287749458
 21
302.98430936273422
 31
0.0
  0
SOLID
  5
173854
 67
     1
  8
0
  6
BYBLOCK
 62
     4
 10
416.80210287749469
 20
306.31764269606759
 30
0.0
 11
416.80210287749469
 21
299.65097602940079
 31
0.0
 12
396.80210287749469
 22
302.98430936273422
 32
0.0
 13
396.80210287749469
 23
302.98430936273422
 33
0.0
  0
SOLID
  5
173855
 67
     1
  8
0
  6
BYBLOCK
 62
     4
 10
496.80210287749469
 20
306.31764269606759
 30
0.0
 11
496.80210287749469
 21
299.65097602940079
 31
0.0
 12
516.80210287749469
 22
302.98430936273422
 32
0.0
 13
516.80210287749469
 23
302.98430936273422
 33
0.0
  0
POINT
  5
173857
 67
     1
  8
DEFPOINTS
  6
BYBLOCK
 62
     0
 10
396.80210287749469
 20
426.83448283511802
 30
0.0
  0
POINT
  5
173858
 67
     1
  8
DEFPOINTS
  6
BYBLOCK
 62
     0
 10
516.80210287749469
 20
396.83448283511802
 30
0.0
  0
POINT
  5
173859
 67
     1
  8
DEFPOINTS
  6
BYBLOCK
 62
     0
 10
516.80210287749469
 20
302.98430936273422
 30
0.0
  0
ARC
  5
17385A
 67
     1
  8
P0
 10
13.291608315443231
 20
-124.4724703619993
 30
0.0
 40
1.0000000000003291
 50
267.650000750407
 51
329.99999998826007
  0
ARC
  5
17385B
 67
     1
  8
P0
 10
13.29160831544368
 20
-124.4724703619999
 30
0.0
 40
0.99999999999985
 50
29.999999988301571
 51
50.00000000000739
  0
ARC
  5
17385C
 67
     1
  8
P0
 10
13.291608315443231
 20
-124.4724703619997
 30
0.0
 40
1.0000000000000011
 50
49.99999999997906
 51
267.65000075040592
  0
ARC
  5
17385D
 67
     1
  8
P0
 10
13.291608315442319
 20
-124.4724703619997
 30
0.0
 40
0.9999999999997653
 50
230.0000000000357
 51
267.65000075045788
  0
LINE
  5
17385E
 67
     1
  8
FONDPLAN
 10
-584.4410928167315
 20
-216.60277112353381
 30
0.0
 11
-584.4410928167315
 21
826.60972887646619
 31
0.0
  0
LINE
  5
17385F
 67
     1
  8
FONDPLAN
 10
-584.4410928167315
 20
826.60972887646619
 30
0.0
 11
915.40890718326841
 21
826.60972887646619
 31
0.0
  0
LINE
  5
173860
 67
     1
  8
FONDPLAN
 10
915.40890718326841
 20
826.60972887646619
 30
0.0
 11
915.40890718326841
 21
-216.60277112353381
 31
0.0
  0
LINE
  5
173861
 67
     1
  8
FONDPLAN
 10
915.40890718326841
 20
-216.60277112353381
 30
0.0
 11
-584.4410928167315
 21
-216.60277112353381
 31
0.0
  0
LINE
  5
173862
 67
     1
  8
FONDPLAN
 10
-577.01609281673154
 20
-209.1777711235338
 30
0.0
 11
-577.01609281673154
 21
819.18472887646624
 31
0.0
  0
LINE
  5
173863
 67
     1
  8
FONDPLAN
 10
-577.01609281673154
 20
819.18472887646624
 30
0.0
 11
907.98390718326846
 21
819.18472887646624
 31
0.0
  0
LINE
  5
173864
 67
     1
  8
FONDPLAN
 10
907.98390718326846
 20
819.18472887646624
 30
0.0
 11
907.98390718326846
 21
-209.1777711235338
 31
0.0
  0
LINE
  5
173865
 67
     1
  8
FONDPLAN
 10
907.98390718326846
 20
-209.1777711235338
 30
0.0
 11
-577.01609281673154
 21
-209.1777711235338
 31
0.0
  0
TEXT
  5
173866
 67
     1
  8
P-0
 62
    90
 10
1827.1541881073031
 20
315.36468652502759
 30
0.0
 40
15.0
  1
CG radio 125 g (2x)119.3
  7
MONOTXT
  0
TEXT
  5
173867
 67
     1
  8
P-0
 62
    90
 10
1442.5702520528059
 20
185.52427114161131
 30
0.0
 40
15.0
  1
CG voile (150 g uniformes) 241.2
  7
MONOTXT
  0
TEXT
  5
173868
 67
     1
  8
P-0
 62
    90
 10
1727.6601195114961
 20
441.9357346746919
 30
0.0
 40
15.0
  1
30.0
  7
MONOTXT
  0
TEXT
  5
173869
 67
     1
  8
P-0
 62
    90
 10
2174.206408872908
 20
292.51468652502763
 30
0.0
 40
15.0
  1
CG moyen 165.0
  7
MONOTXT
  0
TEXT
  5
17386A
 67
     1
  8
P-0
 62
    90
 10
711.55591557175421
 20
218.0924313685145
 30
0.0
 40
15.0
  1
47.5
  7
MONOTXT
  0
TEXT
  5
17386B
 67
     1
  8
P-0
 62
    90
 10
2192.53231240485
 20
169.40734326251371
 30
0.0
 40
15.0
  1
76.2
  7
MONOTXT
  0
TEXT
  5
17386C
 67
     1
  8
P-0
 62
    90
 10
2166.3624195245079
 20
230.36468652502751
 30
0.0
 40
15.0
  1
45.7
  7
MONOTXT
  0
TEXT
  5
17386D
 67
     1
  8
P-0
 62
    90
 10
615.30210287749458
 20
209.06973340077641
 30
0.0
 40
15.0
  1
12.0
  7
MONOTXT
  0
TEXT
  5
17386E
 67
     1
  8
P-0
 62
    90
 10
301.80210287749469
 20
327.06376271372301
 30
0.0
 40
15.0
  1
120.0
  7
MONOTXT
  0
LINE
  5
17386F
 67
     1
  8
P-0
 62
     4
 10
-406.1825715690531
 20
320.72934102442122
 30
0.0
 11
-423.78437803630271
 21
292.5010984847907
 31
0.0
1001
ACAD
1000
DSTYLE
1002
{
1070
   140
1040
15.0
1070
    42
1040
4.0
1070
    44
1040
4.0
1070
    41
1040
20.0
1002
}
  0
LINE
  5
173870
 67
     1
  8
P-0
 62
     4
 10
-423.78437803630271
 20
292.5010984847907
 30
0.0
 11
-410.99156421957281
 21
292.5010984847907
 31
0.0
1001
ACAD
1000
DSTYLE
1002
{
1070
   140
1040
15.0
1070
    42
1040
4.0
1070
    44
1040
4.0
1070
    41
1040
20.0
1002
}
  0
TEXT
  5
173871
 67
     1
  8
P-0
 62
    90
 10
41.01758525001059
 20
347.6753183426631
 30
0.0
 40
15.0
  1
40.6
  7
MONOTXT
  0
TEXT
  5
173872
 67
     1
  8
P-0
 62
    90
 10
207.30210287749469
 20
299.99566183457227
 30
0.0
 40
15.0
  1
84.0
  7
MONOTXT
  0
TEXT
  5
173873
 67
     1
  8
P-0
 62
    90
 10
135.30210287749469
 20
278.95728194369349
 30
0.0
 40
15.0
  1
60.0
  7
MONOTXT
  0
LINE
  5
173874
 67
     1
  8
P-0
 62
     4
 10
140.20784042748571
 20
422.76051971948442
 30
0.0
 11
118.4736738056026
 21
392.36809895155989
 31
0.0
1001
ACAD
1000
DSTYLE
1002
{
1070
   140
1040
15.0
1070
    42
1040
4.0
1070
    44
1040
4.0
1070
    41
1040
20.0
1002
}
  0
LINE
  5
173875
 67
     1
  8
P-0
 62
     4
 10
118.4736738056026
 20
392.36809895155989
 30
0.0
 11
103.3064468116718
 21
392.36809895155989
 31
0.0
1001
ACAD
1000
DSTYLE
1002
{
1070
   140
1040
15.0
1070
    42
1040
4.0
1070
    44
1040
4.0
1070
    41
1040
20.0
1002
}
  0
TEXT
  5
173876
 67
     1
  8
P-0
 62
    90
 10
197.7923192502048
 20
596.01681533221188
 30
0.0
 40
15.0
  1
329.0
  7
MONOTXT
  0
TEXT
  5
173877
 67
     1
  8
P-0
 62
    90
 10
-95.79449500037299
 20
675.50484783511945
 30
0.0
 40
15.0
  1
Lim AR CG 170.0
  7
MONOTXT
  0
TEXT
  5
173878
 67
     1
  8
P-0
 62
    90
 10
-22.237786840872111
 20
702.77235142614165
 30
0.0
 40
15.0
  1
Lim AV CG 160.0
  7
MONOTXT
  0
LINE
  5
173879
 67
     1
  8
P-0
 62
     4
 10
-62.104869784407121
 20
706.74295286835513
 30
0.0
 11
-58.775915676910692
 21
724.78834880383044
 31
0.0
1001
ACAD
1000
DSTYLE
1002
{
1070
   140
1040
15.0
1070
    42
1040
4.0
1070
    44
1040
4.0
1070
    41
1040
20.0
1002
}
  0
LINE
  5
17387A
 67
     1
  8
P-0
 62
     4
 10
-58.775915676910692
 20
724.78834880383044
 30
0.0
 11
-78.775915676910685
 21
724.78834880383044
 31
0.0
1001
ACAD
1000
DSTYLE
1002
{
1070
   140
1040
15.0
1070
    42
1040
4.0
1070
    44
1040
4.0
1070
    41
1040
20.0
1002
}
  0
TEXT
  5
17387B
 67
     1
  8
P-0
 62
    90
 10
120.3021028774949
 20
789.62280448582896
 30
0.0
 40
15.0
  1
1200.0
  7
MONOTXT
  0
TEXT
  5
17387F
 67
     1
  8
P-0
 62
    90
 10
761.06282579982405
 20
544.16966533511857
 30
0.0
 40
15.0
  1
432.7
  7
MONOTXT
  0
TEXT
  5
173880
 67
     1
  8
P-0
 62
    90
 10
674.17564915324601
 20
615.41966533511845
 30
0.0
 40
15.0
  1
290.2
  7
MONOTXT
  0
TEXT
  5
173881
 67
     1
  8
P-0
 62
    90
 10
421.80210287749469
 20
295.48430936273422
 30
0.0
 40
15.0
  1
120.0
  7
MONOTXT
  0
TEXT
  5
173882
 67
     1
  8
P-0
 62
    90
 10
541.80210287749469
 20
254.882158044009
 30
0.0
 40
15.0
  1
120.0
  7
MONOTXT
  0
TEXT
  5
173883
 67
     1
  8
P-0
 62
    90
 10
793.83397642143007
 20
292.58598632104508
 30
0.0
 40
15.0
  1
40.0
  7
MONOTXT
  0
LINE
  5
173A83
 67
     1
  8
P0
 10
-433.03667468305838
 20
-124.47247035626781
 30
0.0
 11
-104.03667468305861
 21
-124.47247035626781
 31
0.0
  0
LINE
  5
173A84
 67
     1
  8
P0
 10
-374.24141368305851
 20
-135.76671135626739
 30
0.0
 11
-358.60108268305839
 21
-135.97069135626771
 31
0.0
  0
LINE
  5
173A85
 67
     1
  8
P0
 10
-348.56822768305852
 20
-97.576062356268267
 30
0.0
 11
-362.58823368305849
 21
-98.218599356267987
 31
0.0
  0
LINE
  5
173A86
 67
     1
  8
P0
 10
-403.84022768305829
 20
-134.31516335626739
 30
0.0
 11
-389.42213168305852
 21
-135.25182635626791
 31
0.0
  0
LINE
  5
173A87
 67
     1
  8
P0
 10
-389.83436868305853
 20
-101.9991383562683
 30
0.0
 11
-402.50119768305819
 21
-105.059496356268
 31
0.0
  0
LINE
  5
173A88
 67
     1
  8
P0
 10
-422.5379556830585
 20
-131.71902435626811
 30
0.0
 11
-415.22922068305837
 21
-133.13668535626761
 31
0.0
  0
LINE
  5
173A89
 67
     1
  8
P0
 10
-413.4624906830586
 20
-108.6965913562681
 30
0.0
 11
-420.97816668305848
 21
-112.1744503562677
 31
0.0
  0
LINE
  5
173A8A
 67
     1
  8
P0
 10
-426.95576768305841
 20
-130.52179335626801
 30
0.0
 11
-422.5379556830585
 21
-131.71902435626811
 31
0.0
  0
LINE
  5
173A8B
 67
     1
  8
P0
 10
-429.58513568305852
 20
-129.2278363562682
 30
0.0
 11
-426.95576768305841
 21
-130.52179335626801
 31
0.0
  0
LINE
  5
173A8C
 67
     1
  8
P0
 10
-431.23836068305849
 20
-127.86182835626821
 30
0.0
 11
-429.58513568305852
 21
-129.2278363562682
 31
0.0
  0
LINE
  5
173A8D
 67
     1
  8
P0
 10
-431.3269680634848
 20
-127.7518843636135
 30
0.0
 11
-431.23836068305849
 21
-127.86182835626821
 31
0.0
  0
LINE
  5
173A8E
 67
     1
  8
P0
 10
-432.81723168305848
 20
-122.9643343562675
 30
0.0
 11
-432.8708101512965
 21
-123.3325557931539
 31
0.0
  0
LINE
  5
173A8F
 67
     1
  8
P0
 10
-432.17831368305849
 20
-121.66675835626749
 30
0.0
 11
-432.81723168305848
 21
-122.9643343562675
 31
0.0
  0
LINE
  5
173A90
 67
     1
  8
P0
 10
-431.02220768305853
 20
-120.15467435626761
 30
0.0
 11
-432.17831368305849
 21
-121.66675835626749
 31
0.0
  0
LINE
  5
173A91
 67
     1
  8
P0
 10
-429.02057168305822
 20
-118.14678735626779
 30
0.0
 11
-431.02220768305853
 21
-120.15467435626761
 31
0.0
  0
LINE
  5
173A92
 67
     1
  8
P0
 10
-425.70260668305849
 20
-115.2742883562678
 30
0.0
 11
-429.02057168305822
 21
-118.14678735626779
 31
0.0
  0
LINE
  5
173A93
 67
     1
  8
P0
 10
-420.97816668305848
 20
-112.1744503562677
 30
0.0
 11
-425.70260668305849
 21
-115.2742883562678
 31
0.0
  0
POINT
  5
173A94
 67
     1
  8
DEFPOINTS
  6
BYBLOCK
 62
     0
 10
-433.03667468305838
 20
-124.47247035626781
 30
0.0
  0
ARC
  5
173A97
 67
     1
  8
P3
 10
-429.03667468305838
 20
-124.47247035626781
 30
0.0
 40
4.0
 50
235.0701314132024
 51
163.44242815222529
  0
LINE
  5
173A9A
 67
     1
  8
P0
 10
-415.22922068305837
 20
-133.13668535626761
 30
0.0
 11
-403.84022768305829
 21
-134.31516335626739
 31
0.0
  0
LINE
  5
173A9B
 67
     1
  8
P0
 10
-402.50119768305819
 20
-105.059496356268
 30
0.0
 11
-413.4624906830586
 21
-108.6965913562681
 31
0.0
  0
LINE
  5
173A9C
 67
     1
  8
P0
 10
-389.42213168305852
 20
-135.25182635626791
 30
0.0
 11
-374.24141368305851
 21
-135.76671135626739
 31
0.0
  0
LINE
  5
173A9D
 67
     1
  8
P0
 10
-376.2002796830584
 20
-99.676398356267782
 30
0.0
 11
-389.83436868305853
 21
-101.9991383562683
 31
0.0
  0
LINE
  5
173A9E
 67
     1
  8
P0
 10
-362.58823368305849
 20
-98.218599356267987
 30
0.0
 11
-376.2002796830584
 21
-99.676398356267782
 31
0.0
  0
LINE
  5
173A9F
 67
     1
  8
P0
 10
-358.60108268305839
 20
-135.97069135626771
 30
0.0
 11
-342.65083368305841
 21
-135.99832735626751
 31
0.0
  0
LINE
  5
173AA0
 67
     1
  8
P0
 10
-293.98975968305831
 20
-135.98812835626811
 30
0.0
 11
-277.72728968305842
 21
-135.9868123562683
 31
0.0
  0
LINE
  5
173AA1
 67
     1
  8
P0
 10
-272.38071068305862
 20
-100.9466673562674
 30
0.0
 11
-287.53905668305828
 21
-99.476037356267625
 31
0.0
  0
TEXT
  5
173AA2
 67
     1
  8
P0
 10
-349.34937875569312
 20
-117.4760446342552
 30
0.0
 40
10.270655747113009
  1
Clark YS
  0
LINE
  5
173AA3
 67
     1
  8
P0
 10
-326.48311568305849
 20
-135.9818773562674
 30
0.0
 11
-310.23841168305847
 21
-135.98450935626801
 31
0.0
  0
LINE
  5
173AA4
 67
     1
  8
P0
 10
-317.8925966830584
 20
-97.774778356268143
 30
0.0
 11
-333.51220068305838
 21
-97.500063356267674
 31
0.0
  0
LINE
  5
173AA5
 67
     1
  8
P0
 10
-333.51220068305838
 20
-97.500063356267674
 30
0.0
 11
-348.56822768305852
 21
-97.576062356268267
 31
0.0
  0
LINE
  5
173AA6
 67
     1
  8
P0
 10
-342.65083368305841
 20
-135.99832735626751
 30
0.0
 11
-326.48311568305849
 21
-135.9818773562674
 31
0.0
  0
LINE
  5
173AA7
 67
     1
  8
P0
 10
-310.23841168305847
 20
-135.98450935626801
 30
0.0
 11
-293.98975968305831
 21
-135.98812835626811
 31
0.0
  0
LINE
  5
173AA8
 67
     1
  8
P0
 10
-302.58356868305827
 20
-98.415999356268017
 30
0.0
 11
-317.8925966830584
 21
-97.774778356268143
 31
0.0
  0
LINE
  5
173AA9
 67
     1
  8
P0
 10
-287.53905668305828
 20
-99.476037356267625
 30
0.0
 11
-302.58356868305827
 21
-98.415999356268017
 31
0.0
  0
LINE
  5
173AAA
 67
     1
  8
P0
 10
-124.8590846830584
 20
-123.0913283562677
 30
0.0
 11
-139.68974668305819
 21
-121.56411035626751
 31
0.0
  0
LINE
  5
173AAB
 67
     1
  8
P0
 10
-140.8567096830584
 20
-131.40285535626751
 30
0.0
 11
-125.3762726830584
 21
-128.66886535626779
 31
0.0
  0
LINE
  5
173AAD
 67
     1
  8
P0
 10
-195.91683368305851
 20
-113.22264435626759
 30
0.0
 11
-210.94917268305829
 21
-110.18367135626789
 31
0.0
  0
LINE
  5
173AAE
 67
     1
  8
P0
 10
-212.93205568305851
 20
-135.96279535626761
 30
0.0
 11
-196.9903606830585
 21
-136.01576435626791
 31
0.0
  0
LINE
  5
173AAF
 67
     1
  8
P0
 10
-261.48192768305847
 20
-135.98977335626751
 30
0.0
 11
-245.31388068305839
 21
-135.993721356268
 31
0.0
  0
LINE
  5
173AB0
 67
     1
  8
P0
 10
-241.66987668305839
 20
-104.9522423562675
 30
0.0
 11
-257.04042768305862
 21
-102.787751356268
 31
0.0
  0
LINE
  5
173AB2
 67
     1
  8
PLATINE
  6
CACHE
 10
-254.00671086323089
 20
-127.4724702516569
 30
0.0
 11
-219.0067108607191
 21
-127.4724702752201
 31
0.0
  0
LINE
  5
173AB3
 67
     1
  8
PLATINE
  6
CACHE
 10
-254.00671086076929
 20
-121.4724702516569
 30
0.0
 11
-219.006710858258
 21
-121.4724702752373
 31
0.0
  0
LINE
  5
173AB5
 67
     1
  8
P0
 10
-277.72728968305842
 20
-135.9868123562683
 30
0.0
 11
-261.48192768305847
 21
-135.98977335626751
 31
0.0
  0
LINE
  5
173AB6
 67
     1
  8
P0
 10
-257.04042768305862
 20
-102.787751356268
 30
0.0
 11
-272.38071068305862
 21
-100.9466673562674
 31
0.0
  0
LINE
  5
173AB7
 67
     1
  8
PLATINE
 10
-265.94907680551518
 20
-121.4759591956162
 30
0.0
 11
-269.01325457799089
 21
-118.90480875686811
 31
0.0
  0
LINE
  5
173AB8
 67
     1
  8
PLATINE
 10
-268.12395330143858
 20
-120.95642841936289
 30
0.0
 11
-265.94907680551432
 21
-121.4759591956162
 31
0.0
  0
LINE
  5
173AB9
 67
     1
  8
PLATINE
  6
CACHE
 10
-269.01325457798998
 20
-118.904808756869
 30
0.0
 11
-255.65333953861361
 21
-102.98308201193871
 31
0.0
  0
LINE
  5
173ABA
 67
     1
  8
PLATINE
 10
-269.0132545779893
 20
-118.904808756869
 30
0.0
 11
-268.12395330143858
 21
-120.95642841936289
 31
0.0
  0
LINE
  5
173ABC
 67
     1
  8
PLATINE
  6
CACHE
 10
-254.00671086323089
 20
-121.4724702516569
 30
0.0
 11
-255.73876167079951
 21
-124.4724702516569
 31
0.0
  0
LINE
  5
173ABD
 67
     1
  8
PLATINE
  6
CACHE
 10
-254.00671086323089
 20
-127.4724702516569
 30
0.0
 11
-255.73876167079951
 21
-124.4724702516569
 31
0.0
  0
LINE
  5
173ABE
 67
     1
  8
PLATINE
  6
CACHE
 10
-254.00671086323089
 20
-127.4724702516569
 30
0.0
 11
-254.00671086040921
 21
-121.4724702516569
 31
0.0
  0
LINE
  5
173ABF
 67
     1
  8
PLATINE
  6
CACHE
 10
-265.94907680551518
 20
-121.4759591956162
 30
0.0
 11
-250.98350944339521
 21
-103.6406905265994
 31
0.0
  0
LINE
  5
173AC0
 67
     1
  8
P0
 10
-245.31388068305839
 20
-135.993721356268
 30
0.0
 11
-229.1362926830584
 21
-135.97792935626779
 31
0.0
  0
LINE
  5
173AC1
 67
     1
  8
P0
 10
-226.3049186830585
 20
-107.41382035626791
 30
0.0
 11
-241.66987668305839
 21
-104.9522423562675
 31
0.0
  0
LINE
  5
173AC2
 67
     1
  8
P0
 10
-229.1362926830584
 20
-135.97792935626779
 30
0.0
 11
-219.006710864204
 21
-135.96846880028809
 31
0.0
  0
LINE
  5
173AC3
 67
     1
  8
P0
 10
-219.0067108530306
 20
-108.730262309411
 30
0.0
 11
-226.3049186830585
 21
-107.41382035626791
 31
0.0
  0
LINE
  5
173AC4
 67
     1
  8
PLATINE
 10
-219.006710864204
 20
-135.96846880028809
 30
0.0
 11
-219.0067108530306
 21
-108.730262309411
 31
0.0
  0
LINE
  5
173AC5
 67
     1
  8
P0
 10
-167.7708836830584
 20
-118.5254663562682
 30
0.0
 11
-181.5770396830585
 21
-116.1671943562678
 31
0.0
  0
LINE
  5
173AC6
 67
     1
  8
P0
 10
-182.2324076830584
 20
-135.9233153562682
 30
0.0
 11
-168.53515068305839
 21
-135.22419035626811
 31
0.0
  0
LINE
  5
173AC7
 67
     1
  8
P0
 10
-181.5770396830585
 20
-116.1671943562678
 30
0.0
 11
-195.91683368305851
 21
-113.22264435626759
 31
0.0
  0
LINE
  5
173AC8
 67
     1
  8
P0
 10
-196.9903606830585
 20
-136.01576435626791
 30
0.0
 11
-182.2324076830584
 21
-135.9233153562682
 31
0.0
  0
LINE
  5
173AC9
 67
     1
  8
P0
 10
-139.68974668305819
 20
-121.56411035626751
 30
0.0
 11
-153.9838096830585
 21
-120.172111356268
 31
0.0
  0
LINE
  5
173ACA
 67
     1
  8
P0
 10
-155.0678646830583
 20
-133.66999435626801
 30
0.0
 11
-140.8567096830584
 21
-131.40285535626751
 31
0.0
  0
LINE
  5
173ACB
 67
     1
  8
P0
 10
-153.9838096830585
 20
-120.172111356268
 30
0.0
 11
-167.7708836830584
 21
-118.5254663562682
 31
0.0
  0
LINE
  5
173ACC
 67
     1
  8
P0
 10
-168.53515068305839
 20
-135.22419035626811
 30
0.0
 11
-155.0678646830583
 21
-133.66999435626801
 31
0.0
  0
LINE
  5
173ACD
 67
     1
  8
P0
 10
-114.0488026830585
 20
-123.93455535626801
 30
0.0
 11
-124.8590846830584
 21
-123.0913283562677
 31
0.0
  0
LINE
  5
173ACE
 67
     1
  8
P0
 10
-125.3762726830584
 20
-128.66886535626779
 30
0.0
 11
-114.0004396830586
 21
-126.5102963562676
 31
0.0
  0
LINE
  5
173ACF
 67
     1
  8
P0
 10
-107.3625356830584
 20
-124.2276943562683
 30
0.0
 11
-114.0488026830585
 21
-123.93455535626801
 31
0.0
  0
LINE
  5
173AD0
 67
     1
  8
P0
 10
-104.03667468305861
 20
-124.47247035626781
 30
0.0
 11
-107.3625356830584
 21
-124.2276943562683
 31
0.0
  0
LINE
  5
173AD1
 67
     1
  8
P0
 10
-107.30232868305851
 20
-125.1558033562678
 30
0.0
 11
-104.03667468305861
 21
-124.47247035626781
 31
0.0
  0
LINE
  5
173AD2
 67
     1
  8
P0
 10
-114.0004396830586
 20
-126.5102963562676
 30
0.0
 11
-107.30232868305851
 21
-125.1558033562678
 31
0.0
  0
POINT
  5
173AD4
 67
     1
  8
DEFPOINTS
  6
BYBLOCK
 62
     0
 10
-104.03667468305861
 20
-124.47247035626781
 30
0.0
  0
LINE
  5
173AD6
 67
     1
  8
0
  6
BYBLOCK
 62
     4
 10
-104.03667468305861
 20
-125.97247035626791
 30
0.0
 11
-104.03667468305861
 21
-147.2020185950359
 31
0.0
  0
DIMENSION
  5
173AE6
 67
     1
  8
P-0
  2
*D11
 10
-144.03667468305861
 20
-177.57207839775401
 30
0.0
 11
-227.46524611163011
 21
-177.57207839775401
 31
0.0
 70
   128
  1
Elevons <>
 13
-104.03667468305861
 23
-124.47247035626781
 33
0.0
 14
-144.03667468305861
 24
-124.47247035626781
 34
0.0
1001
ACAD
1000
DSTYLE
1002
{
1070
   287
1070
     3
1070
    42
1040
4.0
1070
    44
1040
4.0
1070
   140
1040
15.0
1070
   272
1070
     4
1070
   279
1070
     0
1070
   340
1005
172411
1002
}
  0
DIMENSION
  5
173B00
 67
     1
  8
P-0
  2
*D12
 10
-104.03667468305861
 20
-151.62772753599799
 30
0.0
 11
-268.53667468305849
 21
-151.62772753599799
 31
0.0
 70
     0
 13
-433.03667468305838
 23
-124.47247035626781
 33
0.0
 14
-104.03667468305861
 24
-124.47247035626781
 34
0.0
1001
ACAD
1000
DSTYLE
1002
{
1070
   287
1070
     3
1070
    42
1040
4.0
1070
    44
1040
4.0
1070
   140
1040
15.0
1070
   272
1070
     4
1070
   279
1070
     0
1070
   340
1005
172411
1002
}
  0
DIMENSION
  5
173B3E
 67
     1
  8
P-0
  2
*D13
 10
-251.3280989419215
 20
-65.544725224467584
 30
0.0
 11
-342.18238681248999
 21
-65.544725224467584
 31
0.0
 70
     0
 13
-433.03667468305838
 23
-128.47247035626779
 33
0.0
 14
-251.3280989419215
 24
-98.211568526454371
 34
0.0
1001
ACAD
1000
DSTYLE
1002
{
1070
   287
1070
     3
1070
    42
1040
4.0
1070
    44
1040
4.0
1070
   140
1040
15.0
1070
   272
1070
     4
1070
   279
1070
     0
1070
   340
1005
172411
1002
}
  0
DIMENSION
  5
173B4C
 67
     1
  8
P-0
  2
*D14
 10
-75.251330391675765
 20
123.2420965754654
 30
0.0
 11
-163.2897146667986
 21
123.2420965754654
 31
0.0
 70
     0
 13
-251.3280989419215
 23
-98.211568526454371
 33
0.0
 14
-75.251330391675765
 24
111.6285529656807
 34
0.0
1001
ACAD
1000
DSTYLE
1002
{
1070
   287
1070
     3
1070
    42
1040
4.0
1070
    44
1040
4.0
1070
   140
1040
15.0
1070
   272
1070
     4
1070
   279
1070
     0
1070
   340
1005
172411
1002
}
  0
DIMENSION
  5
173B5A
 67
     1
  8
P-0
  2
*D15
 10
8.3576540575654832
 20
123.2420965754654
 30
0.0
 11
-33.446838167055141
 21
123.2420965754654
 31
0.0
 70
     0
 13
-75.251330391675765
 23
111.6285529656807
 33
0.0
 14
8.3576540575654672
 24
-97.717395768659117
 34
0.0
1001
ACAD
1000
DSTYLE
1002
{
1070
   287
1070
     3
1070
    42
1040
4.0
1070
    44
1040
4.0
1070
   140
1040
15.0
1070
   272
1070
     4
1070
   279
1070
     0
1070
   340
1005
172411
1002
}
  0
DIMENSION
  5
173B76
 67
     1
  8
P-0
  2
*D16
 10
-230.9472514510683
 20
-98.211568526454371
 30
0.0
 11
-230.94725145106821
 21
6.7084922196131478
 31
0.0
 70
     0
 13
-75.251330391675765
 23
111.6285529656807
 33
0.0
 14
-251.3280989419215
 24
-98.211568526454371
 34
0.0
 50
90.0
1001
ACAD
1000
DSTYLE
1002
{
1070
   287
1070
     3
1070
    42
1040
4.0
1070
    44
1040
4.0
1070
   140
1040
15.0
1070
   272
1070
     4
1070
   279
1070
     0
1070
   340
1005
172411
1002
}
  0
TEXT
  5
173B77
 67
     1
  8
P-0
 10
-153.36175815124531
 20
-41.39615154845751
 30
0.0
 40
7.687389352725404
  1
DERIVE 2.72 dm^ 2
  7
MONOTXT
  0
DIMENSION
  5
173B86
 67
     1
  8
P-0
  2
*D17
 10
74.29431484461719
 20
-124.472470356268
 30
0.0
 11
39.437171987474358
 21
-150.9464535516517
 31
0.0
 70
   128
 13
-251.3280989419215
 23
-98.211568526454371
 33
0.0
 14
-433.03667468305838
 24
-124.47247035626781
 34
0.0
 50
90.0
1001
ACAD
1000
DSTYLE
1002
{
1070
   287
1070
     3
1070
    42
1040
4.0
1070
    44
1040
4.0
1070
   140
1040
15.0
1070
   272
1070
     4
1070
   279
1070
     0
1070
   340
1005
172411
1002
}
  0
ENDSEC
  0
EOF
