  0
SECTION
  2
HEADER
  9
$ACADVER
  1
AC1009
  9
$INSBASE
 10
0.0
 20
0.0
 30
0.0
  9
$EXTMIN
 10
-0.7897475846184534
 20
-0.1541245708558563
 30
-0.0015258207003583
  9
$EXTMAX
 10
303.28624152370321
 20
211.01264236838509
 30
0.0000000349246037
  9
$LIMMIN
 10
0.0
 20
0.0
  9
$LIMMAX
 10
841.0
 20
594.0
  9
$ORTHOMODE
 70
     0
  9
$REGENMODE
 70
     1
  9
$FILLMODE
 70
     1
  9
$QTEXTMODE
 70
     0
  9
$MIRRTEXT
 70
     0
  9
$DRAGMODE
 70
     2
  9
$LTSCALE
 40
3.0
  9
$OSMODE
 70
     1
  9
$ATTMODE
 70
     1
  9
$TEXTSIZE
 40
3.5244584317147201
  9
$TRACEWID
 40
1.0
  9
$TEXTSTYLE
  7
ZSYS
  9
$CLAYER
  8
CHARIOT
  9
$CELTYPE
  6
BYLAYER
  9
$CECOLOR
 62
   256
  9
$DIMSCALE
 40
1.0
  9
$DIMASZ
 40
3.0
  9
$DIMEXO
 40
1.5
  9
$DIMDLI
 40
6.0
  9
$DIMRND
 40
0.0
  9
$DIMDLE
 40
0.0
  9
$DIMEXE
 40
1.8
  9
$DIMTP
 40
0.1
  9
$DIMTM
 40
0.1
  9
$DIMTXT
 40
4.0
  9
$DIMCEN
 40
0.5
  9
$DIMTSZ
 40
0.0
  9
$DIMTOL
 70
     0
  9
$DIMLIM
 70
     0
  9
$DIMTIH
 70
     1
  9
$DIMTOH
 70
     1
  9
$DIMSE1
 70
     0
  9
$DIMSE2
 70
     0
  9
$DIMTAD
 70
     1
  9
$DIMZIN
 70
     0
  9
$DIMBLK
  1

  9
$DIMASO
 70
     1
  9
$DIMSHO
 70
     1
  9
$DIMPOST
  1

  9
$DIMAPOST
  1

  9
$DIMALT
 70
     0
  9
$DIMALTD
 70
     2
  9
$DIMALTF
 40
25.399999999999999
  9
$DIMLFAC
 40
1.0
  9
$DIMTOFL
 70
     0
  9
$DIMTVP
 40
0.0
  9
$DIMTIX
 70
     0
  9
$DIMSOXD
 70
     0
  9
$DIMSAH
 70
     0
  9
$DIMBLK1
  1

  9
$DIMBLK2
  1

  9
$DIMSTYLE
  2
STANDART2TOL
  9
$DIMCLRD
 70
     4
  9
$DIMCLRE
 70
     4
  9
$DIMCLRT
 70
    90
  9
$DIMTFAC
 40
0.5
  9
$DIMGAP
 40
2.0
  9
$LUNITS
 70
     2
  9
$LUPREC
 70
     1
  9
$SKETCHINC
 40
0.1
  9
$FILLETRAD
 40
5.0
  9
$AUNITS
 70
     0
  9
$AUPREC
 70
     0
  9
$MENU
  1
acad
  9
$ELEVATION
 40
0.0
  9
$PELEVATION
 40
0.0
  9
$THICKNESS
 40
0.0
  9
$LIMCHECK
 70
     0
  9
$BLIPMODE
 70
     0
  9
$CHAMFERA
 40
0.0
  9
$CHAMFERB
 40
0.0
  9
$SKPOLY
 70
     0
  9
$TDCREATE
 40
2451816.432250232
  9
$TDUPDATE
 40
2454537.8630535649
  9
$TDINDWG
 40
0.0016948843
  9
$TDUSRTIMER
 40
0.0016948843
  9
$USRTIMER
 70
     1
  9
$ANGBASE
 50
0.0
  9
$ANGDIR
 70
     0
  9
$PDMODE
 70
    35
  9
$PDSIZE
 40
3.0
  9
$PLINEWID
 40
0.0
  9
$COORDS
 70
     1
  9
$SPLFRAME
 70
     0
  9
$SPLINETYPE
 70
     6
  9
$SPLINESEGS
 70
     8
  9
$ATTDIA
 70
     0
  9
$ATTREQ
 70
     1
  9
$HANDLING
 70
     1
  9
$HANDSEED
  5
180080
  9
$SURFTAB1
 70
     6
  9
$SURFTAB2
 70
     6
  9
$SURFTYPE
 70
     6
  9
$SURFU
 70
     6
  9
$SURFV
 70
     6
  9
$UCSNAME
  2

  9
$UCSORG
 10
0.0
 20
0.0
 30
0.0
  9
$UCSXDIR
 10
1.0
 20
0.0
 30
0.0
  9
$UCSYDIR
 10
0.0
 20
1.0
 30
0.0
  9
$PUCSNAME
  2

  9
$PUCSORG
 10
0.0
 20
0.0
 30
0.0
  9
$PUCSXDIR
 10
1.0
 20
0.0
 30
0.0
  9
$PUCSYDIR
 10
0.0
 20
1.0
 30
0.0
  9
$USERI1
 70
     0
  9
$USERI2
 70
     0
  9
$USERI3
 70
     0
  9
$USERI4
 70
     0
  9
$USERI5
 70
     0
  9
$USERR1
 40
0.0
  9
$USERR2
 40
0.0
  9
$USERR3
 40
0.0
  9
$USERR4
 40
0.0
  9
$USERR5
 40
0.0
  9
$WORLDVIEW
 70
     0
  9
$SHADEDGE
 70
     3
  9
$SHADEDIF
 70
    70
  9
$TILEMODE
 70
     1
  9
$MAXACTVP
 70
    16
  9
$PLIMCHECK
 70
     0
  9
$PEXTMIN
 10
659.97746324043737
 20
3652.8137216374139
 30
0.0
  9
$PEXTMAX
 10
1263.8995557530311
 20
4046.00093035996
 30
0.0
  9
$PLIMMIN
 10
653.12248772819032
 20
3643.716864825255
  9
$PLIMMAX
 10
1292.434901675274
 20
4095.811182176375
  9
$UNITMODE
 70
     0
  9
$VISRETAIN
 70
     0
  9
$PLINEGEN
 70
     0
  9
$PSLTSCALE
 70
     0
  0
ENDSEC
  0
SECTION
  2
TABLES
  0
TABLE
  2
VPORT
 70
     1
  0
VPORT
  2
*ACTIVE
 70
     0
 10
0.0
 20
0.0
 11
1.0
 21
1.0
 12
-1532.3571860487459
 22
-1671.829213706874
 13
0.0
 23
0.0
 14
1.0
 24
1.0
 15
5.0
 25
5.0
 16
0.0
 26
0.0
 36
1.0
 17
1683.6054330182881
 27
1777.2584726056391
 37
801.01970501743915
 40
212.81222226604041
 41
1.657997399219765
 42
50.0
 43
583.20903572754412
 44
583.20903572754412
 50
0.0
 51
0.0
 71
     0
 72
   100
 73
     1
 74
     1
 75
     0
 76
     0
 77
     0
 78
     0
  0
ENDTAB
  0
TABLE
  2
LTYPE
 70
    21
  0
LTYPE
  2
CONTINUOUS
 70
     0
  3
Solid line
 72
    65
 73
     0
 40
0.0
  0
LTYPE
  2
CACHE
 70
     0
  3
__ __ __ __ __ __ __ __ __ __ __ __ __ __ __ __
 72
    65
 73
     2
 40
0.375
 49
0.25
 49
-0.125
  0
LTYPE
  2
AXESX2
 70
     0
  3
________  __  ________  __  ________  __  _____
 72
    65
 73
     4
 40
4.0
 49
2.5
 49
-0.5
 49
0.5
 49
-0.5
  0
LTYPE
  2
AXES_MOYEN
 70
     0
  3
axe
 72
    65
 73
     4
 40
1.125
 49
0.75
 49
-0.125
 49
0.125
 49
-0.125
  0
LTYPE
  2
CACHE_PETIT
 70
     0
  3
cache
 72
    65
 73
     2
 40
0.1875
 49
0.125
 49
-0.0625
  0
LTYPE
  2
AXES_GRAND
 70
     0
  3
axe
 72
    65
 73
     4
 40
2.0
 49
1.25
 49
-0.25
 49
0.25
 49
-0.25
  0
LTYPE
  2
POINTILLE_MOYEN
 70
     0
  3
pointille
 72
    65
 73
     2
 40
0.25
 49
0.0
 49
-0.25
  0
LTYPE
  2
POINTILLE_PETIT
 70
     0
  3
pointille
 72
    65
 73
     2
 40
0.125
 49
0.0
 49
-0.125
  0
LTYPE
  2
CACHE_MOYEN
 70
     0
  3
cache
 72
    65
 73
     2
 40
0.375
 49
0.25
 49
-0.125
  0
LTYPE
  2
AXES_PETIT
 70
     0
  3
axe
 72
    65
 73
     4
 40
0.5
 49
0.3
 49
-0.1
 49
0.0
 49
-0.1
  0
LTYPE
  2
BORDURE_PETIT
 70
     0
  3
bord
 72
    65
 73
     6
 40
0.875
 49
0.25
 49
-0.125
 49
0.25
 49
-0.125
 49
0.0
 49
-0.125
  0
LTYPE
  2
BORDURE_GRAND
 70
     0
  3
bord
 72
    65
 73
     6
 40
3.5
 49
1.0
 49
-0.5
 49
1.0
 49
-0.5
 49
0.0
 49
-0.5
  0
LTYPE
  2
DIVISE_MOYEN
 70
     0
  3
divise
 72
    65
 73
     6
 40
1.25
 49
0.5
 49
-0.25
 49
0.0
 49
-0.25
 49
0.0
 49
-0.25
  0
LTYPE
  2
DIVISE_PETIT
 70
     0
  3
divise
 72
    65
 73
     6
 40
0.625
 49
0.25
 49
-0.125
 49
0.0
 49
-0.125
 49
0.0
 49
-0.125
  0
LTYPE
  2
DIVISE_GRAND
 70
     0
  3
divise
 72
    65
 73
     6
 40
2.5
 49
1.0
 49
-0.5
 49
0.0
 49
-0.5
 49
0.0
 49
-0.5
  0
LTYPE
  2
POINTILLE_GRAND
 70
     0
  3
pointille
 72
    65
 73
     2
 40
0.5
 49
0.0
 49
-0.5
  0
LTYPE
  2
CACHE_GRAND
 70
     0
  3
cache
 72
    65
 73
     2
 40
0.75
 49
0.5
 49
-0.25
  0
LTYPE
  2
FANTOME_GRAND
 70
     0
  3
fantome
 72
    65
 73
     6
 40
2.5
 49
1.25
 49
-0.25
 49
0.25
 49
-0.25
 49
0.25
 49
-0.25
  0
LTYPE
  2
FANTOME_PETIT
 70
     0
  3
fantome
 72
    65
 73
     6
 40
1.25
 49
0.625
 49
-0.125
 49
0.125
 49
-0.125
 49
0.125
 49
-0.125
  0
LTYPE
  2
FANTOME_MOYEN
 70
     0
  3
fantome
 72
    65
 73
     6
 40
5.0
 49
2.5
 49
-0.5
 49
0.5
 49
-0.5
 49
0.5
 49
-0.5
  0
LTYPE
  2
BORDURE_MOYEN
 70
     0
  3
bord
 72
    65
 73
     6
 40
1.75
 49
0.5
 49
-0.25
 49
0.5
 49
-0.25
 49
0.0
 49
-0.25
  0
ENDTAB
  0
TABLE
  2
LAYER
 70
    16
  0
LAYER
  2
0
 70
     0
 62
    12
  6
CONTINUOUS
  0
LAYER
  2
COTATION
 70
     0
 62
    90
  6
CONTINUOUS
  0
LAYER
  2
P1
 70
     0
 62
     1
  6
CONTINUOUS
  0
LAYER
  2
TEXTE
 70
     0
 62
     1
  6
CONTINUOUS
  0
LAYER
  2
RADIO
 70
     0
 62
     2
  6
CONTINUOUS
  0
LAYER
  2
P2
 70
     0
 62
     6
  6
CONTINUOUS
  0
LAYER
  2
P0
 70
     0
 62
     1
  6
CONTINUOUS
  0
LAYER
  2
PLATINE
 70
     0
 62
     6
  6
CONTINUOUS
  0
LAYER
  2
FUSELAGE_186
 70
     0
 62
     5
  6
CONTINUOUS
  0
LAYER
  2
ASHADE
 70
     0
 62
     7
  6
CONTINUOUS
  0
LAYER
  2
AME_FRZ
 70
     0
 62
     7
  6
CONTINUOUS
  0
LAYER
  2
DEFPOINTS
 70
     0
 62
     7
  6
CONTINUOUS
  0
LAYER
  2
P3
 70
     0
 62
     3
  6
CONTINUOUS
  0
LAYER
  2
CHARIOT
 70
     0
 62
     1
  6
CONTINUOUS
  0
LAYER
  2
P4
 70
     0
 62
     1
  6
CONTINUOUS
  0
LAYER
  2
FONDPLAN
 70
     0
 62
     7
  6
CONTINUOUS
  0
ENDTAB
  0
TABLE
  2
STYLE
 70
     4
  0
STYLE
  2
STANDARD
 70
     0
 40
0.0
 41
1.0
 50
0.0
 71
     0
 42
22.579138509910312
  3
ROMANS.SHX
  4

  0
STYLE
  2
MONOTXT
 70
     0
 40
0.0
 41
1.0
 50
0.0
 71
     0
 42
3.5244584317147201
  3
monotxt
  4

  0
STYLE
  2
ZSYS
 70
     0
 40
5.0
 41
1.0
 50
0.0
 71
     0
 42
3.5244584317147201
  3
txt
  4

  0
STYLE
  2
COMIC
 70
     0
 40
0.0
 41
1.0
 50
0.0
 71
     0
 42
5.0
  3
txt
  4

  0
ENDTAB
  0
TABLE
  2
VIEW
 70
     3
  0
VIEW
  2
VUE3D1
 70
     0
 40
1081.442750970381
 10
-211.95136047047779
 20
-125.58296972333611
 41
1012.542070430394
 11
0.0
 21
0.0
 31
1.0
 12
720.26380741363482
 22
1570.227247514084
 32
958.53326684328943
 42
50.0
 43
0.0
 44
0.0
 50
0.0
 71
     0
  0
ENDTAB
  0
TABLE
  2
UCS
 70
     0
  0
ENDTAB
  0
TABLE
  2
APPID
 70
     4
  0
APPID
  2
ACAD
 70
     0
  0
APPID
  2
AVE_RENDER
 70
     0
  0
APPID
  2
AME_SOL
 70
     0
  0
APPID
  2
ACAD_PSEXT
 70
     0
  0
ENDTAB
  0
TABLE
  2
DIMSTYLE
 70
     4
  0
DIMSTYLE
  2
STANDARD
 70
     0
  3

  4

  5

  6

  7

 40
1.0
 41
3.0
 42
1.5
 43
6.0
 44
1.8
 45
0.0
 46
0.0
 47
0.0
 48
0.0
140
4.0
141
0.5
142
0.0
143
25.399999999999999
144
1.0
145
0.0
146
0.5
147
2.0
 71
     0
 72
     0
 73
     0
 74
     0
 75
     0
 76
     0
 77
     0
 78
     0
170
     0
171
     2
172
     0
173
     0
174
     0
175
     0
176
     4
177
     4
178
    90
  0
DIMSTYLE
  2
STANDART2TOL
 70
     0
  3

  4

  5

  6

  7

 40
1.0
 41
3.0
 42
1.5
 43
6.0
 44
1.8
 45
0.0
 46
0.0
 47
0.1
 48
0.1
140
4.0
141
0.5
142
0.0
143
25.399999999999999
144
1.0
145
0.0
146
0.5
147
2.0
 71
     1
 72
     0
 73
     0
 74
     0
 75
     0
 76
     0
 77
     0
 78
     0
170
     0
171
     2
172
     0
173
     0
174
     0
175
     0
176
     4
177
     4
178
    90
  0
DIMSTYLE
  2
COTE1000
 70
     0
  3

  4

  5

  6

  7

 40
1.0
 41
15.0
 42
5.0
 43
5.0
 44
5.0
 45
0.0
 46
0.0
 47
0.0
 48
0.0
140
15.0
141
5.0
142
0.0
143
25.399999999999999
144
1.0
145
0.0
146
0.4
147
5.0
 71
     0
 72
     0
 73
     0
 74
     1
 75
     0
 76
     0
 77
     1
 78
     0
170
     0
171
     2
172
     0
173
     0
174
     0
175
     0
176
     4
177
     4
178
    90
  0
DIMSTYLE
  2
COTE100
 70
     0
  3

  4

  5

  6

  7

 40
1.0
 41
5.0
 42
1.0
 43
2.0
 44
1.0
 45
0.0
 46
0.0
 47
0.0
 48
0.0
140
5.0
141
0.5
142
0.0
143
25.399999999999999
144
1.0
145
0.0
146
0.4
147
1.0
 71
     0
 72
     0
 73
     0
 74
     1
 75
     0
 76
     0
 77
     1
 78
     0
170
     0
171
     2
172
     0
173
     0
174
     0
175
     0
176
     4
177
     4
178
    90
  0
ENDTAB
  0
ENDSEC
  0
SECTION
  2
BLOCKS
  0
BLOCK
  8
0
  2
$MODEL_SPACE
 70
     0
 10
0.0
 20
0.0
 30
0.0
  3
$MODEL_SPACE
  1

  0
ENDBLK
  5
17FB04
  8
0
  0
BLOCK
 67
     1
  8
0
  2
$PAPER_SPACE
 70
     0
 10
0.0
 20
0.0
 30
0.0
  3
$PAPER_SPACE
  1

  0
ENDBLK
  5
17FB02
 67
     1
  8
0
  0
BLOCK
  8
0
  2
SEMAFOR
 70
     0
 10
0.0
 20
0.0
 30
0.0
  3
SEMAFOR
  1

  0
ENDBLK
  5
798
  8
0
  0
BLOCK
  8
0
  2
ACAD
 70
     0
 10
0.0
 20
0.0
 30
0.0
  3
ACAD
  1

  0
ENDBLK
  5
102D
  8
0
  0
BLOCK
  8
0
  2
AVE_RENDER
 70
     0
 10
0.0
 20
0.0
 30
0.0
  3
AVE_RENDER
  1
AVE_RENDER
  0
ENDBLK
  5
2E05
  8
0
  0
BLOCK
  8
0
  2
AME_NIL
 70
     0
 10
0.0
 20
0.0
 30
0.0
  3
AME_NIL
  1
AME_NIL
  0
ENDBLK
  5
335F
  8
0
  0
BLOCK
  8
0
  2
AME_SOL
 70
     0
 10
0.0
 20
0.0
 30
0.0
  3
AME_SOL
  1
AME_SOL
  0
ENDBLK
  5
3362
  8
0
  0
BLOCK
  8
0
  2
CARTMOD
 70
     0
 10
0.0
 20
0.0
 30
0.0
  3
CARTMOD
  1

  0
TEXT
  5
17825A
  8
P1
 10
608.91590537536365
 20
50.867562489498653
 30
0.0
 40
5.0
  1
%%A
  0
INSERT
  5
17825B
  8
0
  2
SEMAFOR
 10
0.0
 20
0.0
 30
0.0
  0
TEXT
  5
17825C
  8
P1
 10
608.91590537536365
 20
50.867562489498653
 30
0.0
 40
5.0
  1
%%A
  0
INSERT
  5
17825D
  8
0
  2
SEMAFOR
 10
0.0
 20
0.0
 30
0.0
  0
TEXT
  5
17825E
  8
P1
 10
608.91590537536365
 20
50.867562489498653
 30
0.0
 40
5.0
  1
%%A
  0
INSERT
  5
17825F
  8
0
  2
SEMAFOR
 10
0.0
 20
0.0
 30
0.0
  0
TEXT
  5
178260
  8
TEXTE
 10
608.91590537536365
 20
50.867562489498653
 30
0.0
 40
5.0
  1
%%A
  0
INSERT
  5
178261
  8
0
  2
SEMAFOR
 10
0.0
 20
0.0
 30
0.0
  0
TEXT
  5
178262
  8
TEXTE
 10
608.91590537536365
 20
50.867562489498653
 30
0.0
 40
5.0
  1
%%A
  0
INSERT
  5
178263
  8
0
  2
SEMAFOR
 10
0.0
 20
0.0
 30
0.0
  0
TEXT
  5
178264
  8
TEXTE
 10
608.91590537536365
 20
50.867562489498653
 30
0.0
 40
5.0
  1
%%A
  0
INSERT
  5
178265
  8
0
  2
SEMAFOR
 10
0.0
 20
0.0
 30
0.0
  0
INSERT
  5
178266
  8
0
  2
ACAD
 10
4733.4389627447927
 20
626.98922552497561
 30
0.0
  0
INSERT
  5
178267
  8
0
  2
ACAD
 10
4401.2404021617613
 20
426.56681958498802
 30
0.0
  0
INSERT
  5
178268
  8
0
  2
ACAD
 10
4401.2404021617613
 20
426.56681958498802
 30
0.0
  0
INSERT
  5
178269
  8
0
  2
ACAD
 10
9843.6585030093738
 20
4161.7623992877234
 30
0.0
  0
INSERT
  5
17826A
  8
0
  2
ACAD
 10
10335.40967800786
 20
4128.0225861498011
 30
0.0
  0
INSERT
  5
17826B
  8
0
  2
ACAD
 10
5694.1362955782188
 20
8197.3877944074975
 30
0.0
  0
INSERT
  5
17826C
  8
0
  2
ACAD
 10
6185.8874705767112
 20
8163.6479812695761
 30
0.0
  0
INSERT
  5
178319
  8
P2
  2
ACAD
 10
8411.0782083018512
 20
2850.915628098021
 30
0.0
 41
0.02
 42
0.02
 43
0.02
  0
TEXT
  5
178402
  8
COTATION
 10
2283.4346451576139
 20
190.7533593356199
 30
0.0
 40
18.75
  1
%%A
  0
INSERT
  5
178403
  8
0
  2
SEMAFOR
 10
0.0
 20
0.0
 30
0.0
 41
3.75
 42
3.75
 43
3.75
  0
TEXT
  5
178404
  8
COTATION
 10
2283.4346451576139
 20
190.7533593356199
 30
0.0
 40
18.75
  1
%%A
  0
INSERT
  5
178405
  8
0
  2
SEMAFOR
 10
0.0
 20
0.0
 30
0.0
 41
3.75
 42
3.75
 43
3.75
  0
TEXT
  5
178406
  8
COTATION
 10
2283.4346451576139
 20
190.7533593356199
 30
0.0
 40
18.75
  1
%%A
  0
INSERT
  5
178407
  8
0
  2
SEMAFOR
 10
0.0
 20
0.0
 30
0.0
 41
3.75
 42
3.75
 43
3.75
  0
INSERT
  5
178440
  8
0
  2
ACAD
 10
5000.0469436296116
 20
3549.2343797401409
 30
0.0
  0
INSERT
  5
178441
  8
0
  2
ACAD
 10
5491.7981186281031
 20
3515.4945666022199
 30
0.0
  0
TEXT
  5
178453
  8
P0
 10
4317.487309922898
 20
1050.691988622418
 30
0.0
 40
5.0
  1
%%A
  0
INSERT
  5
178454
  8
0
  2
SEMAFOR
 10
3708.5714045475338
 20
999.82442613291903
 30
0.0
  0
TEXT
  5
178455
  8
P0
 10
4317.487309922898
 20
1050.691988622418
 30
0.0
 40
5.0
  1
%%A
  0
INSERT
  5
178456
  8
0
  2
SEMAFOR
 10
3708.5714045475338
 20
999.82442613291903
 30
0.0
  0
TEXT
  5
178457
  8
P0
 10
4317.487309922898
 20
1050.691988622418
 30
0.0
 40
5.0
  1
%%A
  0
INSERT
  5
178458
  8
0
  2
SEMAFOR
 10
3708.5714045475338
 20
999.82442613291903
 30
0.0
  0
TEXT
  5
178459
  8
TEXTE
 10
4317.487309922898
 20
1050.691988622418
 30
0.0
 40
5.0
  1
%%A
  0
INSERT
  5
17845A
  8
0
  2
SEMAFOR
 10
3708.5714045475338
 20
999.82442613291903
 30
0.0
  0
TEXT
  5
17845B
  8
TEXTE
 10
4317.487309922898
 20
1050.691988622418
 30
0.0
 40
5.0
  1
%%A
  0
INSERT
  5
17845C
  8
0
  2
SEMAFOR
 10
3708.5714045475338
 20
999.82442613291903
 30
0.0
  0
TEXT
  5
17845D
  8
TEXTE
 10
4317.487309922898
 20
1050.691988622418
 30
0.0
 40
5.0
  1
%%A
  0
INSERT
  5
17845E
  8
0
  2
SEMAFOR
 10
3708.5714045475338
 20
999.82442613291903
 30
0.0
  0
INSERT
  5
17845F
  8
0
  2
ACAD
 10
8442.0103672923287
 20
1626.813651657895
 30
0.0
  0
INSERT
  5
178460
  8
0
  2
ACAD
 10
8109.8118067092946
 20
1426.3912457179069
 30
0.0
  0
INSERT
  5
178461
  8
0
  2
ACAD
 10
8109.8118067092946
 20
1426.3912457179069
 30
0.0
  0
INSERT
  5
178462
  8
0
  2
ACAD
 10
13552.22990755691
 20
5161.5868254206416
 30
0.0
  0
INSERT
  5
178463
  8
0
  2
ACAD
 10
14043.9810825554
 20
5127.8470122827202
 30
0.0
  0
INSERT
  5
178464
  8
0
  2
ACAD
 10
9402.7077001257549
 20
9197.2122205404157
 30
0.0
  0
INSERT
  5
178465
  8
0
  2
ACAD
 10
9894.4588751242445
 20
9163.4724074024944
 30
0.0
  0
INSERT
  5
178466
  8
P2
  2
ACAD
 10
12119.64961284938
 20
3850.7400542309401
 30
0.0
 41
0.02
 42
0.02
 43
0.02
  0
TEXT
  5
178467
  8
COTATION
 10
5992.0060497051481
 20
1190.5777854685391
 30
0.0
 40
18.75
  1
%%A
  0
INSERT
  5
178468
  8
0
  2
SEMAFOR
 10
3708.5714045475338
 20
999.82442613291903
 30
0.0
 41
3.75
 42
3.75
 43
3.75
  0
TEXT
  5
178469
  8
COTATION
 10
5992.0060497051481
 20
1190.5777854685391
 30
0.0
 40
18.75
  1
%%A
  0
INSERT
  5
17846A
  8
0
  2
SEMAFOR
 10
3708.5714045475338
 20
999.82442613291903
 30
0.0
 41
3.75
 42
3.75
 43
3.75
  0
TEXT
  5
17846B
  8
COTATION
 10
5992.0060497051481
 20
1190.5777854685391
 30
0.0
 40
18.75
  1
%%A
  0
INSERT
  5
17846C
  8
0
  2
SEMAFOR
 10
3708.5714045475338
 20
999.82442613291903
 30
0.0
 41
3.75
 42
3.75
 43
3.75
  0
INSERT
  5
17846D
  8
0
  2
ACAD
 10
11004.667248186281
 20
2686.4915150072802
 30
0.0
  0
INSERT
  5
17846E
  8
0
  2
ACAD
 10
10672.46868760325
 20
2486.0691090672931
 30
0.0
  0
INSERT
  5
17846F
  8
0
  2
ACAD
 10
10672.46868760325
 20
2486.0691090672931
 30
0.0
  0
INSERT
  5
178470
  8
0
  2
ACAD
 10
16114.88678845086
 20
6221.2646887700266
 30
0.0
  0
INSERT
  5
178471
  8
0
  2
ACAD
 10
16606.637963449361
 20
6187.5248756321062
 30
0.0
  0
INSERT
  5
178472
  8
0
  2
ACAD
 10
11965.36458101971
 20
10256.890083889801
 30
0.0
  0
INSERT
  5
178473
  8
0
  2
ACAD
 10
12457.1157560182
 20
10223.150270751879
 30
0.0
  0
TEXT
  5
17848B
  8
COTATION
 10
9797.7304583011719
 20
1508.5000510279051
 30
0.0
 40
50.0
  1
%%A
  0
INSERT
  5
17848C
  8
0
  2
SEMAFOR
 10
3708.5714045475338
 20
999.82442613291903
 30
0.0
 41
10.0
 42
10.0
 43
10.0
  0
TEXT
  5
17848D
  8
COTATION
 10
9797.7304583011719
 20
1508.5000510279051
 30
0.0
 40
50.0
  1
%%A
  0
INSERT
  5
17848E
  8
0
  2
SEMAFOR
 10
3708.5714045475338
 20
999.82442613291903
 30
0.0
 41
10.0
 42
10.0
 43
10.0
  0
TEXT
  5
17848F
  8
COTATION
 10
9797.7304583011719
 20
1508.5000510279051
 30
0.0
 40
50.0
  1
%%A
  0
INSERT
  5
178490
  8
0
  2
SEMAFOR
 10
3708.5714045475338
 20
999.82442613291903
 30
0.0
 41
10.0
 42
10.0
 43
10.0
  0
TEXT
  5
178498
  8
P0
 10
4132.9843359238321
 20
258.06848879111999
 30
0.0
 40
5.0
  1
%%A
  0
INSERT
  5
178499
  8
0
  2
SEMAFOR
 10
3524.0684305484692
 20
207.20092630162131
 30
0.0
  0
TEXT
  5
17849A
  8
P0
 10
4132.9843359238321
 20
258.06848879111999
 30
0.0
 40
5.0
  1
%%A
  0
INSERT
  5
17849B
  8
0
  2
SEMAFOR
 10
3524.0684305484692
 20
207.20092630162131
 30
0.0
  0
TEXT
  5
17849C
  8
P0
 10
4132.9843359238321
 20
258.06848879111999
 30
0.0
 40
5.0
  1
%%A
  0
INSERT
  5
17849D
  8
0
  2
SEMAFOR
 10
3524.0684305484692
 20
207.20092630162131
 30
0.0
  0
TEXT
  5
17849E
  8
TEXTE
 10
4132.9843359238321
 20
258.06848879111999
 30
0.0
 40
5.0
  1
%%A
  0
INSERT
  5
17849F
  8
0
  2
SEMAFOR
 10
3524.0684305484692
 20
207.20092630162131
 30
0.0
  0
TEXT
  5
1784A0
  8
TEXTE
 10
4132.9843359238321
 20
258.06848879111999
 30
0.0
 40
5.0
  1
%%A
  0
INSERT
  5
1784A1
  8
0
  2
SEMAFOR
 10
3524.0684305484692
 20
207.20092630162131
 30
0.0
  0
TEXT
  5
1784A2
  8
TEXTE
 10
4132.9843359238321
 20
258.06848879111999
 30
0.0
 40
5.0
  1
%%A
  0
INSERT
  5
1784A3
  8
0
  2
SEMAFOR
 10
3524.0684305484692
 20
207.20092630162131
 30
0.0
  0
INSERT
  5
1784A4
  8
0
  2
ACAD
 10
8257.507393293261
 20
834.19015182659678
 30
0.0
  0
INSERT
  5
1784A5
  8
0
  2
ACAD
 10
7925.3088327102296
 20
633.76774588660919
 30
0.0
  0
INSERT
  5
1784A6
  8
0
  2
ACAD
 10
7925.3088327102296
 20
633.76774588660919
 30
0.0
  0
INSERT
  5
1784A7
  8
0
  2
ACAD
 10
13367.72693355784
 20
4368.9633255893441
 30
0.0
  0
INSERT
  5
1784A8
  8
0
  2
ACAD
 10
13859.47810855633
 20
4335.2235124514227
 30
0.0
  0
INSERT
  5
1784A9
  8
0
  2
ACAD
 10
9218.2047261266889
 20
8404.5887207091182
 30
0.0
  0
INSERT
  5
1784AA
  8
0
  2
ACAD
 10
9709.9559011251822
 20
8370.8489075711968
 30
0.0
  0
INSERT
  5
1784AB
  8
P2
  2
ACAD
 10
11935.14663885032
 20
3058.1165543996422
 30
0.0
 41
0.02
 42
0.02
 43
0.02
  0
TEXT
  5
1784AC
  8
COTATION
 10
5807.5030757060822
 20
397.95428563724118
 30
0.0
 40
18.75
  1
%%A
  0
INSERT
  5
1784AD
  8
0
  2
SEMAFOR
 10
3524.0684305484692
 20
207.20092630162131
 30
0.0
 41
3.75
 42
3.75
 43
3.75
  0
TEXT
  5
1784AE
  8
COTATION
 10
5807.5030757060822
 20
397.95428563724118
 30
0.0
 40
18.75
  1
%%A
  0
INSERT
  5
1784AF
  8
0
  2
SEMAFOR
 10
3524.0684305484692
 20
207.20092630162131
 30
0.0
 41
3.75
 42
3.75
 43
3.75
  0
TEXT
  5
1784B0
  8
COTATION
 10
5807.5030757060822
 20
397.95428563724118
 30
0.0
 40
18.75
  1
%%A
  0
INSERT
  5
1784B1
  8
0
  2
SEMAFOR
 10
3524.0684305484692
 20
207.20092630162131
 30
0.0
 41
3.75
 42
3.75
 43
3.75
  0
INSERT
  5
1784B2
  8
0
  2
ACAD
 10
10820.164274187209
 20
1893.868015175982
 30
0.0
  0
INSERT
  5
1784B3
  8
0
  2
ACAD
 10
10487.965713604181
 20
1693.4456092359951
 30
0.0
  0
INSERT
  5
1784B4
  8
0
  2
ACAD
 10
10487.965713604181
 20
1693.4456092359951
 30
0.0
  0
INSERT
  5
1784B5
  8
0
  2
ACAD
 10
15930.383814451799
 20
5428.64118893873
 30
0.0
  0
INSERT
  5
1784B6
  8
0
  2
ACAD
 10
16422.134989450289
 20
5394.9013758008077
 30
0.0
  0
INSERT
  5
1784B7
  8
0
  2
ACAD
 10
11780.861607020641
 20
9464.2665840585032
 30
0.0
  0
INSERT
  5
1784B8
  8
0
  2
ACAD
 10
12272.61278201913
 20
9430.5267709205818
 30
0.0
  0
TEXT
  5
1784E8
  8
COTATION
 10
9613.2274843021078
 20
715.87655119660781
 30
0.0
 40
50.0
  1
%%A
  0
INSERT
  5
1784E9
  8
0
  2
SEMAFOR
 10
3524.0684305484692
 20
207.20092630162131
 30
0.0
 41
10.0
 42
10.0
 43
10.0
  0
TEXT
  5
1784EA
  8
COTATION
 10
9613.2274843021078
 20
715.87655119660781
 30
0.0
 40
50.0
  1
%%A
  0
INSERT
  5
1784EB
  8
0
  2
SEMAFOR
 10
3524.0684305484692
 20
207.20092630162131
 30
0.0
 41
10.0
 42
10.0
 43
10.0
  0
TEXT
  5
1784EC
  8
COTATION
 10
9613.2274843021078
 20
715.87655119660781
 30
0.0
 40
50.0
  1
%%A
  0
INSERT
  5
1784ED
  8
0
  2
SEMAFOR
 10
3524.0684305484692
 20
207.20092630162131
 30
0.0
 41
10.0
 42
10.0
 43
10.0
  0
TEXT
  5
1784F6
  8
TEXTE
 10
15995.87636918576
 20
3318.7555030860249
 30
0.0
 40
5.0
  1
%%A
  0
INSERT
  5
1784F7
  8
0
  2
SEMAFOR
 10
15386.960463810399
 20
3267.8879405965258
 30
0.0
  0
TEXT
  5
1784F8
  8
TEXTE
 10
15995.87636918576
 20
3318.7555030860249
 30
0.0
 40
5.0
  1
%%A
  0
INSERT
  5
1784F9
  8
0
  2
SEMAFOR
 10
15386.960463810399
 20
3267.8879405965258
 30
0.0
  0
TEXT
  5
1784FA
  8
TEXTE
 10
15995.87636918576
 20
3318.7555030860249
 30
0.0
 40
5.0
  1
%%A
  0
INSERT
  5
1784FB
  8
0
  2
SEMAFOR
 10
15386.960463810399
 20
3267.8879405965258
 30
0.0
  0
INSERT
  5
1784FC
  8
0
  2
ACAD
 10
20120.399426555188
 20
3894.877166121501
 30
0.0
  0
INSERT
  5
1784FD
  8
0
  2
ACAD
 10
19788.200865972161
 20
3694.4547601815138
 30
0.0
  0
INSERT
  5
1784FE
  8
0
  2
ACAD
 10
19788.200865972161
 20
3694.4547601815138
 30
0.0
  0
INSERT
  5
1784FF
  8
0
  2
ACAD
 10
25230.618966819769
 20
7429.6503398842506
 30
0.0
  0
INSERT
  5
178500
  8
0
  2
ACAD
 10
25722.370141818261
 20
7395.9105267463274
 30
0.0
  0
INSERT
  5
178501
  8
0
  2
ACAD
 10
21081.09675938862
 20
11465.275735004019
 30
0.0
  0
INSERT
  5
178502
  8
0
  2
ACAD
 10
21572.847934387111
 20
11431.5359218661
 30
0.0
  0
INSERT
  5
178503
  8
P2
  2
ACAD
 10
23798.038672112249
 20
6118.8035686945468
 30
0.0
 41
0.02
 42
0.02
 43
0.02
  0
TEXT
  5
178504
  8
COTATION
 10
17670.395108968009
 20
3458.641299932146
 30
0.0
 40
18.75
  1
%%A
  0
INSERT
  5
178505
  8
0
  2
SEMAFOR
 10
15386.960463810399
 20
3267.8879405965258
 30
0.0
 41
3.75
 42
3.75
 43
3.75
  0
TEXT
  5
178506
  8
COTATION
 10
17670.395108968009
 20
3458.641299932146
 30
0.0
 40
18.75
  1
%%A
  0
INSERT
  5
178507
  8
0
  2
SEMAFOR
 10
15386.960463810399
 20
3267.8879405965258
 30
0.0
 41
3.75
 42
3.75
 43
3.75
  0
TEXT
  5
178508
  8
COTATION
 10
17670.395108968009
 20
3458.641299932146
 30
0.0
 40
18.75
  1
%%A
  0
INSERT
  5
178509
  8
0
  2
SEMAFOR
 10
15386.960463810399
 20
3267.8879405965258
 30
0.0
 41
3.75
 42
3.75
 43
3.75
  0
INSERT
  5
17850A
  8
0
  2
ACAD
 10
20387.007407440011
 20
6817.1223203366681
 30
0.0
  0
INSERT
  5
17850B
  8
0
  2
ACAD
 10
20878.758582438499
 20
6783.3825071987458
 30
0.0
  0
TEXT
  5
17850C
  8
P0
 10
19704.447773733289
 20
4318.579929218944
 30
0.0
 40
5.0
  1
%%A
  0
INSERT
  5
17850D
  8
0
  2
SEMAFOR
 10
19095.531868357932
 20
4267.7123667294454
 30
0.0
  0
TEXT
  5
17850E
  8
P0
 10
19704.447773733289
 20
4318.579929218944
 30
0.0
 40
5.0
  1
%%A
  0
INSERT
  5
17850F
  8
0
  2
SEMAFOR
 10
19095.531868357932
 20
4267.7123667294454
 30
0.0
  0
TEXT
  5
178510
  8
P0
 10
19704.447773733289
 20
4318.579929218944
 30
0.0
 40
5.0
  1
%%A
  0
INSERT
  5
178511
  8
0
  2
SEMAFOR
 10
19095.531868357932
 20
4267.7123667294454
 30
0.0
  0
TEXT
  5
178512
  8
TEXTE
 10
19704.447773733289
 20
4318.579929218944
 30
0.0
 40
5.0
  1
%%A
  0
INSERT
  5
178513
  8
0
  2
SEMAFOR
 10
19095.531868357932
 20
4267.7123667294454
 30
0.0
  0
TEXT
  5
178514
  8
TEXTE
 10
19704.447773733289
 20
4318.579929218944
 30
0.0
 40
5.0
  1
%%A
  0
INSERT
  5
178515
  8
0
  2
SEMAFOR
 10
19095.531868357932
 20
4267.7123667294454
 30
0.0
  0
TEXT
  5
178516
  8
TEXTE
 10
19704.447773733289
 20
4318.579929218944
 30
0.0
 40
5.0
  1
%%A
  0
INSERT
  5
178517
  8
0
  2
SEMAFOR
 10
19095.531868357932
 20
4267.7123667294454
 30
0.0
  0
INSERT
  5
178518
  8
0
  2
ACAD
 10
23828.970831102732
 20
4894.7015922544206
 30
0.0
  0
INSERT
  5
178519
  8
0
  2
ACAD
 10
23496.77227051969
 20
4694.279186314433
 30
0.0
  0
INSERT
  5
17851A
  8
0
  2
ACAD
 10
23496.77227051969
 20
4694.279186314433
 30
0.0
  0
INSERT
  5
17851B
  8
0
  2
ACAD
 10
28939.190371367309
 20
8429.4747660171706
 30
0.0
  0
INSERT
  5
17851C
  8
0
  2
ACAD
 10
29430.94154636579
 20
8395.7349528792456
 30
0.0
  0
INSERT
  5
17851D
  8
0
  2
ACAD
 10
24789.668163936149
 20
12465.100161136939
 30
0.0
  0
INSERT
  5
17851E
  8
0
  2
ACAD
 10
25281.41933893464
 20
12431.36034799902
 30
0.0
  0
INSERT
  5
17851F
  8
P2
  2
ACAD
 10
27506.610076659781
 20
7118.627994827466
 30
0.0
 41
0.02
 42
0.02
 43
0.02
  0
TEXT
  5
178520
  8
COTATION
 10
21378.966513515541
 20
4458.4657260650647
 30
0.0
 40
18.75
  1
%%A
  0
INSERT
  5
178521
  8
0
  2
SEMAFOR
 10
19095.531868357932
 20
4267.7123667294454
 30
0.0
 41
3.75
 42
3.75
 43
3.75
  0
TEXT
  5
178522
  8
COTATION
 10
21378.966513515541
 20
4458.4657260650647
 30
0.0
 40
18.75
  1
%%A
  0
INSERT
  5
178523
  8
0
  2
SEMAFOR
 10
19095.531868357932
 20
4267.7123667294454
 30
0.0
 41
3.75
 42
3.75
 43
3.75
  0
TEXT
  5
178524
  8
COTATION
 10
21378.966513515541
 20
4458.4657260650647
 30
0.0
 40
18.75
  1
%%A
  0
INSERT
  5
178525
  8
0
  2
SEMAFOR
 10
19095.531868357932
 20
4267.7123667294454
 30
0.0
 41
3.75
 42
3.75
 43
3.75
  0
INSERT
  5
178526
  8
0
  2
ACAD
 10
26391.62771199668
 20
5954.3794556038056
 30
0.0
  0
INSERT
  5
178527
  8
0
  2
ACAD
 10
26059.429151413649
 20
5753.957049663818
 30
0.0
  0
INSERT
  5
178528
  8
0
  2
ACAD
 10
26059.429151413649
 20
5753.957049663818
 30
0.0
  0
INSERT
  5
178529
  8
0
  2
ACAD
 10
31501.847252261261
 20
9489.1526293665538
 30
0.0
  0
INSERT
  5
17852A
  8
0
  2
ACAD
 10
31993.598427259749
 20
9455.4128162286306
 30
0.0
  0
INSERT
  5
17852B
  8
0
  2
ACAD
 10
27352.325044830101
 20
13524.778024486321
 30
0.0
  0
INSERT
  5
17852C
  8
0
  2
ACAD
 10
27844.076219828599
 20
13491.038211348399
 30
0.0
  0
TEXT
  5
17852D
  8
COTATION
 10
25184.690922111571
 20
4776.3879916244323
 30
0.0
 40
50.0
  1
%%A
  0
INSERT
  5
17852E
  8
0
  2
SEMAFOR
 10
19095.531868357932
 20
4267.7123667294454
 30
0.0
 41
10.0
 42
10.0
 43
10.0
  0
TEXT
  5
17852F
  8
COTATION
 10
25184.690922111571
 20
4776.3879916244323
 30
0.0
 40
50.0
  1
%%A
  0
INSERT
  5
178530
  8
0
  2
SEMAFOR
 10
19095.531868357932
 20
4267.7123667294454
 30
0.0
 41
10.0
 42
10.0
 43
10.0
  0
TEXT
  5
178531
  8
COTATION
 10
25184.690922111571
 20
4776.3879916244323
 30
0.0
 40
50.0
  1
%%A
  0
INSERT
  5
178532
  8
0
  2
SEMAFOR
 10
19095.531868357932
 20
4267.7123667294454
 30
0.0
 41
10.0
 42
10.0
 43
10.0
  0
TEXT
  5
17854D
  8
P4
 10
13776.89914409049
 20
2542.1011007104271
 30
0.0
 40
5.0
  1
%%A
  0
INSERT
  5
17854E
  8
0
  2
SEMAFOR
 10
13167.983238715129
 20
2491.233538220928
 30
0.0
  0
TEXT
  5
17854F
  8
P4
 10
13776.89914409049
 20
2542.1011007104271
 30
0.0
 40
5.0
  1
%%A
  0
INSERT
  5
178550
  8
0
  2
SEMAFOR
 10
13167.983238715129
 20
2491.233538220928
 30
0.0
  0
TEXT
  5
178551
  8
P4
 10
13776.89914409049
 20
2542.1011007104271
 30
0.0
 40
5.0
  1
%%A
  0
INSERT
  5
178552
  8
0
  2
SEMAFOR
 10
13167.983238715129
 20
2491.233538220928
 30
0.0
  0
TEXT
  5
178553
  8
P3
 10
18315.6908105193
 20
3063.112602889511
 30
0.0
 40
5.0
  1
%%A
  0
INSERT
  5
178554
  8
0
  2
SEMAFOR
 10
17706.774905143931
 20
3012.2450404000119
 30
0.0
  0
TEXT
  5
178555
  8
P3
 10
18315.6908105193
 20
3063.112602889511
 30
0.0
 40
5.0
  1
%%A
  0
INSERT
  5
178556
  8
0
  2
SEMAFOR
 10
17706.774905143931
 20
3012.2450404000119
 30
0.0
  0
TEXT
  5
178557
  8
P3
 10
18315.6908105193
 20
3063.112602889511
 30
0.0
 40
5.0
  1
%%A
  0
INSERT
  5
178558
  8
0
  2
SEMAFOR
 10
17706.774905143931
 20
3012.2450404000119
 30
0.0
  0
INSERT
  5
178559
  8
0
  2
ACAD
 10
21077.800978393119
 20
8060.5914657547173
 30
0.0
  0
INSERT
  5
17855A
  8
0
  2
ACAD
 10
21569.552153391611
 20
8026.8516526167932
 30
0.0
  0
INSERT
  5
178563
  8
ASHADE
 62
     1
  2
AVE_RENDER
 10
13167.983238715129
 20
2491.233538220928
 30
0.0
1001
AVE_RENDER
1002
{
1070
     2
1000
Pref
1070
    30
1070
    20
1070
     1
1070
     0
1000
ESS
1070
    10
1070
     0
1070
    30
1040
1.0
1070
     1
1040
0.51
1040
0.37
1040
0.41
1040
1.587301587301587
1010
0.915
1020
0.085
1030
0.7821999999999997
1040
0.38
1070
    49
1002
}
  0
INSERT
  5
178564
  8
ASHADE
 62
     3
  2
AVE_RENDER
 10
13167.983238715129
 20
2491.233538220928
 30
0.0
1001
AVE_RENDER
1002
{
1070
     0
1000
Full Opt
1070
     0
1070
     1
1070
     1
1070
     1
1070
     0
1070
     0
1070
     0
1070
     1
1070
     1
1040
0.0001
1040
0.0001
1002
}
  0
INSERT
  5
178565
  8
ASHADE
 62
     4
  2
AVE_RENDER
 10
13167.983238715129
 20
2491.233538220928
 30
0.0
1001
AVE_RENDER
1002
{
1070
     0
1000
Quick Opt
1070
     0
1070
     1
1070
     1
1070
     1
1070
     0
1070
     0
1070
     1
1002
}
  0
INSERT
  5
178566
  8
ASHADE
 62
     2
  2
AVE_RENDER
 10
13167.983238715129
 20
2491.233538220928
 30
0.0
1001
AVE_RENDER
1002
{
1070
     0
1000
ESS
1000

1002
{
1070
     1
1002
}
1002
}
  0
TEXT
  5
178567
  8
P0
 10
24489.362081549079
 20
4082.5557158227512
 30
0.0
 40
40.0
  1
%%A
  0
INSERT
  5
178568
  8
0
  2
SEMAFOR
 10
19618.034838546169
 20
3675.6152159067619
 30
0.0
 41
8.0
 42
8.0
 43
8.0
  0
TEXT
  5
178569
  8
P0
 10
24489.362081549079
 20
4082.5557158227512
 30
0.0
 40
40.0
  1
%%A
  0
INSERT
  5
17856A
  8
0
  2
SEMAFOR
 10
19618.034838546169
 20
3675.6152159067619
 30
0.0
 41
8.0
 42
8.0
 43
8.0
  0
TEXT
  5
17856B
  8
P0
 10
24489.362081549079
 20
4082.5557158227512
 30
0.0
 40
40.0
  1
%%A
  0
INSERT
  5
17856C
  8
0
  2
SEMAFOR
 10
19618.034838546169
 20
3675.6152159067619
 30
0.0
 41
8.0
 42
8.0
 43
8.0
  0
POLYLINE
  5
1785D0
  8
CHARIOT
 66
     1
 10
0.0
 20
0.0
 30
0.0
  0
VERTEX
  5
17FECB
  8
CHARIOT
 10
2095.1289845236561
 20
1367.337451049114
 30
0.0
  0
VERTEX
  5
17FECC
  8
CHARIOT
 10
2095.1289845236561
 20
1367.337451049114
 30
0.0
 42
0.1373053259122204
  0
SEQEND
  5
17FECD
  8
CHARIOT
  0
INSERT
  5
17B5B9
  8
AME_FRZ
  2
AME_NIL
 10
0.0
 20
0.0
 30
0.0
  0
INSERT
  5
17B6C7
  8
AME_FRZ
  2
AME_SOL
 10
0.0
 20
0.0
 30
0.0
1001
AME_SOL
1000
R2.1
1000
AME2
1000
cm^ 2
1070
     3
1070
     0
1070
     3
1000
wire
1040
45.0
1000
U
1040
1.0
1000
cm
1000
gm
1000
MILD_STEEL
1070
    25
1000
CSG
1070
     1
1070
     3
1070
     3
1070
     3
1070
     0
1000
cm^ 3
1070
     6
1070
     0
1005
17B5B9
  0
ENDBLK
  5
17B6E4
  8
0
  0
BLOCK
  8
0
  2
*D6
 70
     1
 10
0.0
 20
0.0
 30
0.0
  3
*D6
  1

  0
LINE
  5
17F325
  8
0
  6
BYBLOCK
 62
     4
 10
766.87813534003055
 20
3972.4577154517569
 30
0.0
 11
766.87813534003055
 21
3999.4989485845622
 31
0.0
  0
LINE
  5
17F326
  8
0
  6
BYBLOCK
 62
     4
 10
732.56642170205635
 20
3977.8760914918989
 30
0.0
 11
732.56642170205635
 21
3999.4989485845622
 31
0.0
  0
LINE
  5
17F327
  8
0
  6
BYBLOCK
 62
     4
 10
769.87813534003055
 20
3997.698948584562
 30
0.0
 11
772.87813534003055
 21
3997.698948584562
 31
0.0
  0
LINE
  5
17F328
  8
0
  6
BYBLOCK
 62
     4
 10
729.56642170205635
 20
3997.698948584562
 30
0.0
 11
726.56642170205635
 21
3997.698948584562
 31
0.0
  0
SOLID
  5
17F329
  8
0
  6
BYBLOCK
 62
     4
 10
769.87813534003055
 20
3998.198948584562
 30
0.0
 11
769.87813534003055
 21
3997.198948584562
 31
0.0
 12
766.87813534003055
 22
3997.698948584562
 32
0.0
 13
766.87813534003055
 23
3997.698948584562
 33
0.0
  0
SOLID
  5
17F32A
  8
0
  6
BYBLOCK
 62
     4
 10
729.56642170205635
 20
3998.198948584562
 30
0.0
 11
729.56642170205635
 21
3997.198948584562
 31
0.0
 12
732.56642170205635
 22
3997.698948584562
 32
0.0
 13
732.56642170205635
 23
3997.698948584562
 33
0.0
  0
TEXT
  5
17F32B
  8
0
  6
BYBLOCK
 62
    90
 10
738.22227852104345
 20
3995.698948584562
 30
0.0
 40
4.0
  1
34.3
  7
MONOTXT
  0
TEXT
  5
17FA1A
  8
0
  6
BYBLOCK
 62
    90
 10
754.22227852104345
 20
3996.698948584562
 30
0.0
 40
2.0
  1
%%p0.1
  7
MONOTXT
1001
ACAD
1000
R13OBJECT
1002
{
1005
17F32B
1002
}
  0
POINT
  5
17F32C
  8
DEFPOINTS
  6
BYBLOCK
 62
     0
 10
766.87813534003055
 20
3970.9577154517569
 30
0.0
  0
POINT
  5
17F32D
  8
DEFPOINTS
  6
BYBLOCK
 62
     0
 10
732.56642170205635
 20
3976.376091491898
 30
0.0
  0
POINT
  5
17F32E
  8
DEFPOINTS
  6
BYBLOCK
 62
     0
 10
732.56642170205635
 20
3997.698948584562
 30
0.0
  0
ENDBLK
  5
17F32F
  8
0
  0
BLOCK
  8
0
  2
*D7
 70
     1
 10
0.0
 20
0.0
 30
0.0
  3
*D7
  1

  0
LINE
  5
17F331
  8
0
  6
BYBLOCK
 62
     4
 10
766.87813533234225
 20
3950.7155074859479
 30
0.0
 11
766.87813533234225
 21
3921.7378302474231
 31
0.0
  0
LINE
  5
17F332
  8
0
  6
BYBLOCK
 62
     4
 10
731.87813532983034
 20
3950.7155075095102
 30
0.0
 11
731.87813532983034
 21
3921.7378302474231
 31
0.0
  0
LINE
  5
17F333
  8
0
  6
BYBLOCK
 62
     4
 10
769.87813533234225
 20
3923.5378302474228
 30
0.0
 11
772.87813533234225
 21
3923.5378302474228
 31
0.0
  0
LINE
  5
17F334
  8
0
  6
BYBLOCK
 62
     4
 10
728.87813532983034
 20
3923.5378302474228
 30
0.0
 11
725.87813532983034
 21
3923.5378302474228
 31
0.0
  0
SOLID
  5
17F335
  8
0
  6
BYBLOCK
 62
     4
 10
769.87813533234225
 20
3924.0378302474228
 30
0.0
 11
769.87813533234225
 21
3923.0378302474228
 31
0.0
 12
766.87813533234225
 22
3923.5378302474228
 32
0.0
 13
766.87813533234225
 23
3923.5378302474228
 33
0.0
  0
SOLID
  5
17F336
  8
0
  6
BYBLOCK
 62
     4
 10
728.87813532983034
 20
3924.0378302474228
 30
0.0
 11
728.87813532983034
 21
3923.0378302474228
 31
0.0
 12
731.87813532983034
 22
3923.5378302474228
 32
0.0
 13
731.87813532983034
 23
3923.5378302474228
 33
0.0
  0
TEXT
  5
17F337
  8
0
  6
BYBLOCK
 62
    90
 10
737.87813533108624
 20
3921.5378302474228
 30
0.0
 40
4.0
  1
35.0
  7
MONOTXT
  0
TEXT
  5
17FA1B
  8
0
  6
BYBLOCK
 62
    90
 10
753.87813533108624
 20
3922.5378302474228
 30
0.0
 40
2.0
  1
%%p0.1
  7
MONOTXT
1001
ACAD
1000
R13OBJECT
1002
{
1005
17F337
1002
}
  0
POINT
  5
17F338
  8
DEFPOINTS
  6
BYBLOCK
 62
     0
 10
766.87813533234225
 20
3952.2155074859479
 30
0.0
  0
POINT
  5
17F339
  8
DEFPOINTS
  6
BYBLOCK
 62
     0
 10
731.87813532983034
 20
3952.2155075095111
 30
0.0
  0
POINT
  5
17F33A
  8
DEFPOINTS
  6
BYBLOCK
 62
     0
 10
731.87813532983034
 20
3923.5378302474228
 30
0.0
  0
ENDBLK
  5
17F33B
  8
0
  0
BLOCK
  8
0
  2
*D8
 70
     1
 10
0.0
 20
0.0
 30
0.0
  3
*D8
  1

  0
LINE
  5
17F497
  8
0
  6
BYBLOCK
 62
     4
 10
731.417355037378
 20
3977.3402729064278
 30
0.0
 11
701.15858516388244
 21
4002.730395547158
 31
0.0
  0
LINE
  5
17F498
  8
0
  6
BYBLOCK
 62
     4
 10
717.25461383662957
 20
3960.461775199456
 30
0.0
 11
686.99584396313412
 21
3985.8518978401862
 31
0.0
  0
LINE
  5
17F499
  8
0
  6
BYBLOCK
 62
     4
 10
700.60910233243703
 20
3999.2752445203669
 30
0.0
 11
698.39859613045746
 21
3996.6408658127052
 31
0.0
  0
LINE
  5
17F49A
  8
0
  6
BYBLOCK
 62
     4
 10
690.30308678980816
 20
3986.9930134721071
 30
0.0
 11
691.68579908103902
 21
3988.6408658127061
 31
0.0
  0
TEXT
  5
17F49B
  8
0
  6
BYBLOCK
 62
    90
 10
683.85787242440938
 20
3990.6408658127061
 30
0.0
 40
4.0
  1
22.0
  7
MONOTXT
  0
TEXT
  5
17FA1C
  8
0
  6
BYBLOCK
 62
    90
 10
699.85787242440938
 20
3991.6408658127061
 30
0.0
 40
2.0
  1
%%p0.1
  7
MONOTXT
1001
ACAD
1000
R13OBJECT
1002
{
1005
17F49B
1002
}
  0
SOLID
  5
17F49C
  8
0
  6
BYBLOCK
 62
     4
 10
700.22608011087743
 20
3999.5966383252089
 30
0.0
 11
700.99212455399629
 21
3998.953850715523
 31
0.0
 12
702.53746516149647
 22
4001.573377849722
 32
0.0
 13
702.53746516149647
 23
4001.573377849722
 33
0.0
  0
SOLID
  5
17F49D
  8
0
  6
BYBLOCK
 62
     4
 10
689.92006456824845
 20
3987.3144072769501
 30
0.0
 11
690.68610901136731
 21
3986.6716196672642
 31
0.0
 12
688.37472396074816
 22
3984.6948801427502
 32
0.0
 13
688.37472396074816
 23
3984.6948801427502
 33
0.0
  0
POINT
  5
17F49E
  8
DEFPOINTS
  6
BYBLOCK
 62
     0
 10
732.56642170205635
 20
3976.376091491898
 30
0.0
  0
POINT
  5
17F49F
  8
DEFPOINTS
  6
BYBLOCK
 62
     0
 10
718.40368050130814
 20
3959.4975937849258
 30
0.0
  0
POINT
  5
17F4A0
  8
DEFPOINTS
  6
BYBLOCK
 62
     0
 10
688.37472396074816
 20
3984.6948801427502
 30
0.0
  0
ENDBLK
  5
17F4A1
  8
0
  0
BLOCK
  8
0
  2
*D9
 70
     1
 10
0.0
 20
0.0
 30
0.0
  3
*D9
  1

  0
LINE
  5
17F4C9
  8
0
  6
BYBLOCK
 62
     4
 10
768.37813533480335
 20
3958.2155074859302
 30
0.0
 11
778.90527007788035
 21
3958.2155074859302
 31
0.0
  0
LINE
  5
17F4CA
  8
0
  6
BYBLOCK
 62
     4
 10
768.37813533234225
 20
3952.2155074859479
 30
0.0
 11
778.90527007788035
 21
3952.2155074859479
 31
0.0
  0
LINE
  5
17F4CB
  8
0
  6
BYBLOCK
 62
     4
 10
777.10527007788028
 20
3961.2155074859302
 30
0.0
 11
777.10527007788028
 21
3964.2155074859302
 31
0.0
  0
LINE
  5
17F4CC
  8
0
  6
BYBLOCK
 62
     4
 10
777.10527007788028
 20
3949.2155074859479
 30
0.0
 11
777.10527007788028
 21
3946.215507485947
 31
0.0
  0
TEXT
  5
17F4CD
  8
0
  6
BYBLOCK
 62
    90
 10
780.66154864985799
 20
3953.2155074049001
 30
0.0
 40
4.0
  1
%%c 6.0
  7
MONOTXT
  0
LINE
  5
17F4CE
  8
0
  6
BYBLOCK
 62
     4
 10
777.10527007788028
 20
3958.2155074859302
 30
0.0
 11
777.10527007788028
 21
3952.2155074859479
 31
0.0
  0
SOLID
  5
17F4CF
  8
0
  6
BYBLOCK
 62
     4
 10
776.60527007788039
 20
3961.2155074859302
 30
0.0
 11
777.60527007788028
 21
3961.2155074859302
 31
0.0
 12
777.10527007788028
 22
3958.2155074859302
 32
0.0
 13
777.10527007788028
 23
3958.2155074859302
 33
0.0
  0
SOLID
  5
17F4D0
  8
0
  6
BYBLOCK
 62
     4
 10
776.60527007788039
 20
3949.2155074859479
 30
0.0
 11
777.60527007788028
 21
3949.2155074859479
 31
0.0
 12
777.10527007788028
 22
3952.2155074859479
 32
0.0
 13
777.10527007788028
 23
3952.2155074859479
 33
0.0
  0
POINT
  5
17F4D1
  8
DEFPOINTS
  6
BYBLOCK
 62
     0
 10
766.87813533480335
 20
3958.2155074859302
 30
0.0
  0
POINT
  5
17F4D2
  8
DEFPOINTS
  6
BYBLOCK
 62
     0
 10
766.87813533234225
 20
3952.2155074859479
 30
0.0
  0
POINT
  5
17F4D3
  8
DEFPOINTS
  6
BYBLOCK
 62
     0
 10
777.10527007788028
 20
3952.2155074859479
 30
0.0
  0
ENDBLK
  5
17F4D4
  8
0
  0
BLOCK
  8
0
  2
*D10
 70
     1
 10
0.0
 20
0.0
 30
0.0
  3
*D10
  1

  0
LINE
  5
17F355
  8
0
  6
BYBLOCK
 62
     4
 10
766.87813534003055
 20
3972.4577154517569
 30
0.0
 11
766.87813534003055
 21
4022.7484857002069
 31
0.0
  0
LINE
  5
17F356
  8
0
  6
BYBLOCK
 62
     4
 10
552.84817151000266
 20
3956.7155074049001
 30
0.0
 11
552.84817151000266
 21
4022.7484857002069
 31
0.0
  0
LINE
  5
17F357
  8
0
  6
BYBLOCK
 62
     4
 10
763.87813534003055
 20
4020.9484857002062
 30
0.0
 11
675.36315342501666
 21
4020.9484857002062
 31
0.0
  0
LINE
  5
17F358
  8
0
  6
BYBLOCK
 62
     4
 10
555.84817151000266
 20
4020.9484857002062
 30
0.0
 11
644.36315342501655
 21
4020.9484857002062
 31
0.0
  0
SOLID
  5
17F359
  8
0
  6
BYBLOCK
 62
     4
 10
763.87813534003055
 20
4021.4484857002071
 30
0.0
 11
763.87813534003055
 21
4020.4484857002062
 31
0.0
 12
766.87813534003055
 22
4020.9484857002062
 32
0.0
 13
766.87813534003055
 23
4020.9484857002062
 33
0.0
  0
SOLID
  5
17F35A
  8
0
  6
BYBLOCK
 62
     4
 10
555.84817151000266
 20
4021.4484857002071
 30
0.0
 11
555.84817151000266
 21
4020.4484857002062
 31
0.0
 12
552.84817151000266
 22
4020.9484857002062
 32
0.0
 13
552.84817151000266
 23
4020.9484857002062
 33
0.0
  0
TEXT
  5
17F35B
  8
0
  6
BYBLOCK
 62
    90
 10
646.36315342501666
 20
4018.9484857002062
 30
0.0
 40
4.0
  1
214.0
  7
MONOTXT
  0
TEXT
  5
17FA1D
  8
0
  6
BYBLOCK
 62
    90
 10
666.36315342501655
 20
4019.9484857002071
 30
0.0
 40
2.0
  1
%%p0.1
  7
MONOTXT
1001
ACAD
1000
R13OBJECT
1002
{
1005
17F35B
1002
}
  0
POINT
  5
17F35C
  8
DEFPOINTS
  6
BYBLOCK
 62
     0
 10
766.87813534003055
 20
3970.9577154517569
 30
0.0
  0
POINT
  5
17F35D
  8
DEFPOINTS
  6
BYBLOCK
 62
     0
 10
552.84817151000266
 20
3955.2155074049001
 30
0.0
  0
POINT
  5
17F35E
  8
DEFPOINTS
  6
BYBLOCK
 62
     0
 10
552.84817151000266
 20
4020.9484857002062
 30
0.0
  0
ENDBLK
  5
17F35F
  8
0
  0
BLOCK
  8
0
  2
*D11
 70
     1
 10
0.0
 20
0.0
 30
0.0
  3
*D11
  1

  0
LINE
  5
17F4E0
  8
0
  6
BYBLOCK
 62
     4
 10
735.86551816419569
 20
3977.1963538992468
 30
0.0
 11
739.42681198103674
 21
3981.4405385997502
 31
0.0
  0
LINE
  5
17F4E1
  8
0
  6
BYBLOCK
 62
     4
 10
732.80134039171935
 20
3979.7675043379918
 30
0.0
 11
736.36263420856039
 21
3984.0116890384961
 31
0.0
  0
LINE
  5
17F4E2
  8
0
  6
BYBLOCK
 62
     4
 10
740.56792761295765
 20
3978.133295773076
 30
0.0
 11
742.86606094231445
 21
3976.204932944016
 31
0.0
  0
LINE
  5
17F4E3
  8
0
  6
BYBLOCK
 62
     4
 10
732.90748318176736
 20
3984.5611718699429
 30
0.0
 11
730.60934985241056
 21
3986.489534699002
 31
0.0
  0
TEXT
  5
17F4E4
  8
0
  6
BYBLOCK
 62
    90
 10
732.01581469071232
 20
3985.8188027849742
 30
0.0
 40
4.0
  1
%%c 4.0
  7
MONOTXT
  0
LINE
  5
17F4E5
  8
0
  6
BYBLOCK
 62
     4
 10
738.26979428360073
 20
3980.0616586021351
 30
0.0
 11
735.20561651112428
 21
3982.632809040882
 31
0.0
  0
SOLID
  5
17F4E6
  8
0
  6
BYBLOCK
 62
     4
 10
740.88932141780094
 20
3978.5163179946348
 30
0.0
 11
740.24653380811435
 21
3977.7502735515159
 31
0.0
 12
738.26979428360073
 22
3980.0616586021351
 32
0.0
 13
738.26979428360073
 23
3980.0616586021351
 33
0.0
  0
SOLID
  5
17F4E7
  8
0
  6
BYBLOCK
 62
     4
 10
733.22887698661066
 20
3984.9441940915021
 30
0.0
 11
732.58608937692418
 21
3984.1781496483818
 31
0.0
 12
735.20561651112428
 22
3982.632809040882
 32
0.0
 13
735.20561651112428
 23
3982.632809040882
 33
0.0
  0
POINT
  5
17F4E8
  8
DEFPOINTS
  6
BYBLOCK
 62
     0
 10
734.90133674966592
 20
3976.0472872345681
 30
0.0
  0
POINT
  5
17F4E9
  8
DEFPOINTS
  6
BYBLOCK
 62
     0
 10
731.83715897718957
 20
3978.618437673314
 30
0.0
  0
POINT
  5
17F4EA
  8
DEFPOINTS
  6
BYBLOCK
 62
     0
 10
735.20561651112428
 20
3982.632809040882
 30
0.0
  0
ENDBLK
  5
17F4EB
  8
0
  0
BLOCK
  8
0
  2
*D12
 70
     1
 10
0.0
 20
0.0
 30
0.0
  3
*D12
  1

  0
LINE
  5
17F4BD
  8
0
  6
BYBLOCK
 62
     4
 10
635.81661851000274
 20
3982.1119154049002
 30
0.0
 11
539.26870122680805
 21
3982.1119154049002
 31
0.0
  0
LINE
  5
17F4BE
  8
0
  6
BYBLOCK
 62
     4
 10
625.7837635100027
 20
3943.7172864048998
 30
0.0
 11
539.26870122680805
 21
3943.7172864048998
 31
0.0
  0
LINE
  5
17F4BF
  8
0
  6
BYBLOCK
 62
     4
 10
541.068701226808
 20
3979.1119154048988
 30
0.0
 11
541.068701226808
 21
3966.9146009049
 31
0.0
  0
LINE
  5
17F4C0
  8
0
  6
BYBLOCK
 62
     4
 10
541.068701226808
 20
3946.7172864048998
 30
0.0
 11
541.068701226808
 21
3958.9146009048991
 31
0.0
  0
SOLID
  5
17F4C1
  8
0
  6
BYBLOCK
 62
     4
 10
540.568701226808
 20
3979.1119154048988
 30
0.0
 11
541.568701226808
 21
3979.1119154048988
 31
0.0
 12
541.068701226808
 22
3982.1119154049002
 32
0.0
 13
541.068701226808
 23
3982.1119154049002
 33
0.0
  0
SOLID
  5
17F4C2
  8
0
  6
BYBLOCK
 62
     4
 10
540.568701226808
 20
3946.7172864048998
 30
0.0
 11
541.568701226808
 21
3946.7172864048998
 31
0.0
 12
541.068701226808
 22
3943.7172864048998
 32
0.0
 13
541.068701226808
 23
3943.7172864048998
 33
0.0
  0
TEXT
  5
17F4C3
  8
0
  6
BYBLOCK
 62
    90
 10
529.56870122680789
 20
3960.9146009049
 30
0.0
 40
4.0
  1
38.4
  7
MONOTXT
  0
TEXT
  5
17FA1E
  8
0
  6
BYBLOCK
 62
    90
 10
545.568701226808
 20
3961.9146009049
 30
0.0
 40
2.0
  1
%%p0.1
  7
MONOTXT
1001
ACAD
1000
R13OBJECT
1002
{
1005
17F4C3
1002
}
  0
POINT
  5
17F4C4
  8
DEFPOINTS
  6
BYBLOCK
 62
     0
 10
637.31661851000274
 20
3982.1119154049002
 30
0.0
  0
POINT
  5
17F4C5
  8
DEFPOINTS
  6
BYBLOCK
 62
     0
 10
627.28376351000259
 20
3943.7172864048998
 30
0.0
  0
POINT
  5
17F4C6
  8
DEFPOINTS
  6
BYBLOCK
 62
     0
 10
541.068701226808
 20
3943.7172864048998
 30
0.0
  0
ENDBLK
  5
17F4C7
  8
0
  0
BLOCK
  8
0
  2
*D13
 70
     1
 10
0.0
 20
0.0
 30
0.0
  3
*D13
  1

  0
LINE
  5
17F37A
  8
0
  6
BYBLOCK
 62
     4
 10
555.84817151000266
 20
3953.7155074049001
 30
0.0
 11
555.84817151000266
 21
3925.6706560460789
 31
0.0
  0
LINE
  5
17F37B
  8
0
  6
BYBLOCK
 62
     4
 10
590.84817151000277
 20
3947.7155074048992
 30
0.0
 11
590.84817151000277
 21
3925.6706560460789
 31
0.0
  0
LINE
  5
17F37C
  8
0
  6
BYBLOCK
 62
     4
 10
552.84817151000266
 20
3927.4706560460791
 30
0.0
 11
549.84817151000277
 21
3927.4706560460791
 31
0.0
  0
LINE
  5
17F37D
  8
0
  6
BYBLOCK
 62
     4
 10
593.84817151000266
 20
3927.4706560460791
 30
0.0
 11
596.84817151000266
 21
3927.4706560460791
 31
0.0
  0
SOLID
  5
17F37E
  8
0
  6
BYBLOCK
 62
     4
 10
552.84817151000266
 20
3927.9706560460791
 30
0.0
 11
552.84817151000266
 21
3926.9706560460791
 31
0.0
 12
555.84817151000266
 22
3927.4706560460791
 32
0.0
 13
555.84817151000266
 23
3927.4706560460791
 33
0.0
  0
SOLID
  5
17F37F
  8
0
  6
BYBLOCK
 62
     4
 10
593.84817151000266
 20
3927.9706560460791
 30
0.0
 11
593.84817151000266
 21
3926.9706560460791
 31
0.0
 12
590.84817151000277
 22
3927.4706560460791
 32
0.0
 13
590.84817151000277
 23
3927.4706560460791
 33
0.0
  0
TEXT
  5
17F380
  8
0
  6
BYBLOCK
 62
    90
 10
561.84817151000277
 20
3925.4706560460791
 30
0.0
 40
4.0
  1
35.0
  7
MONOTXT
  0
TEXT
  5
17FA1F
  8
0
  6
BYBLOCK
 62
    90
 10
577.84817151000266
 20
3926.47065604608
 30
0.0
 40
2.0
  1
%%p0.1
  7
MONOTXT
1001
ACAD
1000
R13OBJECT
1002
{
1005
17F380
1002
}
  0
POINT
  5
17F381
  8
DEFPOINTS
  6
BYBLOCK
 62
     0
 10
555.84817151000266
 20
3955.2155074049001
 30
0.0
  0
POINT
  5
17F382
  8
DEFPOINTS
  6
BYBLOCK
 62
     0
 10
590.84817151000277
 20
3949.2155074049001
 30
0.0
  0
POINT
  5
17F383
  8
DEFPOINTS
  6
BYBLOCK
 62
     0
 10
590.84817151000277
 20
3927.4706560460791
 30
0.0
  0
ENDBLK
  5
17F384
  8
0
  0
BLOCK
  8
0
  2
*D14
 70
     1
 10
0.0
 20
0.0
 30
0.0
  3
*D14
  1

  0
LINE
  5
17F386
  8
0
  6
BYBLOCK
 62
     4
 10
555.84817151000266
 20
3953.7155074049001
 30
0.0
 11
555.84817151000266
 21
3919.276448094301
 31
0.0
  0
LINE
  5
17F387
  8
0
  6
BYBLOCK
 62
     4
 10
617.84817151000266
 20
3956.7155074049001
 30
0.0
 11
617.84817151000266
 21
3919.276448094301
 31
0.0
  0
LINE
  5
17F388
  8
0
  6
BYBLOCK
 62
     4
 10
558.84817151000266
 20
3921.0764480942998
 30
0.0
 11
573.34817151000254
 21
3921.0764480942998
 31
0.0
  0
LINE
  5
17F389
  8
0
  6
BYBLOCK
 62
     4
 10
614.84817151000266
 20
3921.0764480942998
 30
0.0
 11
600.34817151000266
 21
3921.0764480942998
 31
0.0
  0
SOLID
  5
17F38A
  8
0
  6
BYBLOCK
 62
     4
 10
558.84817151000266
 20
3921.5764480942998
 30
0.0
 11
558.84817151000266
 21
3920.5764480942998
 31
0.0
 12
555.84817151000266
 22
3921.0764480942998
 32
0.0
 13
555.84817151000266
 23
3921.0764480942998
 33
0.0
  0
SOLID
  5
17F38B
  8
0
  6
BYBLOCK
 62
     4
 10
614.84817151000266
 20
3921.5764480942998
 30
0.0
 11
614.84817151000266
 21
3920.5764480942998
 31
0.0
 12
617.84817151000266
 22
3921.0764480942998
 32
0.0
 13
617.84817151000266
 23
3921.0764480942998
 33
0.0
  0
TEXT
  5
17F38C
  8
0
  6
BYBLOCK
 62
    90
 10
575.34817151000266
 20
3919.0764480942998
 30
0.0
 40
4.0
  1
62.0
  7
MONOTXT
  0
TEXT
  5
17FA20
  8
0
  6
BYBLOCK
 62
    90
 10
591.34817151000277
 20
3920.0764480942998
 30
0.0
 40
2.0
  1
%%p0.1
  7
MONOTXT
1001
ACAD
1000
R13OBJECT
1002
{
1005
17F38C
1002
}
  0
POINT
  5
17F38D
  8
DEFPOINTS
  6
BYBLOCK
 62
     0
 10
555.84817151000266
 20
3955.2155074049001
 30
0.0
  0
POINT
  5
17F38E
  8
DEFPOINTS
  6
BYBLOCK
 62
     0
 10
617.84817151000266
 20
3958.2155074049001
 30
0.0
  0
POINT
  5
17F38F
  8
DEFPOINTS
  6
BYBLOCK
 62
     0
 10
617.84817151000266
 20
3921.0764480942998
 30
0.0
  0
ENDBLK
  5
17F390
  8
0
  0
BLOCK
  8
0
  2
*D15
 70
     1
 10
0.0
 20
0.0
 30
0.0
  3
*D15
  1

  0
LINE
  5
17F392
  8
0
  6
BYBLOCK
 62
     4
 10
555.84817151000266
 20
3953.7155074049001
 30
0.0
 11
555.84817151000266
 21
3909.4719965503518
 31
0.0
  0
LINE
  5
17F393
  8
0
  6
BYBLOCK
 62
     4
 10
629.84817151000266
 20
3956.7155074049001
 30
0.0
 11
629.84817151000266
 21
3909.4719965503518
 31
0.0
  0
LINE
  5
17F394
  8
0
  6
BYBLOCK
 62
     4
 10
558.84817151000266
 20
3911.271996550352
 30
0.0
 11
579.34817151000266
 21
3911.271996550352
 31
0.0
  0
LINE
  5
17F395
  8
0
  6
BYBLOCK
 62
     4
 10
626.84817151000266
 20
3911.271996550352
 30
0.0
 11
606.34817151000254
 21
3911.271996550352
 31
0.0
  0
SOLID
  5
17F396
  8
0
  6
BYBLOCK
 62
     4
 10
558.84817151000266
 20
3911.7719965503529
 30
0.0
 11
558.84817151000266
 21
3910.7719965503529
 31
0.0
 12
555.84817151000266
 22
3911.271996550352
 32
0.0
 13
555.84817151000266
 23
3911.271996550352
 33
0.0
  0
SOLID
  5
17F397
  8
0
  6
BYBLOCK
 62
     4
 10
626.84817151000266
 20
3911.7719965503529
 30
0.0
 11
626.84817151000266
 21
3910.7719965503529
 31
0.0
 12
629.84817151000266
 22
3911.271996550352
 32
0.0
 13
629.84817151000266
 23
3911.271996550352
 33
0.0
  0
TEXT
  5
17F398
  8
0
  6
BYBLOCK
 62
    90
 10
581.34817151000266
 20
3909.2719965503529
 30
0.0
 40
4.0
  1
74.0
  7
MONOTXT
  0
TEXT
  5
17FA21
  8
0
  6
BYBLOCK
 62
    90
 10
597.34817151000266
 20
3910.2719965503529
 30
0.0
 40
2.0
  1
%%p0.1
  7
MONOTXT
1001
ACAD
1000
R13OBJECT
1002
{
1005
17F398
1002
}
  0
POINT
  5
17F399
  8
DEFPOINTS
  6
BYBLOCK
 62
     0
 10
555.84817151000266
 20
3955.2155074049001
 30
0.0
  0
POINT
  5
17F39A
  8
DEFPOINTS
  6
BYBLOCK
 62
     0
 10
629.84817151000266
 20
3958.2155074049001
 30
0.0
  0
POINT
  5
17F39B
  8
DEFPOINTS
  6
BYBLOCK
 62
     0
 10
629.84817151000266
 20
3911.271996550352
 30
0.0
  0
ENDBLK
  5
17F39C
  8
0
  0
BLOCK
  8
0
  2
*D16
 70
     1
 10
0.0
 20
0.0
 30
0.0
  3
*D16
  1

  0
LINE
  5
17F39E
  8
0
  6
BYBLOCK
 62
     4
 10
555.84817151000266
 20
3953.7155074049001
 30
0.0
 11
555.84817151000266
 21
3902.2252279708568
 31
0.0
  0
LINE
  5
17F39F
  8
0
  6
BYBLOCK
 62
     4
 10
662.84817151000266
 20
3956.7155074049001
 30
0.0
 11
662.84817151000266
 21
3902.2252279708568
 31
0.0
  0
LINE
  5
17F3A0
  8
0
  6
BYBLOCK
 62
     4
 10
558.84817151000266
 20
3904.025227970857
 30
0.0
 11
593.84817151000266
 21
3904.025227970857
 31
0.0
  0
LINE
  5
17F3A1
  8
0
  6
BYBLOCK
 62
     4
 10
659.84817151000266
 20
3904.025227970857
 30
0.0
 11
624.84817151000277
 21
3904.025227970857
 31
0.0
  0
SOLID
  5
17F3A2
  8
0
  6
BYBLOCK
 62
     4
 10
558.84817151000266
 20
3904.5252279708561
 30
0.0
 11
558.84817151000266
 21
3903.5252279708561
 31
0.0
 12
555.84817151000266
 22
3904.025227970857
 32
0.0
 13
555.84817151000266
 23
3904.025227970857
 33
0.0
  0
SOLID
  5
17F3A3
  8
0
  6
BYBLOCK
 62
     4
 10
659.84817151000266
 20
3904.5252279708561
 30
0.0
 11
659.84817151000266
 21
3903.5252279708561
 31
0.0
 12
662.84817151000266
 22
3904.025227970857
 32
0.0
 13
662.84817151000266
 23
3904.025227970857
 33
0.0
  0
TEXT
  5
17F3A4
  8
0
  6
BYBLOCK
 62
    90
 10
595.84817151000266
 20
3902.0252279708561
 30
0.0
 40
4.0
  1
107.0
  7
MONOTXT
  0
TEXT
  5
17FA22
  8
0
  6
BYBLOCK
 62
    90
 10
615.84817151000277
 20
3903.025227970857
 30
0.0
 40
2.0
  1
%%p0.1
  7
MONOTXT
1001
ACAD
1000
R13OBJECT
1002
{
1005
17F3A4
1002
}
  0
POINT
  5
17F3A5
  8
DEFPOINTS
  6
BYBLOCK
 62
     0
 10
555.84817151000266
 20
3955.2155074049001
 30
0.0
  0
POINT
  5
17F3A6
  8
DEFPOINTS
  6
BYBLOCK
 62
     0
 10
662.84817151000266
 20
3958.2155074049001
 30
0.0
  0
POINT
  5
17F3A7
  8
DEFPOINTS
  6
BYBLOCK
 62
     0
 10
662.84817151000266
 20
3904.025227970857
 30
0.0
  0
ENDBLK
  5
17F3A8
  8
0
  0
BLOCK
  8
0
  2
*D17
 70
     1
 10
0.0
 20
0.0
 30
0.0
  3
*D17
  1

  0
LINE
  5
17F3AA
  8
0
  6
BYBLOCK
 62
     4
 10
555.84817151000266
 20
3953.7155074049001
 30
0.0
 11
555.84817151000266
 21
3893.2733370546262
 31
0.0
  0
LINE
  5
17F3AB
  8
0
  6
BYBLOCK
 62
     4
 10
674.84817151000277
 20
3956.7155074049001
 30
0.0
 11
674.84817151000277
 21
3893.2733370546262
 31
0.0
  0
LINE
  5
17F3AC
  8
0
  6
BYBLOCK
 62
     4
 10
558.84817151000266
 20
3895.0733370546259
 30
0.0
 11
599.84817151000277
 21
3895.0733370546259
 31
0.0
  0
LINE
  5
17F3AD
  8
0
  6
BYBLOCK
 62
     4
 10
671.84817151000266
 20
3895.0733370546259
 30
0.0
 11
630.84817151000266
 21
3895.0733370546259
 31
0.0
  0
SOLID
  5
17F3AE
  8
0
  6
BYBLOCK
 62
     4
 10
558.84817151000266
 20
3895.5733370546259
 30
0.0
 11
558.84817151000266
 21
3894.5733370546259
 31
0.0
 12
555.84817151000266
 22
3895.0733370546259
 32
0.0
 13
555.84817151000266
 23
3895.0733370546259
 33
0.0
  0
SOLID
  5
17F3AF
  8
0
  6
BYBLOCK
 62
     4
 10
671.84817151000266
 20
3895.5733370546259
 30
0.0
 11
671.84817151000266
 21
3894.5733370546259
 31
0.0
 12
674.84817151000277
 22
3895.0733370546259
 32
0.0
 13
674.84817151000277
 23
3895.0733370546259
 33
0.0
  0
TEXT
  5
17F3B0
  8
0
  6
BYBLOCK
 62
    90
 10
601.84817151000266
 20
3893.0733370546259
 30
0.0
 40
4.0
  1
119.0
  7
MONOTXT
  0
TEXT
  5
17FA23
  8
0
  6
BYBLOCK
 62
    90
 10
621.84817151000266
 20
3894.0733370546259
 30
0.0
 40
2.0
  1
%%p0.1
  7
MONOTXT
1001
ACAD
1000
R13OBJECT
1002
{
1005
17F3B0
1002
}
  0
POINT
  5
17F3B1
  8
DEFPOINTS
  6
BYBLOCK
 62
     0
 10
555.84817151000266
 20
3955.2155074049001
 30
0.0
  0
POINT
  5
17F3B2
  8
DEFPOINTS
  6
BYBLOCK
 62
     0
 10
674.84817151000277
 20
3958.2155074049001
 30
0.0
  0
POINT
  5
17F3B3
  8
DEFPOINTS
  6
BYBLOCK
 62
     0
 10
674.84817151000277
 20
3895.0733370546259
 30
0.0
  0
ENDBLK
  5
17F3B4
  8
0
  0
BLOCK
  8
0
  2
*D18
 70
     1
 10
0.0
 20
0.0
 30
0.0
  3
*D18
  1

  0
LINE
  5
17F3B6
  8
0
  6
BYBLOCK
 62
     4
 10
555.84817151000266
 20
3953.7155074049001
 30
0.0
 11
555.84817151000266
 21
3884.747726452254
 31
0.0
  0
LINE
  5
17F3B7
  8
0
  6
BYBLOCK
 62
     4
 10
690.84817151000277
 20
3973.7155074049001
 30
0.0
 11
690.84817151000277
 21
3884.747726452254
 31
0.0
  0
LINE
  5
17F3B8
  8
0
  6
BYBLOCK
 62
     4
 10
558.84817151000266
 20
3886.5477264522551
 30
0.0
 11
607.84817151000277
 21
3886.5477264522551
 31
0.0
  0
LINE
  5
17F3B9
  8
0
  6
BYBLOCK
 62
     4
 10
687.84817151000266
 20
3886.5477264522551
 30
0.0
 11
638.84817151000266
 21
3886.5477264522551
 31
0.0
  0
SOLID
  5
17F3BA
  8
0
  6
BYBLOCK
 62
     4
 10
558.84817151000266
 20
3887.0477264522542
 30
0.0
 11
558.84817151000266
 21
3886.0477264522542
 31
0.0
 12
555.84817151000266
 22
3886.5477264522551
 32
0.0
 13
555.84817151000266
 23
3886.5477264522551
 33
0.0
  0
SOLID
  5
17F3BB
  8
0
  6
BYBLOCK
 62
     4
 10
687.84817151000266
 20
3887.0477264522542
 30
0.0
 11
687.84817151000266
 21
3886.0477264522542
 31
0.0
 12
690.84817151000277
 22
3886.5477264522551
 32
0.0
 13
690.84817151000277
 23
3886.5477264522551
 33
0.0
  0
TEXT
  5
17F3BC
  8
0
  6
BYBLOCK
 62
    90
 10
609.84817151000266
 20
3884.5477264522542
 30
0.0
 40
4.0
  1
135.0
  7
MONOTXT
  0
TEXT
  5
17FA24
  8
0
  6
BYBLOCK
 62
    90
 10
629.84817151000266
 20
3885.5477264522542
 30
0.0
 40
2.0
  1
%%p0.1
  7
MONOTXT
1001
ACAD
1000
R13OBJECT
1002
{
1005
17F3BC
1002
}
  0
POINT
  5
17F3BD
  8
DEFPOINTS
  6
BYBLOCK
 62
     0
 10
555.84817151000266
 20
3955.2155074049001
 30
0.0
  0
POINT
  5
17F3BE
  8
DEFPOINTS
  6
BYBLOCK
 62
     0
 10
690.84817151000277
 20
3975.2155074049001
 30
0.0
  0
POINT
  5
17F3BF
  8
DEFPOINTS
  6
BYBLOCK
 62
     0
 10
690.84817151000277
 20
3886.5477264522551
 30
0.0
  0
ENDBLK
  5
17F3C0
  8
0
  0
BLOCK
  8
0
  2
*D19
 70
     1
 10
0.0
 20
0.0
 30
0.0
  3
*D19
  1

  0
LINE
  5
17F3C2
  8
0
  6
BYBLOCK
 62
     4
 10
555.84817151000266
 20
3953.7155074049001
 30
0.0
 11
555.84817151000266
 21
3877.0229389812489
 31
0.0
  0
LINE
  5
17F3C3
  8
0
  6
BYBLOCK
 62
     4
 10
713.84817151000266
 20
3971.7155074049001
 30
0.0
 11
713.84817151000266
 21
3877.0229389812489
 31
0.0
  0
LINE
  5
17F3C4
  8
0
  6
BYBLOCK
 62
     4
 10
558.84817151000266
 20
3878.8229389812491
 30
0.0
 11
619.34817151000266
 21
3878.8229389812491
 31
0.0
  0
LINE
  5
17F3C5
  8
0
  6
BYBLOCK
 62
     4
 10
710.84817151000266
 20
3878.8229389812491
 30
0.0
 11
650.34817151000266
 21
3878.8229389812491
 31
0.0
  0
SOLID
  5
17F3C6
  8
0
  6
BYBLOCK
 62
     4
 10
558.84817151000266
 20
3879.32293898125
 30
0.0
 11
558.84817151000266
 21
3878.32293898125
 31
0.0
 12
555.84817151000266
 22
3878.8229389812491
 32
0.0
 13
555.84817151000266
 23
3878.8229389812491
 33
0.0
  0
SOLID
  5
17F3C7
  8
0
  6
BYBLOCK
 62
     4
 10
710.84817151000266
 20
3879.32293898125
 30
0.0
 11
710.84817151000266
 21
3878.32293898125
 31
0.0
 12
713.84817151000266
 22
3878.8229389812491
 32
0.0
 13
713.84817151000266
 23
3878.8229389812491
 33
0.0
  0
TEXT
  5
17F3C8
  8
0
  6
BYBLOCK
 62
    90
 10
621.34817151000266
 20
3876.82293898125
 30
0.0
 40
4.0
  1
158.0
  7
MONOTXT
  0
TEXT
  5
17FA25
  8
0
  6
BYBLOCK
 62
    90
 10
641.34817151000277
 20
3877.82293898125
 30
0.0
 40
2.0
  1
%%p0.1
  7
MONOTXT
1001
ACAD
1000
R13OBJECT
1002
{
1005
17F3C8
1002
}
  0
POINT
  5
17F3C9
  8
DEFPOINTS
  6
BYBLOCK
 62
     0
 10
555.84817151000266
 20
3955.2155074049001
 30
0.0
  0
POINT
  5
17F3CA
  8
DEFPOINTS
  6
BYBLOCK
 62
     0
 10
713.84817151000266
 20
3973.2155074049001
 30
0.0
  0
POINT
  5
17F3CB
  8
DEFPOINTS
  6
BYBLOCK
 62
     0
 10
713.84817151000266
 20
3878.8229389812491
 30
0.0
  0
ENDBLK
  5
17F3CC
  8
0
  0
BLOCK
  8
0
  2
*D20
 70
     1
 10
0.0
 20
0.0
 30
0.0
  3
*D20
  1

  0
LINE
  5
17F3CE
  8
0
  6
BYBLOCK
 62
     4
 10
555.84817151000266
 20
3953.7155074049001
 30
0.0
 11
555.84817151000266
 21
3937.5547716629699
 31
0.0
  0
LINE
  5
17F3CF
  8
0
  6
BYBLOCK
 62
     4
 10
561.28707549906244
 20
3947.0271651136281
 30
0.0
 11
561.28707549906244
 21
3937.5547716629699
 31
0.0
  0
LINE
  5
17F3D0
  8
0
  6
BYBLOCK
 62
     4
 10
552.84817151000266
 20
3939.354771662971
 30
0.0
 11
549.84817151000277
 21
3939.354771662971
 31
0.0
  0
LINE
  5
17F3D1
  8
0
  6
BYBLOCK
 62
     4
 10
564.28707549906244
 20
3939.354771662971
 30
0.0
 11
567.28707549906244
 21
3939.354771662971
 31
0.0
  0
TEXT
  5
17F3D2
  8
0
  6
BYBLOCK
 62
    90
 10
549.06762350453255
 20
3930.5547716629699
 30
0.0
 40
4.0
  1
5.4
  7
MONOTXT
  0
TEXT
  5
17FA26
  8
0
  6
BYBLOCK
 62
    90
 10
561.06762350453255
 20
3931.5547716629699
 30
0.0
 40
2.0
  1
%%p0.1
  7
MONOTXT
1001
ACAD
1000
R13OBJECT
1002
{
1005
17F3D2
1002
}
  0
LINE
  5
17F3D3
  8
0
  6
BYBLOCK
 62
     4
 10
555.84817151000266
 20
3939.354771662971
 30
0.0
 11
561.28707549906244
 21
3939.354771662971
 31
0.0
  0
SOLID
  5
17F3D4
  8
0
  6
BYBLOCK
 62
     4
 10
552.84817151000266
 20
3939.8547716629701
 30
0.0
 11
552.84817151000266
 21
3938.8547716629701
 31
0.0
 12
555.84817151000266
 22
3939.354771662971
 32
0.0
 13
555.84817151000266
 23
3939.354771662971
 33
0.0
  0
SOLID
  5
17F3D5
  8
0
  6
BYBLOCK
 62
     4
 10
564.28707549906244
 20
3939.8547716629701
 30
0.0
 11
564.28707549906244
 21
3938.8547716629701
 31
0.0
 12
561.28707549906244
 22
3939.354771662971
 32
0.0
 13
561.28707549906244
 23
3939.354771662971
 33
0.0
  0
POINT
  5
17F3D6
  8
DEFPOINTS
  6
BYBLOCK
 62
     0
 10
555.84817151000266
 20
3955.2155074049001
 30
0.0
  0
POINT
  5
17F3D7
  8
DEFPOINTS
  6
BYBLOCK
 62
     0
 10
561.28707549906244
 20
3948.5271651136281
 30
0.0
  0
POINT
  5
17F3D8
  8
DEFPOINTS
  6
BYBLOCK
 62
     0
 10
561.28707549906244
 20
3939.354771662971
 30
0.0
  0
ENDBLK
  5
17F3D9
  8
0
  0
BLOCK
  8
0
  2
*D21
 70
     1
 10
0.0
 20
0.0
 30
0.0
  3
*D21
  1

  0
LINE
  5
17F3DB
  8
0
  6
BYBLOCK
 62
     4
 10
555.84817151000266
 20
3953.7155074049001
 30
0.0
 11
555.84817151000266
 21
3868.4973283788781
 31
0.0
  0
LINE
  5
17F3DC
  8
0
  6
BYBLOCK
 62
     4
 10
761.87813532885718
 20
3926.054127801613
 30
0.0
 11
761.87813532885718
 21
3868.4973283788781
 31
0.0
  0
LINE
  5
17F3DD
  8
0
  6
BYBLOCK
 62
     4
 10
558.84817151000266
 20
3870.2973283788779
 30
0.0
 11
643.36315341943009
 21
3870.2973283788779
 31
0.0
  0
LINE
  5
17F3DE
  8
0
  6
BYBLOCK
 62
     4
 10
758.8781353288573
 20
3870.2973283788779
 30
0.0
 11
674.36315341942998
 21
3870.2973283788779
 31
0.0
  0
SOLID
  5
17F3DF
  8
0
  6
BYBLOCK
 62
     4
 10
558.84817151000266
 20
3870.7973283788779
 30
0.0
 11
558.84817151000266
 21
3869.7973283788779
 31
0.0
 12
555.84817151000266
 22
3870.2973283788779
 32
0.0
 13
555.84817151000266
 23
3870.2973283788779
 33
0.0
  0
SOLID
  5
17F3E0
  8
0
  6
BYBLOCK
 62
     4
 10
758.8781353288573
 20
3870.7973283788779
 30
0.0
 11
758.8781353288573
 21
3869.7973283788779
 31
0.0
 12
761.87813532885718
 22
3870.2973283788779
 32
0.0
 13
761.87813532885718
 23
3870.2973283788779
 33
0.0
  0
TEXT
  5
17F3E1
  8
0
  6
BYBLOCK
 62
    90
 10
645.36315341942998
 20
3868.2973283788779
 30
0.0
 40
4.0
  1
206.0
  7
MONOTXT
  0
TEXT
  5
17FA27
  8
0
  6
BYBLOCK
 62
    90
 10
665.36315341943009
 20
3869.2973283788779
 30
0.0
 40
2.0
  1
%%p0.1
  7
MONOTXT
1001
ACAD
1000
R13OBJECT
1002
{
1005
17F3E1
1002
}
  0
POINT
  5
17F3E2
  8
DEFPOINTS
  6
BYBLOCK
 62
     0
 10
555.84817151000266
 20
3955.2155074049001
 30
0.0
  0
POINT
  5
17F3E3
  8
DEFPOINTS
  6
BYBLOCK
 62
     0
 10
761.87813532885718
 20
3927.554127801613
 30
0.0
  0
POINT
  5
17F3E4
  8
DEFPOINTS
  6
BYBLOCK
 62
     0
 10
761.87813532885718
 20
3870.2973283788779
 30
0.0
  0
ENDBLK
  5
17F3E5
  8
0
  0
BLOCK
  8
0
  2
*D22
 70
     1
 10
0.0
 20
0.0
 30
0.0
  3
*D22
  1

  0
ARC
  5
17F3E7
  8
0
  6
BYBLOCK
 62
     4
 10
714.8105833991583
 20
3955.2155074048992
 30
0.0
 40
21.55639348481127
 50
7.9802939500041399
 51
42.01970604999542
  0
SOLID
  5
17F3E8
  8
0
  6
BYBLOCK
 62
     4
 10
736.65701012798331
 20
3958.2430279609589
 30
0.0
 11
735.65943409661156
 21
3958.173443037068
 31
0.0
 12
736.36697688396976
 22
3955.2155074048992
 32
0.0
 13
736.36697688396976
 23
3955.2155074048992
 33
0.0
  0
SOLID
  5
17F3E9
  8
0
  6
BYBLOCK
 62
     4
 10
730.47787645781284
 20
3969.285329252491
 30
0.0
 11
731.17241111477006
 21
3970.0047885010149
 31
0.0
 12
728.66676604072268
 22
3971.728662847624
 32
0.0
 13
728.66676604072268
 23
3971.728662847624
 33
0.0
  0
TEXT
  5
17F3EA
  8
0
  6
BYBLOCK
 62
    90
 10
734.45072297517652
 20
3973.5686708877829
 30
0.0
 40
4.0
  1
50%%d
 50
294.99999999999881
  7
MONOTXT
  0
TEXT
  5
17FA28
  8
0
  6
BYBLOCK
 62
    90
 10
740.4284499031013
 20
3963.1155957050842
 30
0.0
 40
2.0
  1
%%p0%%d
 50
294.99999999999881
  7
MONOTXT
1001
ACAD
1000
R13OBJECT
1002
{
1005
17F3EA
1002
}
  0
POINT
  5
17F3EB
  8
DEFPOINTS
  6
BYBLOCK
 62
     0
 10
735.46138228095333
 20
3961.3979507419349
 30
0.0
  0
POINT
  5
17F3EC
  8
DEFPOINTS
  6
BYBLOCK
 62
     0
 10
552.84817151000289
 20
3955.2155074048992
 30
0.0
  0
POINT
  5
17F3ED
  8
DEFPOINTS
  6
BYBLOCK
 62
     0
 10
709.15612052972051
 20
3948.4767809660561
 30
0.0
  0
POINT
  5
17F3EE
  8
DEFPOINTS
  6
BYBLOCK
 62
     0
 10
740.58351888205505
 20
3985.930495858338
 30
0.0
  0
POINT
  5
17F3EF
  8
DEFPOINTS
  6
BYBLOCK
 62
     0
 10
808.14920708597913
 20
3955.2155074048992
 30
0.0
  0
ENDBLK
  5
17F3F0
  8
0
  0
BLOCK
  8
0
  2
*D23
 70
     1
 10
0.0
 20
0.0
 30
0.0
  3
*D23
  1

  0
LINE
  5
17F3F2
  8
0
  6
BYBLOCK
 62
     4
 10
712.34817151000277
 20
3973.2155074049001
 30
0.0
 11
706.01024355240281
 21
3973.2155074049001
 31
0.0
  0
LINE
  5
17F3F3
  8
0
  6
BYBLOCK
 62
     4
 10
712.34817151000277
 20
3955.2155074049001
 30
0.0
 11
706.01024355240281
 21
3955.2155074049001
 31
0.0
  0
LINE
  5
17F3F4
  8
0
  6
BYBLOCK
 62
     4
 10
707.81024355240265
 20
3970.2155074049001
 30
0.0
 11
707.81024355240265
 21
3958.2155074049001
 31
0.0
  0
TEXT
  5
17F3F5
  8
0
  6
BYBLOCK
 62
    90
 10
703.01024355240281
 20
3952.7155074049001
 30
0.0
 40
4.0
  1
18.0
 50
90.0
  7
MONOTXT
  0
TEXT
  5
17FA29
  8
0
  6
BYBLOCK
 62
    90
 10
702.01024355240281
 20
3968.7155074049001
 30
0.0
 40
2.0
  1
%%p0.1
 50
90.0
  7
MONOTXT
1001
ACAD
1000
R13OBJECT
1002
{
1005
17F3F5
1002
}
  0
SOLID
  5
17F3F6
  8
0
  6
BYBLOCK
 62
     4
 10
707.31024355240265
 20
3970.2155074049001
 30
0.0
 11
708.31024355240265
 21
3970.2155074049001
 31
0.0
 12
707.81024355240265
 22
3973.2155074049001
 32
0.0
 13
707.81024355240265
 23
3973.2155074049001
 33
0.0
  0
SOLID
  5
17F3F7
  8
0
  6
BYBLOCK
 62
     4
 10
707.31024355240265
 20
3958.2155074049001
 30
0.0
 11
708.31024355240265
 21
3958.2155074049001
 31
0.0
 12
707.81024355240265
 22
3955.2155074049001
 32
0.0
 13
707.81024355240265
 23
3955.2155074049001
 33
0.0
  0
POINT
  5
17F3F8
  8
DEFPOINTS
  6
BYBLOCK
 62
     0
 10
713.84817151000266
 20
3973.2155074049001
 30
0.0
  0
POINT
  5
17F3F9
  8
DEFPOINTS
  6
BYBLOCK
 62
     0
 10
713.84817151000266
 20
3955.2155074049001
 30
0.0
  0
POINT
  5
17F3FA
  8
DEFPOINTS
  6
BYBLOCK
 62
     0
 10
707.81024355240265
 20
3955.2155074049001
 30
0.0
  0
ENDBLK
  5
17F3FB
  8
0
  0
BLOCK
  8
0
  2
*D24
 70
     1
 10
0.0
 20
0.0
 30
0.0
  3
*D24
  1

  0
LINE
  5
17F3FD
  8
0
  6
BYBLOCK
 62
     4
 10
689.34817151000266
 20
3975.2155074049001
 30
0.0
 11
689.04817151000282
 21
3975.2155074049001
 31
0.0
  0
LINE
  5
17F3FE
  8
0
  6
BYBLOCK
 62
     4
 10
689.34817151000266
 20
3955.2155074049001
 30
0.0
 11
689.04817151000282
 21
3955.2155074049001
 31
0.0
  0
LINE
  5
17F3FF
  8
0
  6
BYBLOCK
 62
     4
 10
690.84817151000277
 20
3972.2155074049001
 30
0.0
 11
690.84817151000277
 21
3958.2155074049001
 31
0.0
  0
TEXT
  5
17F400
  8
0
  6
BYBLOCK
 62
    90
 10
686.04817151000282
 20
3953.7155074049001
 30
0.0
 40
4.0
  1
20.0
 50
90.0
  7
MONOTXT
  0
TEXT
  5
17FA2A
  8
0
  6
BYBLOCK
 62
    90
 10
685.04817151000282
 20
3969.7155074049001
 30
0.0
 40
2.0
  1
%%p0.1
 50
90.0
  7
MONOTXT
1001
ACAD
1000
R13OBJECT
1002
{
1005
17F400
1002
}
  0
SOLID
  5
17F401
  8
0
  6
BYBLOCK
 62
     4
 10
690.34817151000277
 20
3972.2155074049001
 30
0.0
 11
691.34817151000277
 21
3972.2155074049001
 31
0.0
 12
690.84817151000277
 22
3975.2155074049001
 32
0.0
 13
690.84817151000277
 23
3975.2155074049001
 33
0.0
  0
SOLID
  5
17F402
  8
0
  6
BYBLOCK
 62
     4
 10
690.34817151000277
 20
3958.2155074049001
 30
0.0
 11
691.34817151000277
 21
3958.2155074049001
 31
0.0
 12
690.84817151000277
 22
3955.2155074049001
 32
0.0
 13
690.84817151000277
 23
3955.2155074049001
 33
0.0
  0
POINT
  5
17F403
  8
DEFPOINTS
  6
BYBLOCK
 62
     0
 10
690.84817151000277
 20
3975.2155074049001
 30
0.0
  0
POINT
  5
17F404
  8
DEFPOINTS
  6
BYBLOCK
 62
     0
 10
690.84817151000277
 20
3955.2155074049001
 30
0.0
  0
POINT
  5
17F405
  8
DEFPOINTS
  6
BYBLOCK
 62
     0
 10
690.84817151000277
 20
3955.2155074049001
 30
0.0
  0
ENDBLK
  5
17F406
  8
0
  0
BLOCK
  8
0
  2
*D25
 70
     1
 10
0.0
 20
0.0
 30
0.0
  3
*D25
  1

  0
LINE
  5
17F408
  8
0
  6
BYBLOCK
 62
     4
 10
661.34817151000277
 20
3958.2155074049001
 30
0.0
 11
661.04817151000282
 21
3958.2155074049001
 31
0.0
  0
LINE
  5
17F409
  8
0
  6
BYBLOCK
 62
     4
 10
661.34817151000277
 20
3955.2155074049001
 30
0.0
 11
661.04817151000282
 21
3955.2155074049001
 31
0.0
  0
LINE
  5
17F40A
  8
0
  6
BYBLOCK
 62
     4
 10
662.84817151000266
 20
3961.2155074049001
 30
0.0
 11
662.84817151000266
 21
3964.2155074049001
 31
0.0
  0
LINE
  5
17F40B
  8
0
  6
BYBLOCK
 62
     4
 10
662.84817151000266
 20
3952.2155074049001
 30
0.0
 11
662.84817151000266
 21
3949.2155074049001
 31
0.0
  0
TEXT
  5
17F40C
  8
0
  6
BYBLOCK
 62
    90
 10
658.0481715100027
 20
3947.2155074049001
 30
0.0
 40
4.0
  1
3.0
 50
90.0
  7
MONOTXT
  0
TEXT
  5
17FA2B
  8
0
  6
BYBLOCK
 62
    90
 10
657.04817151000282
 20
3959.2155074049001
 30
0.0
 40
2.0
  1
%%p0.1
 50
90.0
  7
MONOTXT
1001
ACAD
1000
R13OBJECT
1002
{
1005
17F40C
1002
}
  0
LINE
  5
17F40D
  8
0
  6
BYBLOCK
 62
     4
 10
662.84817151000266
 20
3958.2155074049001
 30
0.0
 11
662.84817151000266
 21
3955.2155074049001
 31
0.0
  0
SOLID
  5
17F40E
  8
0
  6
BYBLOCK
 62
     4
 10
662.34817151000277
 20
3961.2155074049001
 30
0.0
 11
663.34817151000266
 21
3961.2155074049001
 31
0.0
 12
662.84817151000266
 22
3958.2155074049001
 32
0.0
 13
662.84817151000266
 23
3958.2155074049001
 33
0.0
  0
SOLID
  5
17F40F
  8
0
  6
BYBLOCK
 62
     4
 10
662.34817151000277
 20
3952.2155074049001
 30
0.0
 11
663.34817151000266
 21
3952.2155074049001
 31
0.0
 12
662.84817151000266
 22
3955.2155074049001
 32
0.0
 13
662.84817151000266
 23
3955.2155074049001
 33
0.0
  0
POINT
  5
17F410
  8
DEFPOINTS
  6
BYBLOCK
 62
     0
 10
662.84817151000266
 20
3958.2155074049001
 30
0.0
  0
POINT
  5
17F411
  8
DEFPOINTS
  6
BYBLOCK
 62
     0
 10
662.84817151000266
 20
3955.2155074049001
 30
0.0
  0
POINT
  5
17F412
  8
DEFPOINTS
  6
BYBLOCK
 62
     0
 10
662.84817151000266
 20
3955.2155074049001
 30
0.0
  0
ENDBLK
  5
17F413
  8
0
  0
BLOCK
  8
0
  2
*D26
 70
     1
 10
0.0
 20
0.0
 30
0.0
  3
*D26
  1

  0
LINE
  5
17F415
  8
0
  6
BYBLOCK
 62
     4
 10
661.34817151000277
 20
3976.2155074049001
 30
0.0
 11
650.38894671256276
 21
3976.2155074049001
 31
0.0
  0
LINE
  5
17F416
  8
0
  6
BYBLOCK
 62
     4
 10
661.34817151000277
 20
3955.2155074049001
 30
0.0
 11
650.38894671256276
 21
3955.2155074049001
 31
0.0
  0
LINE
  5
17F417
  8
0
  6
BYBLOCK
 62
     4
 10
652.18894671256282
 20
3973.2155074049001
 30
0.0
 11
652.18894671256282
 21
3958.2155074049001
 31
0.0
  0
TEXT
  5
17F418
  8
0
  6
BYBLOCK
 62
    90
 10
647.38894671256276
 20
3954.2155074049001
 30
0.0
 40
4.0
  1
21.0
 50
90.0
  7
MONOTXT
  0
TEXT
  5
17FA2C
  8
0
  6
BYBLOCK
 62
    90
 10
646.38894671256276
 20
3970.2155074049001
 30
0.0
 40
2.0
  1
%%p0.1
 50
90.0
  7
MONOTXT
1001
ACAD
1000
R13OBJECT
1002
{
1005
17F418
1002
}
  0
SOLID
  5
17F419
  8
0
  6
BYBLOCK
 62
     4
 10
651.68894671256282
 20
3973.2155074049001
 30
0.0
 11
652.68894671256282
 21
3973.2155074049001
 31
0.0
 12
652.18894671256282
 22
3976.2155074049001
 32
0.0
 13
652.18894671256282
 23
3976.2155074049001
 33
0.0
  0
SOLID
  5
17F41A
  8
0
  6
BYBLOCK
 62
     4
 10
651.68894671256282
 20
3958.2155074049001
 30
0.0
 11
652.68894671256282
 21
3958.2155074049001
 31
0.0
 12
652.18894671256282
 22
3955.2155074049001
 32
0.0
 13
652.18894671256282
 23
3955.2155074049001
 33
0.0
  0
POINT
  5
17F41B
  8
DEFPOINTS
  6
BYBLOCK
 62
     0
 10
662.84817151000266
 20
3976.2155074049001
 30
0.0
  0
POINT
  5
17F41C
  8
DEFPOINTS
  6
BYBLOCK
 62
     0
 10
662.84817151000266
 20
3955.2155074049001
 30
0.0
  0
POINT
  5
17F41D
  8
DEFPOINTS
  6
BYBLOCK
 62
     0
 10
652.18894671256282
 20
3955.2155074049001
 30
0.0
  0
ENDBLK
  5
17F41E
  8
0
  0
BLOCK
  8
0
  2
*D27
 70
     1
 10
0.0
 20
0.0
 30
0.0
  3
*D27
  1

  0
LINE
  5
17F420
  8
0
  6
BYBLOCK
 62
     4
 10
592.34817151000266
 20
3970.2155074049001
 30
0.0
 11
602.72062124565116
 21
3970.2155074049001
 31
0.0
  0
LINE
  5
17F421
  8
0
  6
BYBLOCK
 62
     4
 10
592.34817151000266
 20
3955.2155074049001
 30
0.0
 11
602.72062124565116
 21
3955.2155074049001
 31
0.0
  0
LINE
  5
17F422
  8
0
  6
BYBLOCK
 62
     4
 10
600.92062124565132
 20
3967.2155074049001
 30
0.0
 11
600.92062124565132
 21
3958.2155074049001
 31
0.0
  0
TEXT
  5
17F423
  8
0
  6
BYBLOCK
 62
    90
 10
609.72062124565116
 20
3951.2155074049001
 30
0.0
 40
4.0
  1
15.0
 50
90.0
  7
MONOTXT
  0
TEXT
  5
17FA2D
  8
0
  6
BYBLOCK
 62
    90
 10
608.72062124565116
 20
3967.2155074049001
 30
0.0
 40
2.0
  1
%%p0.1
 50
90.0
  7
MONOTXT
1001
ACAD
1000
R13OBJECT
1002
{
1005
17F423
1002
}
  0
SOLID
  5
17F424
  8
0
  6
BYBLOCK
 62
     4
 10
600.42062124565132
 20
3967.2155074049001
 30
0.0
 11
601.42062124565132
 21
3967.2155074049001
 31
0.0
 12
600.92062124565132
 22
3970.2155074049001
 32
0.0
 13
600.92062124565132
 23
3970.2155074049001
 33
0.0
  0
SOLID
  5
17F425
  8
0
  6
BYBLOCK
 62
     4
 10
600.42062124565132
 20
3958.2155074049001
 30
0.0
 11
601.42062124565132
 21
3958.2155074049001
 31
0.0
 12
600.92062124565132
 22
3955.2155074049001
 32
0.0
 13
600.92062124565132
 23
3955.2155074049001
 33
0.0
  0
POINT
  5
17F426
  8
DEFPOINTS
  6
BYBLOCK
 62
     0
 10
590.84817151000277
 20
3970.2155074049001
 30
0.0
  0
POINT
  5
17F427
  8
DEFPOINTS
  6
BYBLOCK
 62
     0
 10
590.84817151000277
 20
3955.2155074049001
 30
0.0
  0
POINT
  5
17F428
  8
DEFPOINTS
  6
BYBLOCK
 62
     0
 10
600.92062124565132
 20
3955.2155074049001
 30
0.0
  0
ENDBLK
  5
17F429
  8
0
  0
BLOCK
  8
0
  2
*D28
 70
     1
 10
0.0
 20
0.0
 30
0.0
  3
*D28
  1

  0
LINE
  5
17F42B
  8
0
  6
BYBLOCK
 62
     4
 10
589.34817151000266
 20
3949.2155074049001
 30
0.0
 11
584.12705419245924
 21
3949.2155074049001
 31
0.0
  0
LINE
  5
17F42C
  8
0
  6
BYBLOCK
 62
     4
 10
589.34817151000266
 20
3955.2155074049001
 30
0.0
 11
584.12705419245924
 21
3955.2155074049001
 31
0.0
  0
LINE
  5
17F42D
  8
0
  6
BYBLOCK
 62
     4
 10
585.92705419245908
 20
3946.2155074049001
 30
0.0
 11
585.92705419245908
 21
3943.2155074049001
 31
0.0
  0
LINE
  5
17F42E
  8
0
  6
BYBLOCK
 62
     4
 10
585.92705419245908
 20
3958.2155074049001
 30
0.0
 11
585.92705419245908
 21
3961.2155074049001
 31
0.0
  0
TEXT
  5
17F42F
  8
0
  6
BYBLOCK
 62
    90
 10
581.12705419245924
 20
3948.9103243248401
 30
0.0
 40
4.0
  1
6.0
 50
90.0
  7
MONOTXT
  0
TEXT
  5
17FA2E
  8
0
  6
BYBLOCK
 62
    90
 10
580.12705419245924
 20
3960.9103243248401
 30
0.0
 40
2.0
  1
%%p0.1
 50
90.0
  7
MONOTXT
1001
ACAD
1000
R13OBJECT
1002
{
1005
17F42F
1002
}
  0
LINE
  5
17F430
  8
0
  6
BYBLOCK
 62
     4
 10
585.92705419245908
 20
3949.2155074049001
 30
0.0
 11
585.92705419245908
 21
3955.2155074049001
 31
0.0
  0
SOLID
  5
17F431
  8
0
  6
BYBLOCK
 62
     4
 10
585.42705419245908
 20
3946.2155074049001
 30
0.0
 11
586.42705419245908
 21
3946.2155074049001
 31
0.0
 12
585.92705419245908
 22
3949.2155074049001
 32
0.0
 13
585.92705419245908
 23
3949.2155074049001
 33
0.0
  0
SOLID
  5
17F432
  8
0
  6
BYBLOCK
 62
     4
 10
585.42705419245908
 20
3958.2155074049001
 30
0.0
 11
586.42705419245908
 21
3958.2155074049001
 31
0.0
 12
585.92705419245908
 22
3955.2155074049001
 32
0.0
 13
585.92705419245908
 23
3955.2155074049001
 33
0.0
  0
POINT
  5
17F433
  8
DEFPOINTS
  6
BYBLOCK
 62
     0
 10
590.84817151000277
 20
3949.2155074049001
 30
0.0
  0
POINT
  5
17F434
  8
DEFPOINTS
  6
BYBLOCK
 62
     0
 10
590.84817151000277
 20
3955.2155074049001
 30
0.0
  0
POINT
  5
17F435
  8
DEFPOINTS
  6
BYBLOCK
 62
     0
 10
585.92705419245908
 20
3955.2155074049001
 30
0.0
  0
ENDBLK
  5
17F436
  8
0
  0
BLOCK
  8
0
  2
*D29
 70
     1
 10
0.0
 20
0.0
 30
0.0
  3
*D29
  1

  0
LINE
  5
17F4D6
  8
0
  6
BYBLOCK
 62
     4
 10
635.70563610243335
 20
3977.5155491536211
 30
0.0
 11
638.6343683986488
 21
3978.1655700279812
 31
0.0
  0
TEXT
  5
17F4D7
  8
0
  6
BYBLOCK
 62
    90
 10
628.63333484005057
 20
3988.7861265618581
 30
0.0
 40
4.0
  1
12x %%c6.0
  7
MONOTXT
  0
SOLID
  5
17F4D8
  8
0
  6
BYBLOCK
 62
     4
 10
623.8823701051781
 20
3975.4035877055499
 30
0.0
 11
624.09904372996493
 21
3974.4273436068111
 31
0.0
 12
626.91943921378709
 22
3975.5654865305401
 32
0.0
 13
626.91943921378709
 23
3975.5654865305401
 33
0.0
  0
SOLID
  5
17F4D9
  8
0
  6
BYBLOCK
 62
     4
 10
635.59729929003993
 20
3978.003671202991
 30
0.0
 11
635.81397291482665
 21
3977.0274271042522
 31
0.0
 12
632.77690380621777
 22
3976.8655282792611
 32
0.0
 13
632.77690380621777
 23
3976.8655282792611
 33
0.0
  0
LINE
  5
17F4DA
  8
0
  6
BYBLOCK
 62
     4
 10
629.34817151000232
 20
3976.215507404901
 30
0.0
 11
630.34817151000232
 21
3976.215507404901
 31
0.0
  0
LINE
  5
17F4DB
  8
0
  6
BYBLOCK
 62
     4
 10
629.84817151000232
 20
3975.715507404901
 30
0.0
 11
629.84817151000232
 21
3976.715507404901
 31
0.0
  0
POINT
  5
17F4DC
  8
DEFPOINTS
  6
BYBLOCK
 62
     0
 10
632.77690380621777
 20
3976.8655282792611
 30
0.0
  0
POINT
  5
17F4DD
  8
DEFPOINTS
  6
BYBLOCK
 62
     0
 10
626.91943921378709
 20
3975.5654865305401
 30
0.0
  0
ENDBLK
  5
17F4DE
  8
0
  0
BLOCK
  8
0
  2
*D30
 70
     1
 10
0.0
 20
0.0
 30
0.0
  3
*D30
  1

  0
LINE
  5
17F442
  8
0
  6
BYBLOCK
 62
     4
 10
633.37813532885707
 20
3943.7317705954538
 30
0.0
 11
636.66583701404215
 21
3943.7317705954538
 31
0.0
  0
LINE
  5
17F443
  8
0
  6
BYBLOCK
 62
     4
 10
633.37813532885718
 20
3952.2305709823272
 30
0.0
 11
636.66583701404215
 21
3952.2305709823272
 31
0.0
  0
LINE
  5
17F444
  8
0
  6
BYBLOCK
 62
     4
 10
634.86583701404231
 20
3940.7317705954538
 30
0.0
 11
634.86583701404231
 21
3937.7317705954529
 31
0.0
  0
LINE
  5
17F445
  8
0
  6
BYBLOCK
 62
     4
 10
634.86583701404231
 20
3955.2305709823272
 30
0.0
 11
634.86583701404231
 21
3958.2305709823281
 31
0.0
  0
TEXT
  5
17F446
  8
0
  6
BYBLOCK
 62
    90
 10
643.66583701404215
 20
3938.4811707888898
 30
0.0
 40
4.0
  1
8.5
 50
90.0
  7
MONOTXT
  0
TEXT
  5
17FA2F
  8
0
  6
BYBLOCK
 62
    90
 10
642.66583701404215
 20
3950.4811707888898
 30
0.0
 40
2.0
  1
%%p0.1
 50
90.0
  7
MONOTXT
1001
ACAD
1000
R13OBJECT
1002
{
1005
17F446
1002
}
  0
LINE
  5
17F447
  8
0
  6
BYBLOCK
 62
     4
 10
634.86583701404231
 20
3943.7317705954538
 30
0.0
 11
634.86583701404231
 21
3952.2305709823272
 31
0.0
  0
SOLID
  5
17F448
  8
0
  6
BYBLOCK
 62
     4
 10
634.36583701404231
 20
3940.7317705954538
 30
0.0
 11
635.36583701404231
 21
3940.7317705954538
 31
0.0
 12
634.86583701404231
 22
3943.7317705954538
 32
0.0
 13
634.86583701404231
 23
3943.7317705954538
 33
0.0
  0
SOLID
  5
17F449
  8
0
  6
BYBLOCK
 62
     4
 10
634.36583701404231
 20
3955.2305709823272
 30
0.0
 11
635.36583701404231
 21
3955.2305709823272
 31
0.0
 12
634.86583701404231
 22
3952.2305709823272
 32
0.0
 13
634.86583701404231
 23
3952.2305709823272
 33
0.0
  0
POINT
  5
17F44A
  8
DEFPOINTS
  6
BYBLOCK
 62
     0
 10
631.87813532885718
 20
3943.7317705954538
 30
0.0
  0
POINT
  5
17F44B
  8
DEFPOINTS
  6
BYBLOCK
 62
     0
 10
631.8781353288573
 20
3952.2305709823272
 30
0.0
  0
POINT
  5
17F44C
  8
DEFPOINTS
  6
BYBLOCK
 62
     0
 10
634.86583701404231
 20
3952.2305709823272
 30
0.0
  0
ENDBLK
  5
17F44D
  8
0
  0
BLOCK
  8
0
  2
*D31
 70
     1
 10
0.0
 20
0.0
 30
0.0
  3
*D31
  1

  0
LINE
  5
17F44F
  8
0
  6
BYBLOCK
 62
     4
 10
564.9628166429701
 20
3956.3560537832232
 30
0.0
 11
568.9508932688907
 21
3955.2752814536339
 31
0.0
  0
LINE
  5
17F450
  8
0
  6
BYBLOCK
 62
     4
 10
562.73485382770195
 20
3948.1348158927522
 30
0.0
 11
566.72293045362244
 21
3947.0540435631628
 31
0.0
  0
LINE
  5
17F451
  8
0
  6
BYBLOCK
 62
     4
 10
567.99825771627445
 20
3958.6416571759628
 30
0.0
 11
568.78295615802608
 21
3961.5372138332418
 31
0.0
  0
LINE
  5
17F452
  8
0
  6
BYBLOCK
 62
     4
 10
564.2008980175035
 20
3944.629305970936
 30
0.0
 11
563.41619957575188
 21
3941.733749313657
 31
0.0
  0
TEXT
  5
17F453
  8
0
  6
BYBLOCK
 62
    90
 10
572.10833232936125
 20
3940.1644367295949
 30
0.0
 40
4.0
  1
8.5
 50
74.836987908069929
  7
MONOTXT
  0
TEXT
  5
17FA30
  8
0
  6
BYBLOCK
 62
    90
 10
574.28194054394078
 20
3952.0082295059619
 30
0.0
 40
2.0
  1
%%p0.1
 50
74.836987908069929
  7
MONOTXT
1001
ACAD
1000
R13OBJECT
1002
{
1005
17F453
1002
}
  0
LINE
  5
17F454
  8
0
  6
BYBLOCK
 62
     4
 10
567.21355927452328
 20
3955.7461005186842
 30
0.0
 11
564.98559645925502
 21
3947.524862628215
 31
0.0
  0
SOLID
  5
17F455
  8
0
  6
BYBLOCK
 62
     4
 10
567.51566494006158
 20
3958.7724402495892
 30
0.0
 11
568.48085049248789
 21
3958.5108741023391
 31
0.0
 12
567.21355927452328
 22
3955.7461005186842
 32
0.0
 13
567.21355927452328
 23
3955.7461005186842
 33
0.0
  0
SOLID
  5
17F456
  8
0
  6
BYBLOCK
 62
     4
 10
563.71830524129041
 20
3944.7600890445601
 30
0.0
 11
564.68349079371671
 21
3944.4985228973101
 31
0.0
 12
564.98559645925502
 22
3947.524862628215
 32
0.0
 13
564.98559645925502
 23
3947.524862628215
 33
0.0
  0
POINT
  5
17F457
  8
DEFPOINTS
  6
BYBLOCK
 62
     0
 10
563.51503831433058
 20
3956.7484030040991
 30
0.0
  0
POINT
  5
17F458
  8
DEFPOINTS
  6
BYBLOCK
 62
     0
 10
561.28707549906244
 20
3948.5271651136281
 30
0.0
  0
POINT
  5
17F459
  8
DEFPOINTS
  6
BYBLOCK
 62
     0
 10
564.98559645925502
 20
3947.524862628215
 30
0.0
  0
ENDBLK
  5
17F45A
  8
0
  0
BLOCK
  8
0
  2
*D32
 70
     1
 10
0.0
 20
0.0
 30
0.0
  3
*D32
  1

  0
LINE
  5
17F45C
  8
0
  6
BYBLOCK
 62
     4
 10
759.87813532885741
 20
3942.2129712880478
 30
0.0
 11
759.87813532885741
 21
3939.030619758757
 31
0.0
  0
LINE
  5
17F45D
  8
0
  6
BYBLOCK
 62
     4
 10
763.8781353288573
 20
3942.2167071010949
 30
0.0
 11
763.8781353288573
 21
3939.030619758757
 31
0.0
  0
LINE
  5
17F45E
  8
0
  6
BYBLOCK
 62
     4
 10
756.8781353288573
 20
3940.8306197587572
 30
0.0
 11
753.87813532885741
 21
3940.8306197587572
 31
0.0
  0
LINE
  5
17F45F
  8
0
  6
BYBLOCK
 62
     4
 10
766.87813532885718
 20
3940.8306197587572
 30
0.0
 11
769.87813532885718
 21
3940.8306197587572
 31
0.0
  0
TEXT
  5
17F460
  8
0
  6
BYBLOCK
 62
    90
 10
752.54480199552393
 20
3932.030619758757
 30
0.0
 40
4.0
  1
3x M4
  7
MONOTXT
  0
LINE
  5
17F461
  8
0
  6
BYBLOCK
 62
     4
 10
759.87813532885741
 20
3940.8306197587572
 30
0.0
 11
763.8781353288573
 21
3940.8306197587572
 31
0.0
  0
SOLID
  5
17F462
  8
0
  6
BYBLOCK
 62
     4
 10
756.8781353288573
 20
3941.3306197587572
 30
0.0
 11
756.8781353288573
 21
3940.3306197587572
 31
0.0
 12
759.87813532885741
 22
3940.8306197587572
 32
0.0
 13
759.87813532885741
 23
3940.8306197587572
 33
0.0
  0
SOLID
  5
17F463
  8
0
  6
BYBLOCK
 62
     4
 10
766.87813532885718
 20
3941.3306197587572
 30
0.0
 11
766.87813532885718
 21
3940.3306197587572
 31
0.0
 12
763.8781353288573
 22
3940.8306197587572
 32
0.0
 13
763.8781353288573
 23
3940.8306197587572
 33
0.0
  0
POINT
  5
17F464
  8
DEFPOINTS
  6
BYBLOCK
 62
     0
 10
759.87813532885741
 20
3943.7129712880478
 30
0.0
  0
POINT
  5
17F465
  8
DEFPOINTS
  6
BYBLOCK
 62
     0
 10
763.8781353288573
 20
3943.7167071010949
 30
0.0
  0
POINT
  5
17F466
  8
DEFPOINTS
  6
BYBLOCK
 62
     0
 10
763.8781353288573
 20
3940.8306197587572
 30
0.0
  0
ENDBLK
  5
17F467
  8
0
  0
BLOCK
  8
0
  2
*D33
 70
     1
 10
0.0
 20
0.0
 30
0.0
  3
*D33
  1

  0
LINE
  5
17F469
  8
0
  6
BYBLOCK
 62
     4
 10
766.87813534003055
 20
3798.9814020709241
 30
0.0
 11
766.87813534003055
 21
3820.506207576213
 31
0.0
  0
LINE
  5
17F46A
  8
0
  6
BYBLOCK
 62
     4
 10
552.84817151000266
 20
3783.2391940240668
 30
0.0
 11
552.84817151000266
 21
3820.506207576213
 31
0.0
  0
LINE
  5
17F46B
  8
0
  6
BYBLOCK
 62
     4
 10
763.87813534003055
 20
3818.7062075762128
 30
0.0
 11
675.36315342501666
 21
3818.7062075762128
 31
0.0
  0
LINE
  5
17F46C
  8
0
  6
BYBLOCK
 62
     4
 10
555.84817151000266
 20
3818.7062075762128
 30
0.0
 11
644.36315342501655
 21
3818.7062075762128
 31
0.0
  0
SOLID
  5
17F46D
  8
0
  6
BYBLOCK
 62
     4
 10
763.87813534003055
 20
3819.2062075762128
 30
0.0
 11
763.87813534003055
 21
3818.2062075762128
 31
0.0
 12
766.87813534003055
 22
3818.7062075762128
 32
0.0
 13
766.87813534003055
 23
3818.7062075762128
 33
0.0
  0
SOLID
  5
17F46E
  8
0
  6
BYBLOCK
 62
     4
 10
555.84817151000266
 20
3819.2062075762128
 30
0.0
 11
555.84817151000266
 21
3818.2062075762128
 31
0.0
 12
552.84817151000266
 22
3818.7062075762128
 32
0.0
 13
552.84817151000266
 23
3818.7062075762128
 33
0.0
  0
TEXT
  5
17F46F
  8
0
  6
BYBLOCK
 62
    90
 10
646.36315342501666
 20
3816.7062075762128
 30
0.0
 40
4.0
  1
214.0
  7
MONOTXT
  0
TEXT
  5
17FA31
  8
0
  6
BYBLOCK
 62
    90
 10
666.36315342501655
 20
3817.7062075762128
 30
0.0
 40
2.0
  1
%%p0.1
  7
MONOTXT
1001
ACAD
1000
R13OBJECT
1002
{
1005
17F46F
1002
}
  0
POINT
  5
17F470
  8
DEFPOINTS
  6
BYBLOCK
 62
     0
 10
766.87813534003055
 20
3797.4814020709241
 30
0.0
  0
POINT
  5
17F471
  8
DEFPOINTS
  6
BYBLOCK
 62
     0
 10
552.84817151000266
 20
3781.7391940240668
 30
0.0
  0
POINT
  5
17F472
  8
DEFPOINTS
  6
BYBLOCK
 62
     0
 10
552.84817151000266
 20
3818.7062075762128
 30
0.0
  0
ENDBLK
  5
17F473
  8
0
  0
BLOCK
  8
0
  2
*D34
 70
     1
 10
0.0
 20
0.0
 30
0.0
  3
*D34
  1

  0
LINE
  5
17F475
  8
0
  6
BYBLOCK
 62
     4
 10
635.81661851000274
 20
3808.6356020240669
 30
0.0
 11
539.26870122680805
 21
3808.6356020240669
 31
0.0
  0
LINE
  5
17F476
  8
0
  6
BYBLOCK
 62
     4
 10
625.7837635100027
 20
3770.240973024067
 30
0.0
 11
539.26870122680805
 21
3770.240973024067
 31
0.0
  0
LINE
  5
17F477
  8
0
  6
BYBLOCK
 62
     4
 10
541.068701226808
 20
3805.6356020240669
 30
0.0
 11
541.068701226808
 21
3802.9382875240672
 31
0.0
  0
LINE
  5
17F478
  8
0
  6
BYBLOCK
 62
     4
 10
541.068701226808
 20
3773.240973024067
 30
0.0
 11
541.068701226808
 21
3775.9382875240681
 31
0.0
  0
SOLID
  5
17F479
  8
0
  6
BYBLOCK
 62
     4
 10
540.568701226808
 20
3805.6356020240669
 30
0.0
 11
541.568701226808
 21
3805.6356020240669
 31
0.0
 12
541.068701226808
 22
3808.6356020240669
 32
0.0
 13
541.068701226808
 23
3808.6356020240669
 33
0.0
  0
SOLID
  5
17F47A
  8
0
  6
BYBLOCK
 62
     4
 10
540.568701226808
 20
3773.240973024067
 30
0.0
 11
541.568701226808
 21
3773.240973024067
 31
0.0
 12
541.068701226808
 22
3770.240973024067
 32
0.0
 13
541.068701226808
 23
3770.240973024067
 33
0.0
  0
TEXT
  5
17F47B
  8
0
  6
BYBLOCK
 62
    90
 10
543.06870122680789
 20
3777.9382875240672
 30
0.0
 40
4.0
  1
38.4
 50
90.0
  7
MONOTXT
  0
TEXT
  5
17FA32
  8
0
  6
BYBLOCK
 62
    90
 10
542.06870122680789
 20
3793.9382875240672
 30
0.0
 40
2.0
  1
%%p0.1
 50
90.0
  7
MONOTXT
1001
ACAD
1000
R13OBJECT
1002
{
1005
17F47B
1002
}
  0
POINT
  5
17F47C
  8
DEFPOINTS
  6
BYBLOCK
 62
     0
 10
637.31661851000274
 20
3808.6356020240669
 30
0.0
  0
POINT
  5
17F47D
  8
DEFPOINTS
  6
BYBLOCK
 62
     0
 10
627.28376351000259
 20
3770.240973024067
 30
0.0
  0
POINT
  5
17F47E
  8
DEFPOINTS
  6
BYBLOCK
 62
     0
 10
541.068701226808
 20
3770.240973024067
 30
0.0
  0
ENDBLK
  5
17F47F
  8
0
  0
BLOCK
  8
0
  2
*D35
 70
     1
 10
0.0
 20
0.0
 30
0.0
  3
*D35
  1

  0
LINE
  5
17F481
  8
0
  6
BYBLOCK
 62
     4
 10
768.37813534003055
 20
3797.4814020709241
 30
0.0
 11
783.19460720020925
 21
3797.4814020709241
 31
0.0
  0
LINE
  5
17F482
  8
0
  6
BYBLOCK
 62
     4
 10
768.37813532885718
 20
3770.2431955800471
 30
0.0
 11
783.19460720020925
 21
3770.2431955800471
 31
0.0
  0
LINE
  5
17F483
  8
0
  6
BYBLOCK
 62
     4
 10
781.39460720020918
 20
3800.4814020709241
 30
0.0
 11
781.39460720020918
 21
3803.4814020709241
 31
0.0
  0
LINE
  5
17F484
  8
0
  6
BYBLOCK
 62
     4
 10
781.39460720020918
 20
3767.2431955800471
 30
0.0
 11
781.39460720020918
 21
3764.2431955800471
 31
0.0
  0
SOLID
  5
17F485
  8
0
  6
BYBLOCK
 62
     4
 10
780.89460720020918
 20
3800.4814020709241
 30
0.0
 11
781.89460720020918
 21
3800.4814020709241
 31
0.0
 12
781.39460720020918
 22
3797.4814020709241
 32
0.0
 13
781.39460720020918
 23
3797.4814020709241
 33
0.0
  0
SOLID
  5
17F486
  8
0
  6
BYBLOCK
 62
     4
 10
780.89460720020918
 20
3767.2431955800471
 30
0.0
 11
781.89460720020918
 21
3767.2431955800471
 31
0.0
 12
781.39460720020918
 22
3770.2431955800471
 32
0.0
 13
781.39460720020918
 23
3770.2431955800471
 33
0.0
  0
TEXT
  5
17F487
  8
0
  6
BYBLOCK
 62
    90
 10
783.39460720020929
 20
3772.3622988254851
 30
0.0
 40
4.0
  1
27.2
 50
90.0
  7
MONOTXT
  0
TEXT
  5
17FA33
  8
0
  6
BYBLOCK
 62
    90
 10
782.39460720020929
 20
3788.3622988254851
 30
0.0
 40
2.0
  1
%%p0.1
 50
90.0
  7
MONOTXT
1001
ACAD
1000
R13OBJECT
1002
{
1005
17F487
1002
}
  0
POINT
  5
17F488
  8
DEFPOINTS
  6
BYBLOCK
 62
     0
 10
766.87813534003055
 20
3797.4814020709241
 30
0.0
  0
POINT
  5
17F489
  8
DEFPOINTS
  6
BYBLOCK
 62
     0
 10
766.87813532885707
 20
3770.2431955800471
 30
0.0
  0
POINT
  5
17F48A
  8
DEFPOINTS
  6
BYBLOCK
 62
     0
 10
781.39460720020918
 20
3770.2431955800471
 30
0.0
  0
ENDBLK
  5
17F48B
  8
0
  0
BLOCK
  8
0
  2
PPLUS
 70
     0
 10
0.0
 20
0.0
 30
0.0
  3
PPLUS
  1

  0
POLYLINE
  5
17F725
  8
PLATINE
 66
     1
 10
0.0
 20
0.0
 30
0.0
  0
VERTEX
  5
17FF44
  8
PLATINE
 10
211.0299638300277
 20
15.742208046856829
 30
0.0
  0
VERTEX
  5
17FF45
  8
PLATINE
 10
203.73175599999999
 20
17.05864999999994
 30
0.0
  0
VERTEX
  5
17FF46
  8
PLATINE
 10
188.36679799999999
 20
19.520228000000309
 30
0.0
  0
VERTEX
  5
17FF47
  8
PLATINE
 10
172.9962469999999
 20
21.684718999999859
 30
0.0
  0
VERTEX
  5
17FF48
  8
PLATINE
 10
157.6559639999999
 20
23.525803000000451
 30
0.0
  0
VERTEX
  5
17FF49
  8
PLATINE
 10
142.4976179999999
 20
24.996433000000248
 30
0.0
  0
VERTEX
  5
17FF4A
  8
PLATINE
 10
127.45310600000001
 20
26.056470999999881
 30
0.0
  0
VERTEX
  5
17FF4B
  8
PLATINE
 10
112.14407799999999
 20
26.69769199999973
 30
0.0
  0
VERTEX
  5
17FF4C
  8
PLATINE
 10
96.524473999999941
 20
26.972407000000199
 30
0.0
  0
VERTEX
  5
17FF4D
  8
PLATINE
 10
81.468446999999969
 20
26.89640799999961
 30
0.0
  0
VERTEX
  5
17FF4E
  8
PLATINE
 10
67.448441000000003
 20
26.25387099999989
 30
0.0
  0
VERTEX
  5
17FF4F
  8
PLATINE
 10
53.836395000000039
 20
24.796072000000098
 30
0.0
  0
VERTEX
  5
17FF50
  8
PLATINE
 10
40.202306000000021
 20
22.473331999999569
 30
0.0
  0
VERTEX
  5
17FF51
  8
PLATINE
 10
27.535477000000022
 20
19.412973999999849
 30
0.0
  0
VERTEX
  5
17FF52
  8
PLATINE
 10
16.574183999999939
 20
15.775878999999801
 30
0.0
  0
VERTEX
  5
17FF53
  8
PLATINE
 10
9.0585079999999607
 20
12.29802000000018
 30
0.0
  0
VERTEX
  5
17FF54
  8
PLATINE
 10
4.334068000000002
 20
9.198182000000088
 30
0.0
  0
VERTEX
  5
17FF55
  8
PLATINE
 10
1.0161030000000431
 20
6.3256830000000264
 30
0.0
  0
VERTEX
  5
17FF56
  8
PLATINE
 10
-0.9855330000000321
 20
4.3177960000002713
 30
0.0
  0
VERTEX
  5
17FF57
  8
PLATINE
 10
-2.1416390000000538
 20
2.805712000000312
 30
0.0
  0
VERTEX
  5
17FF58
  8
PLATINE
 10
-2.5383663590265542
 20
2.0
 30
0.0
  0
SEQEND
  5
17FF59
  8
PLATINE
  0
POLYLINE
  5
17F726
  8
PLATINE
 66
     1
 10
0.0
 20
0.0
 30
0.0
  0
VERTEX
  5
17FF5A
  8
PLATINE
 10
-2.2499802535141948
 20
-2.0
 30
0.0
  0
VERTEX
  5
17FF5B
  8
PLATINE
 10
-1.290293380426305
 20
-3.2794140073456211
 30
0.0
  0
VERTEX
  5
17FF5C
  8
PLATINE
 10
-1.2016859999999949
 20
-3.3893580000003558
 30
0.0
  0
VERTEX
  5
17FF5D
  8
PLATINE
 10
0.4515390000000253
 20
-4.7553660000003211
 30
0.0
  0
VERTEX
  5
17FF5E
  8
PLATINE
 10
3.0809070000000238
 20
-6.049323000000185
 30
0.0
  0
VERTEX
  5
17FF5F
  8
PLATINE
 10
7.4987190000000501
 20
-7.2465540000002866
 30
0.0
  0
VERTEX
  5
17FF60
  8
PLATINE
 10
14.807454000000011
 20
-8.6642149999997855
 30
0.0
  0
VERTEX
  5
17FF61
  8
PLATINE
 10
26.196447000000038
 20
-9.8426929999995991
 30
0.0
  0
VERTEX
  5
17FF62
  8
PLATINE
 10
40.614543000000019
 20
-10.779356
 30
0.0
  0
VERTEX
  5
17FF63
  8
PLATINE
 10
55.795260999999982
 20
-11.2942409999996
 30
0.0
  0
VERTEX
  5
17FF64
  8
PLATINE
 10
71.435591999999929
 20
-11.49822099999983
 30
0.0
  0
VERTEX
  5
17FF65
  8
PLATINE
 10
87.385841000000013
 20
-11.525856999999631
 30
0.0
  0
VERTEX
  5
17FF66
  8
PLATINE
 10
103.55355899999989
 20
-11.50940699999955
 30
0.0
  0
VERTEX
  5
17FF67
  8
PLATINE
 10
119.79826300000001
 20
-11.512039000000181
 30
0.0
  0
VERTEX
  5
17FF68
  8
PLATINE
 10
136.04691500000001
 20
-11.515658000000251
 30
0.0
  0
VERTEX
  5
17FF69
  8
PLATINE
 10
152.30938499999999
 20
-11.51434200000039
 30
0.0
  0
VERTEX
  5
17FF6A
  8
PLATINE
 10
168.55474699999999
 20
-11.517302999999631
 30
0.0
  0
VERTEX
  5
17FF6B
  8
PLATINE
 10
184.72279399999999
 20
-11.52125100000012
 30
0.0
  0
VERTEX
  5
17FF6C
  8
PLATINE
 10
200.90038199999989
 20
-11.50545899999997
 30
0.0
  0
VERTEX
  5
17FF6D
  8
PLATINE
 10
211.02996381885441
 20
-11.49599844402019
 30
0.0
  0
SEQEND
  5
17FF6E
  8
PLATINE
  0
ARC
  5
17F727
  8
PLATINE
 10
0.0
 20
0.0
 30
0.0
 40
3.0
 50
221.81031489577859
 51
138.18968510422141
  0
CIRCLE
  5
17F728
  8
PLATINE
 10
35.0
 20
-6.0
 30
0.0
 40
3.0
  0
CIRCLE
  5
17F729
  8
PLATINE
 10
35.0
 20
15.0
 30
0.0
 40
3.0
  0
CIRCLE
  5
17F72A
  8
PLATINE
 10
74.0
 20
21.0
 30
0.0
 40
3.0
  0
CIRCLE
  5
17F72B
  8
PLATINE
 10
74.0
 20
3.0
 30
0.0
 40
3.0
  0
CIRCLE
  5
17F72C
  8
PLATINE
 10
119.0
 20
21.0
 30
0.0
 40
3.0
  0
CIRCLE
  5
17F72D
  8
PLATINE
 10
119.0
 20
3.0
 30
0.0
 40
3.0
  0
CIRCLE
  5
17F72E
  8
PLATINE
 10
135.0
 20
20.0
 30
0.0
 40
3.0
  0
CIRCLE
  5
17F72F
  8
PLATINE
 10
158.0
 20
18.0
 30
0.0
 40
3.0
  0
LINE
  5
17F730
  8
PLATINE
 10
211.02996381885441
 20
-11.49599844402019
 30
0.0
 11
211.02996383002781
 21
15.742208046856829
 31
0.0
  0
ENDBLK
  5
17F731
  8
0
  0
BLOCK
  8
0
  2
*D37
 70
     1
 10
0.0
 20
0.0
 30
0.0
  3
*D37
  1

  0
LINE
  5
17F73B
  8
0
  6
BYBLOCK
 62
     4
 10
995.11734508830045
 20
3953.7155074049001
 30
0.0
 11
995.11734508830045
 21
3925.9766254100832
 31
0.0
  0
LINE
  5
17F73C
  8
0
  6
BYBLOCK
 62
     4
 10
1209.1473089071551
 20
3942.2195089608799
 30
0.0
 11
1209.1473089071551
 21
3925.9766254100832
 31
0.0
  0
LINE
  5
17F73D
  8
0
  6
BYBLOCK
 62
     4
 10
998.11734508830034
 20
3927.7766254100829
 30
0.0
 11
1206.1473089071551
 21
3927.7766254100829
 31
0.0
  0
SOLID
  5
17F73E
  8
0
  6
BYBLOCK
 62
     4
 10
998.11734508830034
 20
3928.2766254100839
 30
0.0
 11
998.11734508830034
 21
3927.2766254100839
 31
0.0
 12
995.11734508830045
 22
3927.7766254100829
 32
0.0
 13
995.11734508830045
 23
3927.7766254100829
 33
0.0
  0
SOLID
  5
17F73F
  8
0
  6
BYBLOCK
 62
     4
 10
1206.1473089071551
 20
3928.2766254100839
 30
0.0
 11
1206.1473089071551
 21
3927.2766254100839
 31
0.0
 12
1209.1473089071551
 22
3927.7766254100829
 32
0.0
 13
1209.1473089071551
 23
3927.7766254100829
 33
0.0
  0
TEXT
  5
17F740
  8
0
  6
BYBLOCK
 62
    90
 10
1092.7989936643939
 20
3929.7766254100839
 30
0.0
 40
4.0
  1
214.0
  7
MONOTXT
  0
POINT
  5
17F741
  8
DEFPOINTS
  6
BYBLOCK
 62
     0
 10
995.11734508830045
 20
3955.2155074049001
 30
0.0
  0
POINT
  5
17F742
  8
DEFPOINTS
  6
BYBLOCK
 62
     0
 10
1209.1473089071551
 20
3943.719508960879
 30
0.0
  0
POINT
  5
17F743
  8
DEFPOINTS
  6
BYBLOCK
 62
     0
 10
1209.1473089071551
 20
3927.7766254100829
 30
0.0
  0
ENDBLK
  5
17F744
  8
0
  0
BLOCK
  8
0
  2
*D38
 70
     1
 10
0.0
 20
0.0
 30
0.0
  3
*D38
  1

  0
LINE
  5
17F776
  8
0
  6
BYBLOCK
 62
     4
 10
995.11734508830045
 20
3953.7155074049001
 30
0.0
 11
995.11734508830045
 21
3925.9766254100832
 31
0.0
  0
LINE
  5
17F777
  8
0
  6
BYBLOCK
 62
     4
 10
1209.1473089071551
 20
3942.2195089608799
 30
0.0
 11
1209.1473089071551
 21
3925.9766254100832
 31
0.0
  0
LINE
  5
17F778
  8
0
  6
BYBLOCK
 62
     4
 10
998.11734508830034
 20
3927.7766254100829
 30
0.0
 11
1206.1473089071551
 21
3927.7766254100829
 31
0.0
  0
SOLID
  5
17F779
  8
0
  6
BYBLOCK
 62
     4
 10
998.11734508830034
 20
3928.2766254100839
 30
0.0
 11
998.11734508830034
 21
3927.2766254100839
 31
0.0
 12
995.11734508830045
 22
3927.7766254100829
 32
0.0
 13
995.11734508830045
 23
3927.7766254100829
 33
0.0
  0
SOLID
  5
17F77A
  8
0
  6
BYBLOCK
 62
     4
 10
1206.1473089071551
 20
3928.2766254100839
 30
0.0
 11
1206.1473089071551
 21
3927.2766254100839
 31
0.0
 12
1209.1473089071551
 22
3927.7766254100829
 32
0.0
 13
1209.1473089071551
 23
3927.7766254100829
 33
0.0
  0
TEXT
  5
17F77B
  8
0
  6
BYBLOCK
 62
    90
 10
1092.7989936643939
 20
3929.7766254100839
 30
0.0
 40
4.0
  1
214.0
  7
MONOTXT
  0
POINT
  5
17F77C
  8
DEFPOINTS
  6
BYBLOCK
 62
     0
 10
995.11734508830045
 20
3955.2155074049001
 30
0.0
  0
POINT
  5
17F77D
  8
DEFPOINTS
  6
BYBLOCK
 62
     0
 10
1209.1473089071551
 20
3943.719508960879
 30
0.0
  0
POINT
  5
17F77E
  8
DEFPOINTS
  6
BYBLOCK
 62
     0
 10
1209.1473089071551
 20
3927.7766254100829
 30
0.0
  0
ENDBLK
  5
17F77F
  8
0
  0
BLOCK
  8
0
  2
*D39
 70
     1
 10
0.0
 20
0.0
 30
0.0
  3
*D39
  1

  0
LINE
  5
17F783
  8
0
  6
BYBLOCK
 62
     4
 10
1068.0529370883
 20
3742.5003747120581
 30
0.0
 11
980.27698251628169
 21
3742.5003747120581
 31
0.0
  0
LINE
  5
17F784
  8
0
  6
BYBLOCK
 62
     4
 10
1078.0857920883
 20
3780.895003712058
 30
0.0
 11
980.27698251628169
 21
3780.895003712058
 31
0.0
  0
LINE
  5
17F785
  8
0
  6
BYBLOCK
 62
     4
 10
982.07698251628176
 20
3745.5003747120581
 30
0.0
 11
982.07698251628176
 21
3757.6976892120588
 31
0.0
  0
LINE
  5
17F786
  8
0
  6
BYBLOCK
 62
     4
 10
982.07698251628176
 20
3777.895003712058
 30
0.0
 11
982.07698251628176
 21
3765.6976892120588
 31
0.0
  0
SOLID
  5
17F787
  8
0
  6
BYBLOCK
 62
     4
 10
981.57698251628165
 20
3745.5003747120581
 30
0.0
 11
982.57698251628165
 21
3745.5003747120581
 31
0.0
 12
982.07698251628176
 22
3742.5003747120581
 32
0.0
 13
982.07698251628176
 23
3742.5003747120581
 33
0.0
  0
SOLID
  5
17F788
  8
0
  6
BYBLOCK
 62
     4
 10
981.57698251628165
 20
3777.895003712058
 30
0.0
 11
982.57698251628165
 21
3777.895003712058
 31
0.0
 12
982.07698251628176
 22
3780.895003712058
 32
0.0
 13
982.07698251628176
 23
3780.895003712058
 33
0.0
  0
TEXT
  5
17F789
  8
0
  6
BYBLOCK
 62
    90
 10
974.74364918294839
 20
3759.6976892120588
 30
0.0
 40
4.0
  1
38.4
  7
MONOTXT
  0
POINT
  5
17F78A
  8
DEFPOINTS
  6
BYBLOCK
 62
     0
 10
1069.5529370883
 20
3742.5003747120581
 30
0.0
  0
POINT
  5
17F78B
  8
DEFPOINTS
  6
BYBLOCK
 62
     0
 10
1079.5857920883
 20
3780.895003712058
 30
0.0
  0
POINT
  5
17F78C
  8
DEFPOINTS
  6
BYBLOCK
 62
     0
 10
982.07698251628176
 20
3780.895003712058
 30
0.0
  0
ENDBLK
  5
17F78D
  8
0
  0
BLOCK
  8
0
  2
*D40
 70
     1
 10
0.0
 20
0.0
 30
0.0
  3
*D40
  1

  0
LINE
  5
17F7AD
  8
0
  6
BYBLOCK
 62
     4
 10
758.24855351000258
 20
3943.7100484049001
 30
0.0
 11
829.09042120725451
 21
3943.7100484049001
 31
0.0
  0
LINE
  5
17F7AE
  8
0
  6
BYBLOCK
 62
     4
 10
809.64920708597936
 20
3955.2155074049001
 30
0.0
 11
829.09042120725451
 21
3955.2155074049001
 31
0.0
  0
LINE
  5
17F7AF
  8
0
  6
BYBLOCK
 62
     4
 10
827.29042120725455
 20
3946.7100484049001
 30
0.0
 11
827.29042120725455
 21
3952.2155074049001
 31
0.0
  0
TEXT
  5
17F7B0
  8
0
  6
BYBLOCK
 62
    90
 10
832.09042120725462
 20
3947.4627779048992
 30
0.0
 40
4.0
  1
11.5
  7
MONOTXT
  0
SOLID
  5
17F7B1
  8
0
  6
BYBLOCK
 62
     4
 10
826.79042120725467
 20
3946.7100484049001
 30
0.0
 11
827.79042120725467
 21
3946.7100484049001
 31
0.0
 12
827.29042120725455
 22
3943.7100484049001
 32
0.0
 13
827.29042120725455
 23
3943.7100484049001
 33
0.0
  0
SOLID
  5
17F7B2
  8
0
  6
BYBLOCK
 62
     4
 10
826.79042120725467
 20
3952.2155074049001
 30
0.0
 11
827.79042120725467
 21
3952.2155074049001
 31
0.0
 12
827.29042120725455
 22
3955.2155074049001
 32
0.0
 13
827.29042120725455
 23
3955.2155074049001
 33
0.0
  0
POINT
  5
17F7B3
  8
DEFPOINTS
  6
BYBLOCK
 62
     0
 10
756.74855351000258
 20
3943.7100484049001
 30
0.0
  0
POINT
  5
17F7B4
  8
DEFPOINTS
  6
BYBLOCK
 62
     0
 10
808.14920708597936
 20
3955.2155074049001
 30
0.0
  0
POINT
  5
17F7B5
  8
DEFPOINTS
  6
BYBLOCK
 62
     0
 10
827.29042120725455
 20
3955.2155074049001
 30
0.0
  0
ENDBLK
  5
17F7B6
  8
0
  0
BLOCK
  8
0
  2
STANDARD_Z
 70
     0
 10
0.0
 20
0.0
 30
0.0
  3
STANDARD_Z
  1

  0
INSERT
  5
17F7EB
  8
0
  2
SEMAFOR
 10
0.0
 20
0.0
 30
0.0
  0
INSERT
  5
17F7EC
  8
0
  2
SEMAFOR
 10
0.0
 20
0.0
 30
0.0
  0
INSERT
  5
17F7ED
  8
0
  2
SEMAFOR
 10
0.0
 20
0.0
 30
0.0
  0
INSERT
  5
17F7EE
  8
0
  2
SEMAFOR
 10
0.0
 20
0.0
 30
0.0
  0
INSERT
  5
17F7EF
  8
0
  2
SEMAFOR
 10
0.0
 20
0.0
 30
0.0
  0
INSERT
  5
17F7F0
  8
0
  2
SEMAFOR
 10
0.0
 20
0.0
 30
0.0
  0
INSERT
  5
17F7F1
  8
0
  2
ACAD
 10
4733.4389627447927
 20
626.98922552497561
 30
0.0
  0
INSERT
  5
17F7F2
  8
0
  2
ACAD
 10
4401.2404021617613
 20
426.56681958498802
 30
0.0
  0
INSERT
  5
17F7F3
  8
0
  2
ACAD
 10
4401.2404021617613
 20
426.56681958498802
 30
0.0
  0
INSERT
  5
17F7F4
  8
0
  2
ACAD
 10
9843.6585030093738
 20
4161.7623992877234
 30
0.0
  0
INSERT
  5
17F7F5
  8
0
  2
ACAD
 10
10335.40967800786
 20
4128.0225861498011
 30
0.0
  0
INSERT
  5
17F7F6
  8
0
  2
ACAD
 10
5694.1362955782188
 20
8197.3877944074975
 30
0.0
  0
INSERT
  5
17F7F7
  8
0
  2
ACAD
 10
6185.8874705767112
 20
8163.6479812695761
 30
0.0
  0
INSERT
  5
17F7F8
  8
P2
  2
ACAD
 10
8411.0782083018512
 20
2850.915628098021
 30
0.0
 41
0.02
 42
0.02
 43
0.02
  0
INSERT
  5
17F7F9
  8
0
  2
SEMAFOR
 10
0.0
 20
0.0
 30
0.0
 41
3.75
 42
3.75
 43
3.75
  0
INSERT
  5
17F7FA
  8
0
  2
SEMAFOR
 10
0.0
 20
0.0
 30
0.0
 41
3.75
 42
3.75
 43
3.75
  0
INSERT
  5
17F7FB
  8
0
  2
SEMAFOR
 10
0.0
 20
0.0
 30
0.0
 41
3.75
 42
3.75
 43
3.75
  0
INSERT
  5
17F7FC
  8
0
  2
ACAD
 10
5000.0469436296116
 20
3549.2343797401409
 30
0.0
  0
INSERT
  5
17F7FD
  8
0
  2
ACAD
 10
5491.7981186281031
 20
3515.4945666022199
 30
0.0
  0
INSERT
  5
17F7FE
  8
0
  2
SEMAFOR
 10
3708.5714045475338
 20
999.82442613291903
 30
0.0
  0
INSERT
  5
17F7FF
  8
0
  2
SEMAFOR
 10
3708.5714045475338
 20
999.82442613291903
 30
0.0
  0
INSERT
  5
17F800
  8
0
  2
SEMAFOR
 10
3708.5714045475338
 20
999.82442613291903
 30
0.0
  0
INSERT
  5
17F801
  8
0
  2
SEMAFOR
 10
3708.5714045475338
 20
999.82442613291903
 30
0.0
  0
INSERT
  5
17F802
  8
0
  2
SEMAFOR
 10
3708.5714045475338
 20
999.82442613291903
 30
0.0
  0
INSERT
  5
17F803
  8
0
  2
SEMAFOR
 10
3708.5714045475338
 20
999.82442613291903
 30
0.0
  0
INSERT
  5
17F804
  8
0
  2
ACAD
 10
8442.0103672923287
 20
1626.813651657895
 30
0.0
  0
INSERT
  5
17F805
  8
0
  2
ACAD
 10
8109.8118067092946
 20
1426.3912457179069
 30
0.0
  0
INSERT
  5
17F806
  8
0
  2
ACAD
 10
8109.8118067092946
 20
1426.3912457179069
 30
0.0
  0
INSERT
  5
17F807
  8
0
  2
ACAD
 10
13552.22990755691
 20
5161.5868254206416
 30
0.0
  0
INSERT
  5
17F808
  8
0
  2
ACAD
 10
14043.9810825554
 20
5127.8470122827202
 30
0.0
  0
INSERT
  5
17F809
  8
0
  2
ACAD
 10
9402.7077001257549
 20
9197.2122205404157
 30
0.0
  0
INSERT
  5
17F80A
  8
0
  2
ACAD
 10
9894.4588751242445
 20
9163.4724074024944
 30
0.0
  0
INSERT
  5
17F80B
  8
P2
  2
ACAD
 10
12119.64961284938
 20
3850.7400542309401
 30
0.0
 41
0.02
 42
0.02
 43
0.02
  0
INSERT
  5
17F80C
  8
0
  2
SEMAFOR
 10
3708.5714045475338
 20
999.82442613291903
 30
0.0
 41
3.75
 42
3.75
 43
3.75
  0
INSERT
  5
17F80D
  8
0
  2
SEMAFOR
 10
3708.5714045475338
 20
999.82442613291903
 30
0.0
 41
3.75
 42
3.75
 43
3.75
  0
INSERT
  5
17F80E
  8
0
  2
SEMAFOR
 10
3708.5714045475338
 20
999.82442613291903
 30
0.0
 41
3.75
 42
3.75
 43
3.75
  0
INSERT
  5
17F80F
  8
0
  2
ACAD
 10
11004.667248186281
 20
2686.4915150072802
 30
0.0
  0
INSERT
  5
17F810
  8
0
  2
ACAD
 10
10672.46868760325
 20
2486.0691090672931
 30
0.0
  0
INSERT
  5
17F811
  8
0
  2
ACAD
 10
10672.46868760325
 20
2486.0691090672931
 30
0.0
  0
INSERT
  5
17F812
  8
0
  2
ACAD
 10
16114.88678845086
 20
6221.2646887700266
 30
0.0
  0
INSERT
  5
17F813
  8
0
  2
ACAD
 10
16606.637963449361
 20
6187.5248756321062
 30
0.0
  0
INSERT
  5
17F814
  8
0
  2
ACAD
 10
11965.36458101971
 20
10256.890083889801
 30
0.0
  0
INSERT
  5
17F815
  8
0
  2
ACAD
 10
12457.1157560182
 20
10223.150270751879
 30
0.0
  0
INSERT
  5
17F816
  8
0
  2
SEMAFOR
 10
3708.5714045475338
 20
999.82442613291903
 30
0.0
 41
10.0
 42
10.0
 43
10.0
  0
INSERT
  5
17F817
  8
0
  2
SEMAFOR
 10
3708.5714045475338
 20
999.82442613291903
 30
0.0
 41
10.0
 42
10.0
 43
10.0
  0
INSERT
  5
17F818
  8
0
  2
SEMAFOR
 10
3708.5714045475338
 20
999.82442613291903
 30
0.0
 41
10.0
 42
10.0
 43
10.0
  0
INSERT
  5
17F819
  8
0
  2
SEMAFOR
 10
3524.0684305484692
 20
207.20092630162131
 30
0.0
  0
INSERT
  5
17F81A
  8
0
  2
SEMAFOR
 10
3524.0684305484692
 20
207.20092630162131
 30
0.0
  0
INSERT
  5
17F81B
  8
0
  2
SEMAFOR
 10
3524.0684305484692
 20
207.20092630162131
 30
0.0
  0
INSERT
  5
17F81C
  8
0
  2
SEMAFOR
 10
3524.0684305484692
 20
207.20092630162131
 30
0.0
  0
INSERT
  5
17F81D
  8
0
  2
SEMAFOR
 10
3524.0684305484692
 20
207.20092630162131
 30
0.0
  0
INSERT
  5
17F81E
  8
0
  2
SEMAFOR
 10
3524.0684305484692
 20
207.20092630162131
 30
0.0
  0
INSERT
  5
17F81F
  8
0
  2
ACAD
 10
8257.507393293261
 20
834.19015182659678
 30
0.0
  0
INSERT
  5
17F820
  8
0
  2
ACAD
 10
7925.3088327102296
 20
633.76774588660919
 30
0.0
  0
INSERT
  5
17F821
  8
0
  2
ACAD
 10
7925.3088327102296
 20
633.76774588660919
 30
0.0
  0
INSERT
  5
17F822
  8
0
  2
ACAD
 10
13367.72693355784
 20
4368.9633255893441
 30
0.0
  0
INSERT
  5
17F823
  8
0
  2
ACAD
 10
13859.47810855633
 20
4335.2235124514227
 30
0.0
  0
INSERT
  5
17F824
  8
0
  2
ACAD
 10
9218.2047261266889
 20
8404.5887207091182
 30
0.0
  0
INSERT
  5
17F825
  8
0
  2
ACAD
 10
9709.9559011251822
 20
8370.8489075711968
 30
0.0
  0
INSERT
  5
17F826
  8
P2
  2
ACAD
 10
11935.14663885032
 20
3058.1165543996422
 30
0.0
 41
0.02
 42
0.02
 43
0.02
  0
INSERT
  5
17F827
  8
0
  2
SEMAFOR
 10
3524.0684305484692
 20
207.20092630162131
 30
0.0
 41
3.75
 42
3.75
 43
3.75
  0
INSERT
  5
17F828
  8
0
  2
SEMAFOR
 10
3524.0684305484692
 20
207.20092630162131
 30
0.0
 41
3.75
 42
3.75
 43
3.75
  0
INSERT
  5
17F829
  8
0
  2
SEMAFOR
 10
3524.0684305484692
 20
207.20092630162131
 30
0.0
 41
3.75
 42
3.75
 43
3.75
  0
INSERT
  5
17F82A
  8
0
  2
ACAD
 10
10820.164274187209
 20
1893.868015175982
 30
0.0
  0
INSERT
  5
17F82B
  8
0
  2
ACAD
 10
10487.965713604181
 20
1693.4456092359951
 30
0.0
  0
INSERT
  5
17F82C
  8
0
  2
ACAD
 10
10487.965713604181
 20
1693.4456092359951
 30
0.0
  0
INSERT
  5
17F82D
  8
0
  2
ACAD
 10
15930.383814451799
 20
5428.64118893873
 30
0.0
  0
INSERT
  5
17F82E
  8
0
  2
ACAD
 10
16422.134989450289
 20
5394.9013758008077
 30
0.0
  0
INSERT
  5
17F82F
  8
0
  2
ACAD
 10
11780.861607020641
 20
9464.2665840585032
 30
0.0
  0
INSERT
  5
17F830
  8
0
  2
ACAD
 10
12272.61278201913
 20
9430.5267709205818
 30
0.0
  0
INSERT
  5
17F831
  8
0
  2
SEMAFOR
 10
3524.0684305484692
 20
207.20092630162131
 30
0.0
 41
10.0
 42
10.0
 43
10.0
  0
INSERT
  5
17F832
  8
0
  2
SEMAFOR
 10
3524.0684305484692
 20
207.20092630162131
 30
0.0
 41
10.0
 42
10.0
 43
10.0
  0
INSERT
  5
17F833
  8
0
  2
SEMAFOR
 10
3524.0684305484692
 20
207.20092630162131
 30
0.0
 41
10.0
 42
10.0
 43
10.0
  0
INSERT
  5
17F834
  8
0
  2
SEMAFOR
 10
15386.960463810399
 20
3267.8879405965258
 30
0.0
  0
INSERT
  5
17F835
  8
0
  2
SEMAFOR
 10
15386.960463810399
 20
3267.8879405965258
 30
0.0
  0
INSERT
  5
17F836
  8
0
  2
SEMAFOR
 10
15386.960463810399
 20
3267.8879405965258
 30
0.0
  0
INSERT
  5
17F837
  8
0
  2
ACAD
 10
20120.399426555188
 20
3894.877166121501
 30
0.0
  0
INSERT
  5
17F838
  8
0
  2
ACAD
 10
19788.200865972161
 20
3694.4547601815138
 30
0.0
  0
INSERT
  5
17F839
  8
0
  2
ACAD
 10
19788.200865972161
 20
3694.4547601815138
 30
0.0
  0
INSERT
  5
17F83A
  8
0
  2
ACAD
 10
25230.618966819769
 20
7429.6503398842506
 30
0.0
  0
INSERT
  5
17F83B
  8
0
  2
ACAD
 10
25722.370141818261
 20
7395.9105267463274
 30
0.0
  0
INSERT
  5
17F83C
  8
0
  2
ACAD
 10
21081.09675938862
 20
11465.275735004019
 30
0.0
  0
INSERT
  5
17F83D
  8
0
  2
ACAD
 10
21572.847934387111
 20
11431.5359218661
 30
0.0
  0
INSERT
  5
17F83E
  8
P2
  2
ACAD
 10
23798.038672112249
 20
6118.8035686945468
 30
0.0
 41
0.02
 42
0.02
 43
0.02
  0
INSERT
  5
17F83F
  8
0
  2
SEMAFOR
 10
15386.960463810399
 20
3267.8879405965258
 30
0.0
 41
3.75
 42
3.75
 43
3.75
  0
INSERT
  5
17F840
  8
0
  2
SEMAFOR
 10
15386.960463810399
 20
3267.8879405965258
 30
0.0
 41
3.75
 42
3.75
 43
3.75
  0
INSERT
  5
17F841
  8
0
  2
SEMAFOR
 10
15386.960463810399
 20
3267.8879405965258
 30
0.0
 41
3.75
 42
3.75
 43
3.75
  0
INSERT
  5
17F842
  8
0
  2
ACAD
 10
20387.007407440011
 20
6817.1223203366681
 30
0.0
  0
INSERT
  5
17F843
  8
0
  2
ACAD
 10
20878.758582438499
 20
6783.3825071987458
 30
0.0
  0
INSERT
  5
17F844
  8
0
  2
SEMAFOR
 10
19095.531868357932
 20
4267.7123667294454
 30
0.0
  0
INSERT
  5
17F845
  8
0
  2
SEMAFOR
 10
19095.531868357932
 20
4267.7123667294454
 30
0.0
  0
INSERT
  5
17F846
  8
0
  2
SEMAFOR
 10
19095.531868357932
 20
4267.7123667294454
 30
0.0
  0
INSERT
  5
17F847
  8
0
  2
SEMAFOR
 10
19095.531868357932
 20
4267.7123667294454
 30
0.0
  0
INSERT
  5
17F848
  8
0
  2
SEMAFOR
 10
19095.531868357932
 20
4267.7123667294454
 30
0.0
  0
INSERT
  5
17F849
  8
0
  2
SEMAFOR
 10
19095.531868357932
 20
4267.7123667294454
 30
0.0
  0
INSERT
  5
17F84A
  8
0
  2
ACAD
 10
23828.970831102732
 20
4894.7015922544206
 30
0.0
  0
INSERT
  5
17F84B
  8
0
  2
ACAD
 10
23496.77227051969
 20
4694.279186314433
 30
0.0
  0
INSERT
  5
17F84C
  8
0
  2
ACAD
 10
23496.77227051969
 20
4694.279186314433
 30
0.0
  0
INSERT
  5
17F84D
  8
0
  2
ACAD
 10
28939.190371367309
 20
8429.4747660171706
 30
0.0
  0
INSERT
  5
17F84E
  8
0
  2
ACAD
 10
29430.94154636579
 20
8395.7349528792456
 30
0.0
  0
INSERT
  5
17F84F
  8
0
  2
ACAD
 10
24789.668163936149
 20
12465.100161136939
 30
0.0
  0
INSERT
  5
17F850
  8
0
  2
ACAD
 10
25281.41933893464
 20
12431.36034799902
 30
0.0
  0
INSERT
  5
17F851
  8
P2
  2
ACAD
 10
27506.610076659781
 20
7118.627994827466
 30
0.0
 41
0.02
 42
0.02
 43
0.02
  0
INSERT
  5
17F852
  8
0
  2
SEMAFOR
 10
19095.531868357932
 20
4267.7123667294454
 30
0.0
 41
3.75
 42
3.75
 43
3.75
  0
INSERT
  5
17F853
  8
0
  2
SEMAFOR
 10
19095.531868357932
 20
4267.7123667294454
 30
0.0
 41
3.75
 42
3.75
 43
3.75
  0
INSERT
  5
17F854
  8
0
  2
SEMAFOR
 10
19095.531868357932
 20
4267.7123667294454
 30
0.0
 41
3.75
 42
3.75
 43
3.75
  0
INSERT
  5
17F855
  8
0
  2
ACAD
 10
26391.62771199668
 20
5954.3794556038056
 30
0.0
  0
INSERT
  5
17F856
  8
0
  2
ACAD
 10
26059.429151413649
 20
5753.957049663818
 30
0.0
  0
INSERT
  5
17F857
  8
0
  2
ACAD
 10
26059.429151413649
 20
5753.957049663818
 30
0.0
  0
INSERT
  5
17F858
  8
0
  2
ACAD
 10
31501.847252261261
 20
9489.1526293665538
 30
0.0
  0
INSERT
  5
17F859
  8
0
  2
ACAD
 10
31993.598427259749
 20
9455.4128162286306
 30
0.0
  0
INSERT
  5
17F85A
  8
0
  2
ACAD
 10
27352.325044830101
 20
13524.778024486321
 30
0.0
  0
INSERT
  5
17F85B
  8
0
  2
ACAD
 10
27844.076219828599
 20
13491.038211348399
 30
0.0
  0
INSERT
  5
17F85C
  8
0
  2
SEMAFOR
 10
19095.531868357932
 20
4267.7123667294454
 30
0.0
 41
10.0
 42
10.0
 43
10.0
  0
INSERT
  5
17F85D
  8
0
  2
SEMAFOR
 10
19095.531868357932
 20
4267.7123667294454
 30
0.0
 41
10.0
 42
10.0
 43
10.0
  0
INSERT
  5
17F85E
  8
0
  2
SEMAFOR
 10
19095.531868357932
 20
4267.7123667294454
 30
0.0
 41
10.0
 42
10.0
 43
10.0
  0
INSERT
  5
17F85F
  8
0
  2
SEMAFOR
 10
13167.983238715129
 20
2491.233538220928
 30
0.0
  0
INSERT
  5
17F860
  8
0
  2
SEMAFOR
 10
13167.983238715129
 20
2491.233538220928
 30
0.0
  0
INSERT
  5
17F861
  8
0
  2
SEMAFOR
 10
13167.983238715129
 20
2491.233538220928
 30
0.0
  0
INSERT
  5
17F862
  8
0
  2
SEMAFOR
 10
17706.774905143931
 20
3012.2450404000119
 30
0.0
  0
INSERT
  5
17F863
  8
0
  2
SEMAFOR
 10
17706.774905143931
 20
3012.2450404000119
 30
0.0
  0
INSERT
  5
17F864
  8
0
  2
SEMAFOR
 10
17706.774905143931
 20
3012.2450404000119
 30
0.0
  0
INSERT
  5
17F865
  8
0
  2
ACAD
 10
21077.800978393119
 20
8060.5914657547173
 30
0.0
  0
INSERT
  5
17F866
  8
0
  2
ACAD
 10
21569.552153391611
 20
8026.8516526167932
 30
0.0
  0
INSERT
  5
17F867
  8
ASHADE
 62
     1
  2
AVE_RENDER
 10
13167.983238715129
 20
2491.233538220928
 30
0.0
1001
AVE_RENDER
1002
{
1070
     2
1000
Pref
1070
    30
1070
    20
1070
     1
1070
     0
1000
ESS
1070
    10
1070
     0
1070
    30
1040
1.0
1070
     1
1040
0.51
1040
0.37
1040
0.41
1040
1.587301587301587
1010
0.915
1020
0.085
1030
0.7821999999999997
1040
0.38
1070
    49
1002
}
  0
INSERT
  5
17F868
  8
ASHADE
 62
     3
  2
AVE_RENDER
 10
13167.983238715129
 20
2491.233538220928
 30
0.0
1001
AVE_RENDER
1002
{
1070
     0
1000
Full Opt
1070
     0
1070
     1
1070
     1
1070
     1
1070
     0
1070
     0
1070
     0
1070
     1
1070
     1
1040
0.0001
1040
0.0001
1002
}
  0
INSERT
  5
17F869
  8
ASHADE
 62
     4
  2
AVE_RENDER
 10
13167.983238715129
 20
2491.233538220928
 30
0.0
1001
AVE_RENDER
1002
{
1070
     0
1000
Quick Opt
1070
     0
1070
     1
1070
     1
1070
     1
1070
     0
1070
     0
1070
     1
1002
}
  0
INSERT
  5
17F86A
  8
ASHADE
 62
     2
  2
AVE_RENDER
 10
13167.983238715129
 20
2491.233538220928
 30
0.0
1001
AVE_RENDER
1002
{
1070
     0
1000
ESS
1000

1002
{
1070
     1
1002
}
1002
}
  0
INSERT
  5
17F86B
  8
0
  2
SEMAFOR
 10
19618.034838546169
 20
3675.6152159067619
 30
0.0
 41
8.0
 42
8.0
 43
8.0
  0
INSERT
  5
17F86C
  8
0
  2
SEMAFOR
 10
19618.034838546169
 20
3675.6152159067619
 30
0.0
 41
8.0
 42
8.0
 43
8.0
  0
INSERT
  5
17F86D
  8
0
  2
SEMAFOR
 10
19618.034838546169
 20
3675.6152159067619
 30
0.0
 41
8.0
 42
8.0
 43
8.0
  0
INSERT
  5
17F86E
  8
AME_FRZ
  2
AME_NIL
 10
0.0
 20
0.0
 30
0.0
  0
INSERT
  5
17F86F
  8
AME_FRZ
  2
AME_SOL
 10
0.0
 20
0.0
 30
0.0
1001
AME_SOL
1000
R2.1
1000
AME2
1000
cm^ 2
1070
     3
1070
     0
1070
     3
1000
wire
1040
45.0
1000
U
1040
1.0
1000
cm
1000
gm
1000
MILD_STEEL
1070
    25
1000
CSG
1070
     1
1070
     3
1070
     3
1070
     3
1070
     0
1000
cm^ 3
1070
     6
1070
     0
1005
17F86E
  0
INSERT
  5
17F870
  8
0
  2
SEMAFOR
 10
9978.494744179352
 20
1878.1534429420849
 30
0.0
  0
ENDBLK
  5
17F872
  8
0
  0
BLOCK
  8
0
  2
*D42
 70
     1
 10
0.0
 20
0.0
 30
0.0
  3
*D42
  1

  0
LINE
  5
17F87A
  8
0
  6
BYBLOCK
 62
     4
 10
555.84817151000266
 20
3953.7155074049001
 30
0.0
 11
555.84817151000266
 21
3920.2201023312869
 31
0.0
  0
LINE
  5
17F87B
  8
0
  6
BYBLOCK
 62
     4
 10
603.84817151000277
 20
3944.1856585739652
 30
0.0
 11
603.84817151000277
 21
3920.2201023312869
 31
0.0
  0
LINE
  5
17F87C
  8
0
  6
BYBLOCK
 62
     4
 10
558.84817151000266
 20
3922.020102331287
 30
0.0
 11
600.84817151000266
 21
3922.020102331287
 31
0.0
  0
SOLID
  5
17F87D
  8
0
  6
BYBLOCK
 62
     4
 10
558.84817151000266
 20
3922.520102331287
 30
0.0
 11
558.84817151000266
 21
3921.520102331287
 31
0.0
 12
555.84817151000266
 22
3922.020102331287
 32
0.0
 13
555.84817151000266
 23
3922.020102331287
 33
0.0
  0
SOLID
  5
17F87E
  8
0
  6
BYBLOCK
 62
     4
 10
600.84817151000266
 20
3922.520102331287
 30
0.0
 11
600.84817151000266
 21
3921.520102331287
 31
0.0
 12
603.84817151000277
 22
3922.020102331287
 32
0.0
 13
603.84817151000277
 23
3922.020102331287
 33
0.0
  0
TEXT
  5
17F87F
  8
0
  6
BYBLOCK
 62
    90
 10
572.51483817666929
 20
3924.020102331287
 30
0.0
 40
4.0
  1
48.0
  7
MONOTXT
  0
POINT
  5
17F880
  8
DEFPOINTS
  6
BYBLOCK
 62
     0
 10
555.84817151000266
 20
3955.2155074049001
 30
0.0
  0
POINT
  5
17F881
  8
DEFPOINTS
  6
BYBLOCK
 62
     0
 10
603.84817151000277
 20
3945.6856585739652
 30
0.0
  0
POINT
  5
17F882
  8
DEFPOINTS
  6
BYBLOCK
 62
     0
 10
603.84817151000277
 20
3922.020102331287
 30
0.0
  0
ENDBLK
  5
17F883
  8
0
  0
BLOCK
  8
0
  2
*D43
 70
     1
 10
0.0
 20
0.0
 30
0.0
  3
*D43
  1

  0
LINE
  5
17F887
  8
0
  6
BYBLOCK
 62
     4
 10
555.84817151000266
 20
3918.7201023312869
 30
0.0
 11
555.84817151000266
 21
3912.52598861962
 31
0.0
  0
LINE
  5
17F888
  8
0
  6
BYBLOCK
 62
     4
 10
631.84817151000266
 20
3943.7155074048992
 30
0.0
 11
631.84817151000266
 21
3912.52598861962
 31
0.0
  0
LINE
  5
17F889
  8
0
  6
BYBLOCK
 62
     4
 10
558.84817151000266
 20
3914.3259886196211
 30
0.0
 11
628.84817151000277
 21
3914.3259886196211
 31
0.0
  0
SOLID
  5
17F88A
  8
0
  6
BYBLOCK
 62
     4
 10
558.84817151000266
 20
3914.8259886196211
 30
0.0
 11
558.84817151000266
 21
3913.8259886196211
 31
0.0
 12
555.84817151000266
 22
3914.3259886196211
 32
0.0
 13
555.84817151000266
 23
3914.3259886196211
 33
0.0
  0
SOLID
  5
17F88B
  8
0
  6
BYBLOCK
 62
     4
 10
628.84817151000277
 20
3914.8259886196211
 30
0.0
 11
628.84817151000277
 21
3913.8259886196211
 31
0.0
 12
631.84817151000266
 22
3914.3259886196211
 32
0.0
 13
631.84817151000266
 23
3914.3259886196211
 33
0.0
  0
TEXT
  5
17F88C
  8
0
  6
BYBLOCK
 62
    90
 10
586.5148381766694
 20
3916.3259886196211
 30
0.0
 40
4.0
  1
76.0
  7
MONOTXT
  0
POINT
  5
17F88D
  8
DEFPOINTS
  6
BYBLOCK
 62
     0
 10
555.84817151000266
 20
3920.2201023312869
 30
0.0
  0
POINT
  5
17F88E
  8
DEFPOINTS
  6
BYBLOCK
 62
     0
 10
631.84817151000266
 20
3945.2155074048992
 30
0.0
  0
POINT
  5
17F88F
  8
DEFPOINTS
  6
BYBLOCK
 62
     0
 10
631.84817151000266
 20
3914.3259886196211
 30
0.0
  0
ENDBLK
  5
17F890
  8
0
  0
BLOCK
  8
0
  2
*D44
 70
     1
 10
0.0
 20
0.0
 30
0.0
  3
*D44
  1

  0
LINE
  5
17F894
  8
0
  6
BYBLOCK
 62
     4
 10
555.84817151000266
 20
3911.02598861962
 30
0.0
 11
555.84817151000266
 21
3903.9769746242632
 31
0.0
  0
LINE
  5
17F895
  8
0
  6
BYBLOCK
 62
     4
 10
673.84817151000277
 20
3946.7155074048992
 30
0.0
 11
673.84817151000277
 21
3903.9769746242632
 31
0.0
  0
LINE
  5
17F896
  8
0
  6
BYBLOCK
 62
     4
 10
558.84817151000266
 20
3905.7769746242629
 30
0.0
 11
670.84817151000266
 21
3905.7769746242629
 31
0.0
  0
SOLID
  5
17F897
  8
0
  6
BYBLOCK
 62
     4
 10
558.84817151000266
 20
3906.2769746242629
 30
0.0
 11
558.84817151000266
 21
3905.2769746242629
 31
0.0
 12
555.84817151000266
 22
3905.7769746242629
 32
0.0
 13
555.84817151000266
 23
3905.7769746242629
 33
0.0
  0
SOLID
  5
17F898
  8
0
  6
BYBLOCK
 62
     4
 10
670.84817151000266
 20
3906.2769746242629
 30
0.0
 11
670.84817151000266
 21
3905.2769746242629
 31
0.0
 12
673.84817151000277
 22
3905.7769746242629
 32
0.0
 13
673.84817151000277
 23
3905.7769746242629
 33
0.0
  0
TEXT
  5
17F899
  8
0
  6
BYBLOCK
 62
    90
 10
605.51483817666929
 20
3907.7769746242629
 30
0.0
 40
4.0
  1
118.0
  7
MONOTXT
  0
POINT
  5
17F89A
  8
DEFPOINTS
  6
BYBLOCK
 62
     0
 10
555.84817151000266
 20
3912.52598861962
 30
0.0
  0
POINT
  5
17F89B
  8
DEFPOINTS
  6
BYBLOCK
 62
     0
 10
673.84817151000277
 20
3948.2155074049001
 30
0.0
  0
POINT
  5
17F89C
  8
DEFPOINTS
  6
BYBLOCK
 62
     0
 10
673.84817151000277
 20
3905.7769746242629
 30
0.0
  0
ENDBLK
  5
17F89D
  8
0
  0
BLOCK
  8
0
  2
*D45
 70
     1
 10
0.0
 20
0.0
 30
0.0
  3
*D45
  1

  0
LINE
  5
17F8A1
  8
0
  6
BYBLOCK
 62
     4
 10
555.84817151000266
 20
3902.4769746242632
 30
0.0
 11
555.84817151000266
 21
3895.0005089654528
 31
0.0
  0
LINE
  5
17F8A2
  8
0
  6
BYBLOCK
 62
     4
 10
681.84817151000266
 20
3970.7155074049001
 30
0.0
 11
681.84817151000266
 21
3895.0005089654528
 31
0.0
  0
LINE
  5
17F8A3
  8
0
  6
BYBLOCK
 62
     4
 10
558.84817151000266
 20
3896.800508965453
 30
0.0
 11
678.84817151000277
 21
3896.800508965453
 31
0.0
  0
SOLID
  5
17F8A4
  8
0
  6
BYBLOCK
 62
     4
 10
558.84817151000266
 20
3897.3005089654539
 30
0.0
 11
558.84817151000266
 21
3896.3005089654539
 31
0.0
 12
555.84817151000266
 22
3896.800508965453
 32
0.0
 13
555.84817151000266
 23
3896.800508965453
 33
0.0
  0
SOLID
  5
17F8A5
  8
0
  6
BYBLOCK
 62
     4
 10
678.84817151000277
 20
3897.3005089654539
 30
0.0
 11
678.84817151000277
 21
3896.3005089654539
 31
0.0
 12
681.84817151000266
 22
3896.800508965453
 32
0.0
 13
681.84817151000266
 23
3896.800508965453
 33
0.0
  0
TEXT
  5
17F8A6
  8
0
  6
BYBLOCK
 62
    90
 10
609.51483817666929
 20
3898.8005089654539
 30
0.0
 40
4.0
  1
126.0
  7
MONOTXT
  0
POINT
  5
17F8A7
  8
DEFPOINTS
  6
BYBLOCK
 62
     0
 10
555.84817151000266
 20
3903.9769746242632
 30
0.0
  0
POINT
  5
17F8A8
  8
DEFPOINTS
  6
BYBLOCK
 62
     0
 10
681.84817151000266
 20
3972.2155074049001
 30
0.0
  0
POINT
  5
17F8A9
  8
DEFPOINTS
  6
BYBLOCK
 62
     0
 10
681.84817151000266
 20
3896.800508965453
 30
0.0
  0
ENDBLK
  5
17F8AA
  8
0
  0
BLOCK
  8
0
  2
*D46
 70
     1
 10
0.0
 20
0.0
 30
0.0
  3
*D46
  1

  0
LINE
  5
17F8AE
  8
0
  6
BYBLOCK
 62
     4
 10
555.84817151000266
 20
3893.5005089654528
 30
0.0
 11
555.84817151000266
 21
3885.5965926575959
 31
0.0
  0
LINE
  5
17F8AF
  8
0
  6
BYBLOCK
 62
     4
 10
709.84817151000266
 20
3968.4593378262639
 30
0.0
 11
709.84817151000266
 21
3885.5965926575959
 31
0.0
  0
LINE
  5
17F8B0
  8
0
  6
BYBLOCK
 62
     4
 10
558.84817151000266
 20
3887.396592657597
 30
0.0
 11
706.84817151000266
 21
3887.396592657597
 31
0.0
  0
SOLID
  5
17F8B1
  8
0
  6
BYBLOCK
 62
     4
 10
558.84817151000266
 20
3887.896592657597
 30
0.0
 11
558.84817151000266
 21
3886.896592657597
 31
0.0
 12
555.84817151000266
 22
3887.396592657597
 32
0.0
 13
555.84817151000266
 23
3887.396592657597
 33
0.0
  0
SOLID
  5
17F8B2
  8
0
  6
BYBLOCK
 62
     4
 10
706.84817151000266
 20
3887.896592657597
 30
0.0
 11
706.84817151000266
 21
3886.896592657597
 31
0.0
 12
709.84817151000266
 22
3887.396592657597
 32
0.0
 13
709.84817151000266
 23
3887.396592657597
 33
0.0
  0
TEXT
  5
17F8B3
  8
0
  6
BYBLOCK
 62
    90
 10
623.5148381766694
 20
3889.396592657597
 30
0.0
 40
4.0
  1
154.0
  7
MONOTXT
  0
POINT
  5
17F8B4
  8
DEFPOINTS
  6
BYBLOCK
 62
     0
 10
555.84817151000266
 20
3895.0005089654528
 30
0.0
  0
POINT
  5
17F8B5
  8
DEFPOINTS
  6
BYBLOCK
 62
     0
 10
709.84817151000266
 20
3969.9593378262639
 30
0.0
  0
POINT
  5
17F8B6
  8
DEFPOINTS
  6
BYBLOCK
 62
     0
 10
709.84817151000266
 20
3887.396592657597
 30
0.0
  0
ENDBLK
  5
17F8B7
  8
0
  0
BLOCK
  8
0
  2
*D47
 70
     1
 10
0.0
 20
0.0
 30
0.0
  3
*D47
  1

  0
LINE
  5
17F8BB
  8
0
  6
BYBLOCK
 62
     4
 10
597.34817151000266
 20
3948.1856585739652
 30
0.0
 11
591.8548661701825
 21
3948.1856585739652
 31
0.0
  0
LINE
  5
17F8BC
  8
0
  6
BYBLOCK
 62
     4
 10
602.34817151000266
 20
3955.2155074049001
 30
0.0
 11
591.8548661701825
 21
3955.2155074049001
 31
0.0
  0
LINE
  5
17F8BD
  8
0
  6
BYBLOCK
 62
     4
 10
593.65486617018246
 20
3945.1856585739652
 30
0.0
 11
593.65486617018246
 21
3942.1856585739652
 31
0.0
  0
LINE
  5
17F8BE
  8
0
  6
BYBLOCK
 62
     4
 10
593.65486617018246
 20
3958.2155074049001
 30
0.0
 11
593.65486617018246
 21
3961.2155074049001
 31
0.0
  0
TEXT
  5
17F8BF
  8
0
  6
BYBLOCK
 62
    90
 10
578.18819950351565
 20
3949.7005829894329
 30
0.0
 40
4.0
  1
7.0
  7
MONOTXT
  0
LINE
  5
17F8C0
  8
0
  6
BYBLOCK
 62
     4
 10
593.65486617018246
 20
3948.1856585739652
 30
0.0
 11
593.65486617018246
 21
3955.2155074049001
 31
0.0
  0
SOLID
  5
17F8C1
  8
0
  6
BYBLOCK
 62
     4
 10
593.15486617018234
 20
3945.1856585739652
 30
0.0
 11
594.15486617018234
 21
3945.1856585739652
 31
0.0
 12
593.65486617018246
 22
3948.1856585739652
 32
0.0
 13
593.65486617018246
 23
3948.1856585739652
 33
0.0
  0
SOLID
  5
17F8C2
  8
0
  6
BYBLOCK
 62
     4
 10
593.15486617018234
 20
3958.2155074049001
 30
0.0
 11
594.15486617018234
 21
3958.2155074049001
 31
0.0
 12
593.65486617018246
 22
3955.2155074049001
 32
0.0
 13
593.65486617018246
 23
3955.2155074049001
 33
0.0
  0
POINT
  5
17F8C3
  8
DEFPOINTS
  6
BYBLOCK
 62
     0
 10
598.84817151000277
 20
3948.1856585739652
 30
0.0
  0
POINT
  5
17F8C4
  8
DEFPOINTS
  6
BYBLOCK
 62
     0
 10
603.84817151000277
 20
3955.2155074049001
 30
0.0
  0
POINT
  5
17F8C5
  8
DEFPOINTS
  6
BYBLOCK
 62
     0
 10
593.65486617018246
 20
3955.2155074049001
 30
0.0
  0
ENDBLK
  5
17F8C6
  8
0
  0
BLOCK
  8
0
  2
*D48
 70
     1
 10
0.0
 20
0.0
 30
0.0
  3
*D48
  1

  0
LINE
  5
17F8CA
  8
0
  6
BYBLOCK
 62
     4
 10
602.34817151000266
 20
3955.2155074049001
 30
0.0
 11
594.1626325942234
 21
3955.2155074049001
 31
0.0
  0
LINE
  5
17F8CB
  8
0
  6
BYBLOCK
 62
     4
 10
597.34817151000266
 20
3974.7155074049001
 30
0.0
 11
594.1626325942234
 21
3974.7155074049001
 31
0.0
  0
LINE
  5
17F8CC
  8
0
  6
BYBLOCK
 62
     4
 10
595.96263259422335
 20
3958.2155074049001
 30
0.0
 11
595.96263259422335
 21
3960.9655074049001
 31
0.0
  0
LINE
  5
17F8CD
  8
0
  6
BYBLOCK
 62
     4
 10
595.96263259422335
 20
3971.7155074049001
 30
0.0
 11
595.96263259422335
 21
3968.9655074049001
 31
0.0
  0
SOLID
  5
17F8CE
  8
0
  6
BYBLOCK
 62
     4
 10
595.46263259422335
 20
3958.2155074049001
 30
0.0
 11
596.46263259422335
 21
3958.2155074049001
 31
0.0
 12
595.96263259422335
 22
3955.2155074049001
 32
0.0
 13
595.96263259422335
 23
3955.2155074049001
 33
0.0
  0
SOLID
  5
17F8CF
  8
0
  6
BYBLOCK
 62
     4
 10
595.46263259422335
 20
3971.7155074049001
 30
0.0
 11
596.46263259422335
 21
3971.7155074049001
 31
0.0
 12
595.96263259422335
 22
3974.7155074049001
 32
0.0
 13
595.96263259422335
 23
3974.7155074049001
 33
0.0
  0
TEXT
  5
17F8D0
  8
0
  6
BYBLOCK
 62
    90
 10
588.62929926088998
 20
3962.9655074049001
 30
0.0
 40
4.0
  1
19.5
  7
MONOTXT
  0
POINT
  5
17F8D1
  8
DEFPOINTS
  6
BYBLOCK
 62
     0
 10
603.84817151000277
 20
3955.2155074049001
 30
0.0
  0
POINT
  5
17F8D2
  8
DEFPOINTS
  6
BYBLOCK
 62
     0
 10
598.84817151000277
 20
3974.7155074049001
 30
0.0
  0
POINT
  5
17F8D3
  8
DEFPOINTS
  6
BYBLOCK
 62
     0
 10
595.96263259422335
 20
3974.7155074049001
 30
0.0
  0
ENDBLK
  5
17F8D4
  8
0
  0
BLOCK
  8
0
  2
*D49
 70
     1
 10
0.0
 20
0.0
 30
0.0
  3
*D49
  1

  0
LINE
  5
17F945
  8
0
  6
BYBLOCK
 62
     4
 10
630.34817151000266
 20
3955.2155074049001
 30
0.0
 11
623.98607038940497
 21
3955.2155074049001
 31
0.0
  0
LINE
  5
17F946
  8
0
  6
BYBLOCK
 62
     4
 10
625.34817151000266
 20
3970.2155074049001
 30
0.0
 11
623.98607038940497
 21
3970.2155074049001
 31
0.0
  0
LINE
  5
17F947
  8
0
  6
BYBLOCK
 62
     4
 10
625.78607038940504
 20
3958.2155074049001
 30
0.0
 11
625.78607038940504
 21
3960.2155074049001
 31
0.0
  0
LINE
  5
17F948
  8
0
  6
BYBLOCK
 62
     4
 10
625.78607038940504
 20
3967.2155074049001
 30
0.0
 11
625.78607038940504
 21
3965.2155074049001
 31
0.0
  0
TEXT
  5
17F949
  8
0
  6
BYBLOCK
 62
    90
 10
616.35212526039061
 20
3960.7155074049001
 30
0.0
 40
4.0
  1
15.0
  7
MONOTXT
  0
SOLID
  5
17F94A
  8
0
  6
BYBLOCK
 62
     4
 10
625.28607038940504
 20
3958.2155074049001
 30
0.0
 11
626.28607038940504
 21
3958.2155074049001
 31
0.0
 12
625.78607038940504
 22
3955.2155074049001
 32
0.0
 13
625.78607038940504
 23
3955.2155074049001
 33
0.0
  0
SOLID
  5
17F94B
  8
0
  6
BYBLOCK
 62
     4
 10
625.28607038940504
 20
3967.2155074049001
 30
0.0
 11
626.28607038940504
 21
3967.2155074049001
 31
0.0
 12
625.78607038940504
 22
3970.2155074049001
 32
0.0
 13
625.78607038940504
 23
3970.2155074049001
 33
0.0
  0
POINT
  5
17F94C
  8
DEFPOINTS
  6
BYBLOCK
 62
     0
 10
631.84817151000266
 20
3955.2155074049001
 30
0.0
  0
POINT
  5
17F94D
  8
DEFPOINTS
  6
BYBLOCK
 62
     0
 10
626.84817151000266
 20
3970.2155074049001
 30
0.0
  0
POINT
  5
17F94E
  8
DEFPOINTS
  6
BYBLOCK
 62
     0
 10
625.78607038940504
 20
3970.2155074049001
 30
0.0
  0
ENDBLK
  5
17F94F
  8
0
  0
BLOCK
  8
0
  2
*D50
 70
     1
 10
0.0
 20
0.0
 30
0.0
  3
*D50
  1

  0
LINE
  5
17F8E5
  8
0
  6
BYBLOCK
 62
     4
 10
630.34817151000266
 20
3955.2155074049001
 30
0.0
 11
622.38838664782884
 21
3955.2155074049001
 31
0.0
  0
LINE
  5
17F8E6
  8
0
  6
BYBLOCK
 62
     4
 10
625.34817151000266
 20
3950.2155074049001
 30
0.0
 11
622.38838664782884
 21
3950.2155074049001
 31
0.0
  0
LINE
  5
17F8E7
  8
0
  6
BYBLOCK
 62
     4
 10
624.18838664782868
 20
3958.2155074049001
 30
0.0
 11
624.18838664782868
 21
3961.2155074049001
 31
0.0
  0
LINE
  5
17F8E8
  8
0
  6
BYBLOCK
 62
     4
 10
624.18838664782868
 20
3947.2155074049001
 30
0.0
 11
624.18838664782868
 21
3944.2155074049001
 31
0.0
  0
TEXT
  5
17F8E9
  8
0
  6
BYBLOCK
 62
    90
 10
608.7217199811621
 20
3950.7155074049001
 30
0.0
 40
4.0
  1
5.0
  7
MONOTXT
  0
LINE
  5
17F8EA
  8
0
  6
BYBLOCK
 62
     4
 10
624.18838664782868
 20
3955.2155074049001
 30
0.0
 11
624.18838664782868
 21
3950.2155074049001
 31
0.0
  0
SOLID
  5
17F8EB
  8
0
  6
BYBLOCK
 62
     4
 10
623.68838664782868
 20
3958.2155074049001
 30
0.0
 11
624.68838664782868
 21
3958.2155074049001
 31
0.0
 12
624.18838664782868
 22
3955.2155074049001
 32
0.0
 13
624.18838664782868
 23
3955.2155074049001
 33
0.0
  0
SOLID
  5
17F8EC
  8
0
  6
BYBLOCK
 62
     4
 10
623.68838664782868
 20
3947.2155074049001
 30
0.0
 11
624.68838664782868
 21
3947.2155074049001
 31
0.0
 12
624.18838664782868
 22
3950.2155074049001
 32
0.0
 13
624.18838664782868
 23
3950.2155074049001
 33
0.0
  0
POINT
  5
17F8ED
  8
DEFPOINTS
  6
BYBLOCK
 62
     0
 10
631.84817151000266
 20
3955.2155074049001
 30
0.0
  0
POINT
  5
17F8EE
  8
DEFPOINTS
  6
BYBLOCK
 62
     0
 10
626.84817151000266
 20
3950.2155074049001
 30
0.0
  0
POINT
  5
17F8EF
  8
DEFPOINTS
  6
BYBLOCK
 62
     0
 10
624.18838664782868
 20
3950.2155074049001
 30
0.0
  0
ENDBLK
  5
17F8F0
  8
0
  0
BLOCK
  8
0
  2
*D51
 70
     1
 10
0.0
 20
0.0
 30
0.0
  3
*D51
  1

  0
LINE
  5
17F903
  8
0
  6
BYBLOCK
 62
     4
 10
672.34817151000266
 20
3955.2155074049001
 30
0.0
 11
659.06942442654963
 21
3955.2155074049001
 31
0.0
  0
LINE
  5
17F904
  8
0
  6
BYBLOCK
 62
     4
 10
667.34817151000266
 20
3953.2155074049001
 30
0.0
 11
659.06942442654963
 21
3953.2155074049001
 31
0.0
  0
LINE
  5
17F905
  8
0
  6
BYBLOCK
 62
     4
 10
660.86942442654947
 20
3958.2155074049001
 30
0.0
 11
660.86942442654947
 21
3961.2155074049001
 31
0.0
  0
LINE
  5
17F906
  8
0
  6
BYBLOCK
 62
     4
 10
660.86942442654947
 20
3950.2155074049001
 30
0.0
 11
660.86942442654947
 21
3947.2155074049001
 31
0.0
  0
TEXT
  5
17F907
  8
0
  6
BYBLOCK
 62
    90
 10
645.40275775988289
 20
3952.2155074049001
 30
0.0
 40
4.0
  1
2.0
  7
MONOTXT
  0
LINE
  5
17F908
  8
0
  6
BYBLOCK
 62
     4
 10
660.86942442654947
 20
3955.2155074049001
 30
0.0
 11
660.86942442654947
 21
3953.2155074049001
 31
0.0
  0
SOLID
  5
17F909
  8
0
  6
BYBLOCK
 62
     4
 10
660.36942442654947
 20
3958.2155074049001
 30
0.0
 11
661.36942442654947
 21
3958.2155074049001
 31
0.0
 12
660.86942442654947
 22
3955.2155074049001
 32
0.0
 13
660.86942442654947
 23
3955.2155074049001
 33
0.0
  0
SOLID
  5
17F90A
  8
0
  6
BYBLOCK
 62
     4
 10
660.36942442654947
 20
3950.2155074049001
 30
0.0
 11
661.36942442654947
 21
3950.2155074049001
 31
0.0
 12
660.86942442654947
 22
3953.2155074049001
 32
0.0
 13
660.86942442654947
 23
3953.2155074049001
 33
0.0
  0
POINT
  5
17F90B
  8
DEFPOINTS
  6
BYBLOCK
 62
     0
 10
673.84817151000277
 20
3955.2155074049001
 30
0.0
  0
POINT
  5
17F90C
  8
DEFPOINTS
  6
BYBLOCK
 62
     0
 10
668.84817151000266
 20
3953.2155074049001
 30
0.0
  0
POINT
  5
17F90D
  8
DEFPOINTS
  6
BYBLOCK
 62
     0
 10
660.86942442654947
 20
3953.2155074049001
 30
0.0
  0
ENDBLK
  5
17F90E
  8
0
  0
BLOCK
  8
0
  2
*D52
 70
     1
 10
0.0
 20
0.0
 30
0.0
  3
*D52
  1

  0
LINE
  5
17F939
  8
0
  6
BYBLOCK
 62
     4
 10
703.34817151000277
 20
3974.959337826263
 30
0.0
 11
700.07665208311516
 21
3974.959337826263
 31
0.0
  0
LINE
  5
17F93A
  8
0
  6
BYBLOCK
 62
     4
 10
708.34817151000266
 20
3955.2155074049001
 30
0.0
 11
700.07665208311516
 21
3955.2155074049001
 31
0.0
  0
LINE
  5
17F93B
  8
0
  6
BYBLOCK
 62
     4
 10
701.87665208311523
 20
3971.959337826263
 30
0.0
 11
701.87665208311523
 21
3965.9010538319139
 31
0.0
  0
LINE
  5
17F93C
  8
0
  6
BYBLOCK
 62
     4
 10
701.87665208311523
 20
3958.2155074049001
 30
0.0
 11
701.87665208311523
 21
3960.2155074049001
 31
0.0
  0
TEXT
  5
17F93D
  8
0
  6
BYBLOCK
 62
    90
 10
694.54331874978175
 20
3959.901053831913
 30
0.0
 40
4.0
  1
19.7
  7
MONOTXT
  0
SOLID
  5
17F93E
  8
0
  6
BYBLOCK
 62
     4
 10
701.37665208311523
 20
3971.959337826263
 30
0.0
 11
702.37665208311523
 21
3971.959337826263
 31
0.0
 12
701.87665208311523
 22
3974.959337826263
 32
0.0
 13
701.87665208311523
 23
3974.959337826263
 33
0.0
  0
SOLID
  5
17F93F
  8
0
  6
BYBLOCK
 62
     4
 10
701.37665208311523
 20
3958.2155074049001
 30
0.0
 11
702.37665208311523
 21
3958.2155074049001
 31
0.0
 12
701.87665208311523
 22
3955.2155074049001
 32
0.0
 13
701.87665208311523
 23
3955.2155074049001
 33
0.0
  0
POINT
  5
17F940
  8
DEFPOINTS
  6
BYBLOCK
 62
     0
 10
704.84817151000266
 20
3974.959337826263
 30
0.0
  0
POINT
  5
17F941
  8
DEFPOINTS
  6
BYBLOCK
 62
     0
 10
709.84817151000266
 20
3955.2155074049001
 30
0.0
  0
POINT
  5
17F942
  8
DEFPOINTS
  6
BYBLOCK
 62
     0
 10
701.87665208311523
 20
3955.2155074049001
 30
0.0
  0
ENDBLK
  5
17F943
  8
0
  0
BLOCK
  8
0
  2
*D53
 70
     1
 10
0.0
 20
0.0
 30
0.0
  3
*D53
  1

  0
LINE
  5
17F92D
  8
0
  6
BYBLOCK
 62
     4
 10
688.34817151000266
 20
3977.2155074048992
 30
0.0
 11
692.13782179808663
 21
3977.2155074048992
 31
0.0
  0
LINE
  5
17F92E
  8
0
  6
BYBLOCK
 62
     4
 10
683.34817151000266
 20
3955.2155074049001
 30
0.0
 11
692.13782179808663
 21
3955.2155074049001
 31
0.0
  0
LINE
  5
17F92F
  8
0
  6
BYBLOCK
 62
     4
 10
690.33782179808668
 20
3974.2155074048992
 30
0.0
 11
690.33782179808668
 21
3972.2155074049001
 31
0.0
  0
LINE
  5
17F930
  8
0
  6
BYBLOCK
 62
     4
 10
690.33782179808668
 20
3958.2155074049001
 30
0.0
 11
690.33782179808668
 21
3966.4112090462331
 31
0.0
  0
TEXT
  5
17F931
  8
0
  6
BYBLOCK
 62
    90
 10
683.00448846475331
 20
3968.4112090462322
 30
0.0
 40
4.0
  1
22.0
  7
MONOTXT
  0
SOLID
  5
17F932
  8
0
  6
BYBLOCK
 62
     4
 10
689.83782179808668
 20
3974.2155074048992
 30
0.0
 11
690.83782179808668
 21
3974.2155074048992
 31
0.0
 12
690.33782179808668
 22
3977.2155074048992
 32
0.0
 13
690.33782179808668
 23
3977.2155074048992
 33
0.0
  0
SOLID
  5
17F933
  8
0
  6
BYBLOCK
 62
     4
 10
689.83782179808668
 20
3958.2155074049001
 30
0.0
 11
690.83782179808668
 21
3958.2155074049001
 31
0.0
 12
690.33782179808668
 22
3955.2155074049001
 32
0.0
 13
690.33782179808668
 23
3955.2155074049001
 33
0.0
  0
POINT
  5
17F934
  8
DEFPOINTS
  6
BYBLOCK
 62
     0
 10
686.84817151000277
 20
3977.2155074048992
 30
0.0
  0
POINT
  5
17F935
  8
DEFPOINTS
  6
BYBLOCK
 62
     0
 10
681.84817151000266
 20
3955.2155074049001
 30
0.0
  0
POINT
  5
17F936
  8
DEFPOINTS
  6
BYBLOCK
 62
     0
 10
690.33782179808668
 20
3955.2155074049001
 30
0.0
  0
ENDBLK
  5
17F937
  8
0
  0
BLOCK
  8
0
  2
*D54
 70
     1
 10
0.0
 20
0.0
 30
0.0
  3
*D54
  1

  0
LINE
  5
17F952
  8
0
  6
BYBLOCK
 62
     4
 10
558.75048914856848
 20
3960.4668455510168
 30
0.0
 11
560.20164796785104
 21
3963.0925146240761
 31
0.0
  0
TEXT
  5
17F953
  8
0
  6
BYBLOCK
 62
    90
 10
562.0905983330905
 20
3960.611529334451
 30
0.0
 40
4.0
  1
%%c6.0
  7
MONOTXT
  0
SOLID
  5
17F954
  8
0
  6
BYBLOCK
 62
     4
 10
552.50824235926029
 20
3950.2060290619952
 30
0.0
 11
553.38346538361316
 21
3949.722309455567
 31
0.0
 12
554.39701269071952
 22
3952.5898383318399
 32
0.0
 13
554.39701269071952
 23
3952.5898383318399
 33
0.0
  0
SOLID
  5
17F955
  8
0
  6
BYBLOCK
 62
     4
 10
558.31287763639193
 20
3960.7087053542309
 30
0.0
 11
559.18810066074468
 21
3960.2249857478032
 31
0.0
 12
557.29933032928557
 22
3957.841176477958
 32
0.0
 13
557.29933032928557
 23
3957.841176477958
 33
0.0
  0
LINE
  5
17F956
  8
0
  6
BYBLOCK
 62
     4
 10
555.34817151000254
 20
3955.2155074048992
 30
0.0
 11
556.34817151000254
 21
3955.2155074048992
 31
0.0
  0
LINE
  5
17F957
  8
0
  6
BYBLOCK
 62
     4
 10
555.84817151000254
 20
3954.7155074048992
 30
0.0
 11
555.84817151000254
 21
3955.7155074048992
 31
0.0
  0
POINT
  5
17F958
  8
DEFPOINTS
  6
BYBLOCK
 62
     0
 10
557.29933032928557
 20
3957.841176477958
 30
0.0
  0
POINT
  5
17F959
  8
DEFPOINTS
  6
BYBLOCK
 62
     0
 10
554.39701269071952
 20
3952.5898383318399
 30
0.0
  0
ENDBLK
  5
17F95A
  8
0
  0
BLOCK
  8
0
  2
*D55
 70
     1
 10
0.0
 20
0.0
 30
0.0
  3
*D55
  1

  0
LINE
  5
17F95E
  8
0
  6
BYBLOCK
 62
     4
 10
607.86111122537238
 20
3978.4766661147678
 30
0.0
 11
610.04998743375563
 21
3980.5282072292412
 31
0.0
  0
TEXT
  5
17F95F
  8
0
  6
BYBLOCK
 62
    90
 10
613.56739363911754
 20
3984.5912722596008
 30
0.0
 40
4.0
  1
(8x) %%c5.0
  7
MONOTXT
  0
SOLID
  5
17F960
  8
0
  6
BYBLOCK
 62
     4
 10
599.49330827555525
 20
3971.31916139643
 30
0.0
 11
600.177155313713
 21
3970.5895359936349
 31
0.0
 12
602.02410800301732
 22
3973.0058898095058
 32
0.0
 13
602.02410800301732
 23
3973.0058898095058
 33
0.0
  0
SOLID
  5
17F961
  8
0
  6
BYBLOCK
 62
     4
 10
607.51918770629368
 20
3978.8414788161649
 30
0.0
 11
608.20303474445143
 21
3978.1118534133702
 31
0.0
 12
605.67223501698925
 22
3976.425125000294
 32
0.0
 13
605.67223501698925
 23
3976.425125000294
 33
0.0
  0
LINE
  5
17F962
  8
0
  6
BYBLOCK
 62
     4
 10
603.34817151000334
 20
3974.7155074049001
 30
0.0
 11
604.34817151000334
 21
3974.7155074049001
 31
0.0
  0
LINE
  5
17F963
  8
0
  6
BYBLOCK
 62
     4
 10
603.84817151000334
 20
3974.2155074048992
 30
0.0
 11
603.84817151000334
 21
3975.2155074049001
 31
0.0
  0
POINT
  5
17F964
  8
DEFPOINTS
  6
BYBLOCK
 62
     0
 10
605.67223501698925
 20
3976.425125000294
 30
0.0
  0
POINT
  5
17F965
  8
DEFPOINTS
  6
BYBLOCK
 62
     0
 10
602.02410800301732
 20
3973.0058898095058
 30
0.0
  0
ENDBLK
  5
17F966
  8
0
  0
BLOCK
  8
0
  2
*D56
 70
     1
 10
0.0
 20
0.0
 30
0.0
  3
*D56
  1

  0
LINE
  5
17F96A
  8
0
  6
BYBLOCK
 62
     4
 10
768.37813533234225
 20
3943.7195089608831
 30
0.0
 11
809.24875632467376
 21
3943.7195089608831
 31
0.0
  0
LINE
  5
17F96B
  8
0
  6
BYBLOCK
 62
     4
 10
806.64920708597924
 20
3955.2155074049001
 30
0.0
 11
805.64875632467397
 21
3955.2155074049001
 31
0.0
  0
LINE
  5
17F96C
  8
0
  6
BYBLOCK
 62
     4
 10
807.44875632467392
 20
3946.7195089608831
 30
0.0
 11
807.44875632467392
 21
3952.2155074049001
 31
0.0
  0
TEXT
  5
17F96D
  8
0
  6
BYBLOCK
 62
    90
 10
787.98208965800723
 20
3947.4675081828909
 30
0.0
 40
4.0
  1
11.5
  7
MONOTXT
  0
SOLID
  5
17F96E
  8
0
  6
BYBLOCK
 62
     4
 10
806.94875632467381
 20
3946.7195089608831
 30
0.0
 11
807.94875632467404
 21
3946.7195089608831
 31
0.0
 12
807.44875632467392
 22
3943.7195089608831
 32
0.0
 13
807.44875632467392
 23
3943.7195089608831
 33
0.0
  0
SOLID
  5
17F96F
  8
0
  6
BYBLOCK
 62
     4
 10
806.94875632467381
 20
3952.2155074049001
 30
0.0
 11
807.94875632467404
 21
3952.2155074049001
 31
0.0
 12
807.44875632467392
 22
3955.2155074049001
 32
0.0
 13
807.44875632467392
 23
3955.2155074049001
 33
0.0
  0
POINT
  5
17F970
  8
DEFPOINTS
  6
BYBLOCK
 62
     0
 10
766.87813533234225
 20
3943.7195089608831
 30
0.0
  0
POINT
  5
17F971
  8
DEFPOINTS
  6
BYBLOCK
 62
     0
 10
808.14920708597936
 20
3955.2155074049001
 30
0.0
  0
POINT
  5
17F972
  8
DEFPOINTS
  6
BYBLOCK
 62
     0
 10
807.44875632467392
 20
3955.2155074049001
 30
0.0
  0
ENDBLK
  5
17F973
  8
0
  0
BLOCK
  8
0
  2
*D57
 70
     1
 10
0.0
 20
0.0
 30
0.0
  3
*D57
  1

  0
LINE
  5
17FB1A
  8
0
  6
BYBLOCK
 62
     4
 10
766.87813534003055
 20
3972.4577154517569
 30
0.0
 11
766.87813534003055
 21
3999.4989485845622
 31
0.0
  0
LINE
  5
17FB1B
  8
0
  6
BYBLOCK
 62
     4
 10
732.56642170205635
 20
3977.8760914918989
 30
0.0
 11
732.56642170205635
 21
3999.4989485845622
 31
0.0
  0
LINE
  5
17FB1C
  8
0
  6
BYBLOCK
 62
     4
 10
769.87813534003055
 20
3997.698948584562
 30
0.0
 11
772.87813534003055
 21
3997.698948584562
 31
0.0
  0
LINE
  5
17FB1D
  8
0
  6
BYBLOCK
 62
     4
 10
729.56642170205635
 20
3997.698948584562
 30
0.0
 11
726.56642170205635
 21
3997.698948584562
 31
0.0
  0
SOLID
  5
17FB1E
  8
0
  6
BYBLOCK
 62
     4
 10
769.87813534003055
 20
3998.198948584562
 30
0.0
 11
769.87813534003055
 21
3997.198948584562
 31
0.0
 12
766.87813534003055
 22
3997.698948584562
 32
0.0
 13
766.87813534003055
 23
3997.698948584562
 33
0.0
  0
SOLID
  5
17FB1F
  8
0
  6
BYBLOCK
 62
     4
 10
729.56642170205635
 20
3998.198948584562
 30
0.0
 11
729.56642170205635
 21
3997.198948584562
 31
0.0
 12
732.56642170205635
 22
3997.698948584562
 32
0.0
 13
732.56642170205635
 23
3997.698948584562
 33
0.0
  0
TEXT
  5
17FB20
  8
0
  6
BYBLOCK
 62
    90
 10
738.22227852104345
 20
3995.698948584562
 30
0.0
 40
4.0
  1
34.3
  7
MONOTXT
  0
TEXT
  5
17FB21
  8
0
  6
BYBLOCK
 62
    90
 10
754.22227852104345
 20
3996.698948584562
 30
0.0
 40
2.0
  1
%%p0.1
  7
MONOTXT
1001
ACAD
1000
R13OBJECT
1002
{
1005
17FB20
1002
}
  0
POINT
  5
17FB22
  8
DEFPOINTS
  6
BYBLOCK
 62
     0
 10
766.87813534003055
 20
3970.9577154517569
 30
0.0
  0
POINT
  5
17FB23
  8
DEFPOINTS
  6
BYBLOCK
 62
     0
 10
732.56642170205635
 20
3976.376091491898
 30
0.0
  0
POINT
  5
17FB24
  8
DEFPOINTS
  6
BYBLOCK
 62
     0
 10
732.56642170205635
 20
3997.698948584562
 30
0.0
  0
ENDBLK
  5
17FB25
  8
0
  0
BLOCK
  8
0
  2
*D58
 70
     1
 10
0.0
 20
0.0
 30
0.0
  3
*D58
  1

  0
LINE
  5
17FB28
  8
0
  6
BYBLOCK
 62
     4
 10
766.87813533234225
 20
3950.7155074859479
 30
0.0
 11
766.87813533234225
 21
3921.7378302474231
 31
0.0
  0
LINE
  5
17FB29
  8
0
  6
BYBLOCK
 62
     4
 10
731.87813532983034
 20
3950.7155075095102
 30
0.0
 11
731.87813532983034
 21
3921.7378302474231
 31
0.0
  0
LINE
  5
17FB2A
  8
0
  6
BYBLOCK
 62
     4
 10
769.87813533234225
 20
3923.5378302474228
 30
0.0
 11
772.87813533234225
 21
3923.5378302474228
 31
0.0
  0
LINE
  5
17FB2B
  8
0
  6
BYBLOCK
 62
     4
 10
728.87813532983034
 20
3923.5378302474228
 30
0.0
 11
725.87813532983034
 21
3923.5378302474228
 31
0.0
  0
SOLID
  5
17FB2C
  8
0
  6
BYBLOCK
 62
     4
 10
769.87813533234225
 20
3924.0378302474228
 30
0.0
 11
769.87813533234225
 21
3923.0378302474228
 31
0.0
 12
766.87813533234225
 22
3923.5378302474228
 32
0.0
 13
766.87813533234225
 23
3923.5378302474228
 33
0.0
  0
SOLID
  5
17FB2D
  8
0
  6
BYBLOCK
 62
     4
 10
728.87813532983034
 20
3924.0378302474228
 30
0.0
 11
728.87813532983034
 21
3923.0378302474228
 31
0.0
 12
731.87813532983034
 22
3923.5378302474228
 32
0.0
 13
731.87813532983034
 23
3923.5378302474228
 33
0.0
  0
TEXT
  5
17FB2E
  8
0
  6
BYBLOCK
 62
    90
 10
737.87813533108624
 20
3921.5378302474228
 30
0.0
 40
4.0
  1
35.0
  7
MONOTXT
  0
TEXT
  5
17FB2F
  8
0
  6
BYBLOCK
 62
    90
 10
753.87813533108624
 20
3922.5378302474228
 30
0.0
 40
2.0
  1
%%p0.1
  7
MONOTXT
1001
ACAD
1000
R13OBJECT
1002
{
1005
17FB2E
1002
}
  0
POINT
  5
17FB30
  8
DEFPOINTS
  6
BYBLOCK
 62
     0
 10
766.87813533234225
 20
3952.2155074859479
 30
0.0
  0
POINT
  5
17FB31
  8
DEFPOINTS
  6
BYBLOCK
 62
     0
 10
731.87813532983034
 20
3952.2155075095111
 30
0.0
  0
POINT
  5
17FB32
  8
DEFPOINTS
  6
BYBLOCK
 62
     0
 10
731.87813532983034
 20
3923.5378302474228
 30
0.0
  0
ENDBLK
  5
17FB33
  8
0
  0
BLOCK
  8
0
  2
*D59
 70
     1
 10
0.0
 20
0.0
 30
0.0
  3
*D59
  1

  0
LINE
  5
17FB36
  8
0
  6
BYBLOCK
 62
     4
 10
731.417355037378
 20
3977.3402729064278
 30
0.0
 11
701.15858516388244
 21
4002.730395547158
 31
0.0
  0
LINE
  5
17FB37
  8
0
  6
BYBLOCK
 62
     4
 10
717.25461383662957
 20
3960.461775199456
 30
0.0
 11
686.99584396313412
 21
3985.8518978401862
 31
0.0
  0
LINE
  5
17FB38
  8
0
  6
BYBLOCK
 62
     4
 10
700.60910233243703
 20
3999.2752445203669
 30
0.0
 11
698.39859613045746
 21
3996.6408658127052
 31
0.0
  0
LINE
  5
17FB39
  8
0
  6
BYBLOCK
 62
     4
 10
690.30308678980816
 20
3986.9930134721071
 30
0.0
 11
691.68579908103902
 21
3988.6408658127061
 31
0.0
  0
TEXT
  5
17FB3A
  8
0
  6
BYBLOCK
 62
    90
 10
683.85787242440938
 20
3990.6408658127061
 30
0.0
 40
4.0
  1
22.0
  7
MONOTXT
  0
TEXT
  5
17FB3B
  8
0
  6
BYBLOCK
 62
    90
 10
699.85787242440938
 20
3991.6408658127061
 30
0.0
 40
2.0
  1
%%p0.1
  7
MONOTXT
1001
ACAD
1000
R13OBJECT
1002
{
1005
17FB3A
1002
}
  0
SOLID
  5
17FB3C
  8
0
  6
BYBLOCK
 62
     4
 10
700.22608011087743
 20
3999.5966383252089
 30
0.0
 11
700.99212455399629
 21
3998.953850715523
 31
0.0
 12
702.53746516149647
 22
4001.573377849722
 32
0.0
 13
702.53746516149647
 23
4001.573377849722
 33
0.0
  0
SOLID
  5
17FB3D
  8
0
  6
BYBLOCK
 62
     4
 10
689.92006456824845
 20
3987.3144072769501
 30
0.0
 11
690.68610901136731
 21
3986.6716196672642
 31
0.0
 12
688.37472396074816
 22
3984.6948801427502
 32
0.0
 13
688.37472396074816
 23
3984.6948801427502
 33
0.0
  0
POINT
  5
17FB3E
  8
DEFPOINTS
  6
BYBLOCK
 62
     0
 10
732.56642170205635
 20
3976.376091491898
 30
0.0
  0
POINT
  5
17FB3F
  8
DEFPOINTS
  6
BYBLOCK
 62
     0
 10
718.40368050130814
 20
3959.4975937849258
 30
0.0
  0
POINT
  5
17FB40
  8
DEFPOINTS
  6
BYBLOCK
 62
     0
 10
688.37472396074816
 20
3984.6948801427502
 30
0.0
  0
ENDBLK
  5
17FB41
  8
0
  0
BLOCK
  8
0
  2
*D60
 70
     1
 10
0.0
 20
0.0
 30
0.0
  3
*D60
  1

  0
LINE
  5
17FB44
  8
0
  6
BYBLOCK
 62
     4
 10
768.37813533480335
 20
3958.2155074859302
 30
0.0
 11
778.90527007788035
 21
3958.2155074859302
 31
0.0
  0
LINE
  5
17FB45
  8
0
  6
BYBLOCK
 62
     4
 10
768.37813533234225
 20
3952.2155074859479
 30
0.0
 11
778.90527007788035
 21
3952.2155074859479
 31
0.0
  0
LINE
  5
17FB46
  8
0
  6
BYBLOCK
 62
     4
 10
777.10527007788028
 20
3961.2155074859302
 30
0.0
 11
777.10527007788028
 21
3964.2155074859302
 31
0.0
  0
LINE
  5
17FB47
  8
0
  6
BYBLOCK
 62
     4
 10
777.10527007788028
 20
3949.2155074859479
 30
0.0
 11
777.10527007788028
 21
3946.215507485947
 31
0.0
  0
TEXT
  5
17FB48
  8
0
  6
BYBLOCK
 62
    90
 10
780.66154864985799
 20
3953.2155074049001
 30
0.0
 40
4.0
  1
%%c 6.0
  7
MONOTXT
  0
LINE
  5
17FB49
  8
0
  6
BYBLOCK
 62
     4
 10
777.10527007788028
 20
3958.2155074859302
 30
0.0
 11
777.10527007788028
 21
3952.2155074859479
 31
0.0
  0
SOLID
  5
17FB4A
  8
0
  6
BYBLOCK
 62
     4
 10
776.60527007788039
 20
3961.2155074859302
 30
0.0
 11
777.60527007788028
 21
3961.2155074859302
 31
0.0
 12
777.10527007788028
 22
3958.2155074859302
 32
0.0
 13
777.10527007788028
 23
3958.2155074859302
 33
0.0
  0
SOLID
  5
17FB4B
  8
0
  6
BYBLOCK
 62
     4
 10
776.60527007788039
 20
3949.2155074859479
 30
0.0
 11
777.60527007788028
 21
3949.2155074859479
 31
0.0
 12
777.10527007788028
 22
3952.2155074859479
 32
0.0
 13
777.10527007788028
 23
3952.2155074859479
 33
0.0
  0
POINT
  5
17FB4C
  8
DEFPOINTS
  6
BYBLOCK
 62
     0
 10
766.87813533480335
 20
3958.2155074859302
 30
0.0
  0
POINT
  5
17FB4D
  8
DEFPOINTS
  6
BYBLOCK
 62
     0
 10
766.87813533234225
 20
3952.2155074859479
 30
0.0
  0
POINT
  5
17FB4E
  8
DEFPOINTS
  6
BYBLOCK
 62
     0
 10
777.10527007788028
 20
3952.2155074859479
 30
0.0
  0
ENDBLK
  5
17FB4F
  8
0
  0
BLOCK
  8
0
  2
*D61
 70
     1
 10
0.0
 20
0.0
 30
0.0
  3
*D61
  1

  0
LINE
  5
17FB52
  8
0
  6
BYBLOCK
 62
     4
 10
766.87813534003055
 20
3972.4577154517569
 30
0.0
 11
766.87813534003055
 21
4022.7484857002069
 31
0.0
  0
LINE
  5
17FB53
  8
0
  6
BYBLOCK
 62
     4
 10
552.84817151000266
 20
3956.7155074049001
 30
0.0
 11
552.84817151000266
 21
4022.7484857002069
 31
0.0
  0
LINE
  5
17FB54
  8
0
  6
BYBLOCK
 62
     4
 10
763.87813534003055
 20
4020.9484857002062
 30
0.0
 11
675.36315342501666
 21
4020.9484857002062
 31
0.0
  0
LINE
  5
17FB55
  8
0
  6
BYBLOCK
 62
     4
 10
555.84817151000266
 20
4020.9484857002062
 30
0.0
 11
644.36315342501655
 21
4020.9484857002062
 31
0.0
  0
SOLID
  5
17FB56
  8
0
  6
BYBLOCK
 62
     4
 10
763.87813534003055
 20
4021.4484857002071
 30
0.0
 11
763.87813534003055
 21
4020.4484857002062
 31
0.0
 12
766.87813534003055
 22
4020.9484857002062
 32
0.0
 13
766.87813534003055
 23
4020.9484857002062
 33
0.0
  0
SOLID
  5
17FB57
  8
0
  6
BYBLOCK
 62
     4
 10
555.84817151000266
 20
4021.4484857002071
 30
0.0
 11
555.84817151000266
 21
4020.4484857002062
 31
0.0
 12
552.84817151000266
 22
4020.9484857002062
 32
0.0
 13
552.84817151000266
 23
4020.9484857002062
 33
0.0
  0
TEXT
  5
17FB58
  8
0
  6
BYBLOCK
 62
    90
 10
646.36315342501666
 20
4018.9484857002062
 30
0.0
 40
4.0
  1
214.0
  7
MONOTXT
  0
TEXT
  5
17FB59
  8
0
  6
BYBLOCK
 62
    90
 10
666.36315342501655
 20
4019.9484857002071
 30
0.0
 40
2.0
  1
%%p0.1
  7
MONOTXT
1001
ACAD
1000
R13OBJECT
1002
{
1005
17FB58
1002
}
  0
POINT
  5
17FB5A
  8
DEFPOINTS
  6
BYBLOCK
 62
     0
 10
766.87813534003055
 20
3970.9577154517569
 30
0.0
  0
POINT
  5
17FB5B
  8
DEFPOINTS
  6
BYBLOCK
 62
     0
 10
552.84817151000266
 20
3955.2155074049001
 30
0.0
  0
POINT
  5
17FB5C
  8
DEFPOINTS
  6
BYBLOCK
 62
     0
 10
552.84817151000266
 20
4020.9484857002062
 30
0.0
  0
ENDBLK
  5
17FB5D
  8
0
  0
BLOCK
  8
0
  2
*D62
 70
     1
 10
0.0
 20
0.0
 30
0.0
  3
*D62
  1

  0
LINE
  5
17FB60
  8
0
  6
BYBLOCK
 62
     4
 10
735.86551816419569
 20
3977.1963538992468
 30
0.0
 11
739.42681198103674
 21
3981.4405385997502
 31
0.0
  0
LINE
  5
17FB61
  8
0
  6
BYBLOCK
 62
     4
 10
732.80134039171935
 20
3979.7675043379918
 30
0.0
 11
736.36263420856039
 21
3984.0116890384961
 31
0.0
  0
LINE
  5
17FB62
  8
0
  6
BYBLOCK
 62
     4
 10
740.56792761295765
 20
3978.133295773076
 30
0.0
 11
742.86606094231445
 21
3976.204932944016
 31
0.0
  0
LINE
  5
17FB63
  8
0
  6
BYBLOCK
 62
     4
 10
732.90748318176736
 20
3984.5611718699429
 30
0.0
 11
730.60934985241056
 21
3986.489534699002
 31
0.0
  0
TEXT
  5
17FB64
  8
0
  6
BYBLOCK
 62
    90
 10
732.01581469071232
 20
3985.8188027849742
 30
0.0
 40
4.0
  1
%%c 4.0
  7
MONOTXT
  0
LINE
  5
17FB65
  8
0
  6
BYBLOCK
 62
     4
 10
738.26979428360073
 20
3980.0616586021351
 30
0.0
 11
735.20561651112428
 21
3982.632809040882
 31
0.0
  0
SOLID
  5
17FB66
  8
0
  6
BYBLOCK
 62
     4
 10
740.88932141780094
 20
3978.5163179946348
 30
0.0
 11
740.24653380811435
 21
3977.7502735515159
 31
0.0
 12
738.26979428360073
 22
3980.0616586021351
 32
0.0
 13
738.26979428360073
 23
3980.0616586021351
 33
0.0
  0
SOLID
  5
17FB67
  8
0
  6
BYBLOCK
 62
     4
 10
733.22887698661066
 20
3984.9441940915021
 30
0.0
 11
732.58608937692418
 21
3984.1781496483818
 31
0.0
 12
735.20561651112428
 22
3982.632809040882
 32
0.0
 13
735.20561651112428
 23
3982.632809040882
 33
0.0
  0
POINT
  5
17FB68
  8
DEFPOINTS
  6
BYBLOCK
 62
     0
 10
734.90133674966592
 20
3976.0472872345681
 30
0.0
  0
POINT
  5
17FB69
  8
DEFPOINTS
  6
BYBLOCK
 62
     0
 10
731.83715897718957
 20
3978.618437673314
 30
0.0
  0
POINT
  5
17FB6A
  8
DEFPOINTS
  6
BYBLOCK
 62
     0
 10
735.20561651112428
 20
3982.632809040882
 30
0.0
  0
ENDBLK
  5
17FB6B
  8
0
  0
BLOCK
  8
0
  2
*D63
 70
     1
 10
0.0
 20
0.0
 30
0.0
  3
*D63
  1

  0
ARC
  5
17FB6E
  8
0
  6
BYBLOCK
 62
     4
 10
714.8105833991583
 20
3955.2155074048992
 30
0.0
 40
21.55639348481127
 50
7.9802939500041399
 51
42.01970604999542
  0
SOLID
  5
17FB6F
  8
0
  6
BYBLOCK
 62
     4
 10
736.65701012798331
 20
3958.2430279609589
 30
0.0
 11
735.65943409661156
 21
3958.173443037068
 31
0.0
 12
736.36697688396976
 22
3955.2155074048992
 32
0.0
 13
736.36697688396976
 23
3955.2155074048992
 33
0.0
  0
SOLID
  5
17FB70
  8
0
  6
BYBLOCK
 62
     4
 10
730.47787645781284
 20
3969.285329252491
 30
0.0
 11
731.17241111477006
 21
3970.0047885010149
 31
0.0
 12
728.66676604072268
 22
3971.728662847624
 32
0.0
 13
728.66676604072268
 23
3971.728662847624
 33
0.0
  0
TEXT
  5
17FB71
  8
0
  6
BYBLOCK
 62
    90
 10
734.45072297517652
 20
3973.5686708877829
 30
0.0
 40
4.0
  1
50%%d
 50
294.99999999999881
  7
MONOTXT
  0
TEXT
  5
17FB72
  8
0
  6
BYBLOCK
 62
    90
 10
740.4284499031013
 20
3963.1155957050842
 30
0.0
 40
2.0
  1
%%p0%%d
 50
294.99999999999881
  7
MONOTXT
1001
ACAD
1000
R13OBJECT
1002
{
1005
17FB71
1002
}
  0
POINT
  5
17FB73
  8
DEFPOINTS
  6
BYBLOCK
 62
     0
 10
735.46138228095333
 20
3961.3979507419349
 30
0.0
  0
POINT
  5
17FB74
  8
DEFPOINTS
  6
BYBLOCK
 62
     0
 10
552.84817151000289
 20
3955.2155074048992
 30
0.0
  0
POINT
  5
17FB75
  8
DEFPOINTS
  6
BYBLOCK
 62
     0
 10
709.15612052972051
 20
3948.4767809660561
 30
0.0
  0
POINT
  5
17FB76
  8
DEFPOINTS
  6
BYBLOCK
 62
     0
 10
740.58351888205505
 20
3985.930495858338
 30
0.0
  0
POINT
  5
17FB77
  8
DEFPOINTS
  6
BYBLOCK
 62
     0
 10
808.14920708597913
 20
3955.2155074048992
 30
0.0
  0
ENDBLK
  5
17FB78
  8
0
  0
BLOCK
  8
0
  2
*D64
 70
     1
 10
0.0
 20
0.0
 30
0.0
  3
*D64
  1

  0
LINE
  5
17FB7B
  8
0
  6
BYBLOCK
 62
     4
 10
555.84817151000266
 20
3953.7155074049001
 30
0.0
 11
555.84817151000266
 21
3920.2201023312869
 31
0.0
  0
LINE
  5
17FB7C
  8
0
  6
BYBLOCK
 62
     4
 10
603.84817151000277
 20
3944.1856585739652
 30
0.0
 11
603.84817151000277
 21
3920.2201023312869
 31
0.0
  0
LINE
  5
17FB7D
  8
0
  6
BYBLOCK
 62
     4
 10
558.84817151000266
 20
3922.020102331287
 30
0.0
 11
600.84817151000266
 21
3922.020102331287
 31
0.0
  0
SOLID
  5
17FB7E
  8
0
  6
BYBLOCK
 62
     4
 10
558.84817151000266
 20
3922.520102331287
 30
0.0
 11
558.84817151000266
 21
3921.520102331287
 31
0.0
 12
555.84817151000266
 22
3922.020102331287
 32
0.0
 13
555.84817151000266
 23
3922.020102331287
 33
0.0
  0
SOLID
  5
17FB7F
  8
0
  6
BYBLOCK
 62
     4
 10
600.84817151000266
 20
3922.520102331287
 30
0.0
 11
600.84817151000266
 21
3921.520102331287
 31
0.0
 12
603.84817151000277
 22
3922.020102331287
 32
0.0
 13
603.84817151000277
 23
3922.020102331287
 33
0.0
  0
TEXT
  5
17FB80
  8
0
  6
BYBLOCK
 62
    90
 10
572.51483817666929
 20
3924.020102331287
 30
0.0
 40
4.0
  1
48.0
  7
MONOTXT
  0
POINT
  5
17FB81
  8
DEFPOINTS
  6
BYBLOCK
 62
     0
 10
555.84817151000266
 20
3955.2155074049001
 30
0.0
  0
POINT
  5
17FB82
  8
DEFPOINTS
  6
BYBLOCK
 62
     0
 10
603.84817151000277
 20
3945.6856585739652
 30
0.0
  0
POINT
  5
17FB83
  8
DEFPOINTS
  6
BYBLOCK
 62
     0
 10
603.84817151000277
 20
3922.020102331287
 30
0.0
  0
ENDBLK
  5
17FB84
  8
0
  0
BLOCK
  8
0
  2
*D65
 70
     1
 10
0.0
 20
0.0
 30
0.0
  3
*D65
  1

  0
LINE
  5
17FB87
  8
0
  6
BYBLOCK
 62
     4
 10
555.84817151000266
 20
3918.7201023312869
 30
0.0
 11
555.84817151000266
 21
3912.52598861962
 31
0.0
  0
LINE
  5
17FB88
  8
0
  6
BYBLOCK
 62
     4
 10
631.84817151000266
 20
3943.7155074048992
 30
0.0
 11
631.84817151000266
 21
3912.52598861962
 31
0.0
  0
LINE
  5
17FB89
  8
0
  6
BYBLOCK
 62
     4
 10
558.84817151000266
 20
3914.3259886196211
 30
0.0
 11
628.84817151000277
 21
3914.3259886196211
 31
0.0
  0
SOLID
  5
17FB8A
  8
0
  6
BYBLOCK
 62
     4
 10
558.84817151000266
 20
3914.8259886196211
 30
0.0
 11
558.84817151000266
 21
3913.8259886196211
 31
0.0
 12
555.84817151000266
 22
3914.3259886196211
 32
0.0
 13
555.84817151000266
 23
3914.3259886196211
 33
0.0
  0
SOLID
  5
17FB8B
  8
0
  6
BYBLOCK
 62
     4
 10
628.84817151000277
 20
3914.8259886196211
 30
0.0
 11
628.84817151000277
 21
3913.8259886196211
 31
0.0
 12
631.84817151000266
 22
3914.3259886196211
 32
0.0
 13
631.84817151000266
 23
3914.3259886196211
 33
0.0
  0
TEXT
  5
17FB8C
  8
0
  6
BYBLOCK
 62
    90
 10
586.5148381766694
 20
3916.3259886196211
 30
0.0
 40
4.0
  1
76.0
  7
MONOTXT
  0
POINT
  5
17FB8D
  8
DEFPOINTS
  6
BYBLOCK
 62
     0
 10
555.84817151000266
 20
3920.2201023312869
 30
0.0
  0
POINT
  5
17FB8E
  8
DEFPOINTS
  6
BYBLOCK
 62
     0
 10
631.84817151000266
 20
3945.2155074048992
 30
0.0
  0
POINT
  5
17FB8F
  8
DEFPOINTS
  6
BYBLOCK
 62
     0
 10
631.84817151000266
 20
3914.3259886196211
 30
0.0
  0
ENDBLK
  5
17FB90
  8
0
  0
BLOCK
  8
0
  2
*D66
 70
     1
 10
0.0
 20
0.0
 30
0.0
  3
*D66
  1

  0
LINE
  5
17FB93
  8
0
  6
BYBLOCK
 62
     4
 10
555.84817151000266
 20
3911.02598861962
 30
0.0
 11
555.84817151000266
 21
3903.9769746242632
 31
0.0
  0
LINE
  5
17FB94
  8
0
  6
BYBLOCK
 62
     4
 10
673.84817151000277
 20
3946.7155074048992
 30
0.0
 11
673.84817151000277
 21
3903.9769746242632
 31
0.0
  0
LINE
  5
17FB95
  8
0
  6
BYBLOCK
 62
     4
 10
558.84817151000266
 20
3905.7769746242629
 30
0.0
 11
670.84817151000266
 21
3905.7769746242629
 31
0.0
  0
SOLID
  5
17FB96
  8
0
  6
BYBLOCK
 62
     4
 10
558.84817151000266
 20
3906.2769746242629
 30
0.0
 11
558.84817151000266
 21
3905.2769746242629
 31
0.0
 12
555.84817151000266
 22
3905.7769746242629
 32
0.0
 13
555.84817151000266
 23
3905.7769746242629
 33
0.0
  0
SOLID
  5
17FB97
  8
0
  6
BYBLOCK
 62
     4
 10
670.84817151000266
 20
3906.2769746242629
 30
0.0
 11
670.84817151000266
 21
3905.2769746242629
 31
0.0
 12
673.84817151000277
 22
3905.7769746242629
 32
0.0
 13
673.84817151000277
 23
3905.7769746242629
 33
0.0
  0
TEXT
  5
17FB98
  8
0
  6
BYBLOCK
 62
    90
 10
605.51483817666929
 20
3907.7769746242629
 30
0.0
 40
4.0
  1
118.0
  7
MONOTXT
  0
POINT
  5
17FB99
  8
DEFPOINTS
  6
BYBLOCK
 62
     0
 10
555.84817151000266
 20
3912.52598861962
 30
0.0
  0
POINT
  5
17FB9A
  8
DEFPOINTS
  6
BYBLOCK
 62
     0
 10
673.84817151000277
 20
3948.2155074049001
 30
0.0
  0
POINT
  5
17FB9B
  8
DEFPOINTS
  6
BYBLOCK
 62
     0
 10
673.84817151000277
 20
3905.7769746242629
 30
0.0
  0
ENDBLK
  5
17FB9C
  8
0
  0
BLOCK
  8
0
  2
*D67
 70
     1
 10
0.0
 20
0.0
 30
0.0
  3
*D67
  1

  0
LINE
  5
17FB9F
  8
0
  6
BYBLOCK
 62
     4
 10
555.84817151000266
 20
3902.4769746242632
 30
0.0
 11
555.84817151000266
 21
3895.0005089654528
 31
0.0
  0
LINE
  5
17FBA0
  8
0
  6
BYBLOCK
 62
     4
 10
681.84817151000266
 20
3970.7155074049001
 30
0.0
 11
681.84817151000266
 21
3895.0005089654528
 31
0.0
  0
LINE
  5
17FBA1
  8
0
  6
BYBLOCK
 62
     4
 10
558.84817151000266
 20
3896.800508965453
 30
0.0
 11
678.84817151000277
 21
3896.800508965453
 31
0.0
  0
SOLID
  5
17FBA2
  8
0
  6
BYBLOCK
 62
     4
 10
558.84817151000266
 20
3897.3005089654539
 30
0.0
 11
558.84817151000266
 21
3896.3005089654539
 31
0.0
 12
555.84817151000266
 22
3896.800508965453
 32
0.0
 13
555.84817151000266
 23
3896.800508965453
 33
0.0
  0
SOLID
  5
17FBA3
  8
0
  6
BYBLOCK
 62
     4
 10
678.84817151000277
 20
3897.3005089654539
 30
0.0
 11
678.84817151000277
 21
3896.3005089654539
 31
0.0
 12
681.84817151000266
 22
3896.800508965453
 32
0.0
 13
681.84817151000266
 23
3896.800508965453
 33
0.0
  0
TEXT
  5
17FBA4
  8
0
  6
BYBLOCK
 62
    90
 10
609.51483817666929
 20
3898.8005089654539
 30
0.0
 40
4.0
  1
126.0
  7
MONOTXT
  0
POINT
  5
17FBA5
  8
DEFPOINTS
  6
BYBLOCK
 62
     0
 10
555.84817151000266
 20
3903.9769746242632
 30
0.0
  0
POINT
  5
17FBA6
  8
DEFPOINTS
  6
BYBLOCK
 62
     0
 10
681.84817151000266
 20
3972.2155074049001
 30
0.0
  0
POINT
  5
17FBA7
  8
DEFPOINTS
  6
BYBLOCK
 62
     0
 10
681.84817151000266
 20
3896.800508965453
 30
0.0
  0
ENDBLK
  5
17FBA8
  8
0
  0
BLOCK
  8
0
  2
*D68
 70
     1
 10
0.0
 20
0.0
 30
0.0
  3
*D68
  1

  0
LINE
  5
17FBAB
  8
0
  6
BYBLOCK
 62
     4
 10
555.84817151000266
 20
3893.5005089654528
 30
0.0
 11
555.84817151000266
 21
3885.5965926575959
 31
0.0
  0
LINE
  5
17FBAC
  8
0
  6
BYBLOCK
 62
     4
 10
709.84817151000266
 20
3968.4593378262639
 30
0.0
 11
709.84817151000266
 21
3885.5965926575959
 31
0.0
  0
LINE
  5
17FBAD
  8
0
  6
BYBLOCK
 62
     4
 10
558.84817151000266
 20
3887.396592657597
 30
0.0
 11
706.84817151000266
 21
3887.396592657597
 31
0.0
  0
SOLID
  5
17FBAE
  8
0
  6
BYBLOCK
 62
     4
 10
558.84817151000266
 20
3887.896592657597
 30
0.0
 11
558.84817151000266
 21
3886.896592657597
 31
0.0
 12
555.84817151000266
 22
3887.396592657597
 32
0.0
 13
555.84817151000266
 23
3887.396592657597
 33
0.0
  0
SOLID
  5
17FBAF
  8
0
  6
BYBLOCK
 62
     4
 10
706.84817151000266
 20
3887.896592657597
 30
0.0
 11
706.84817151000266
 21
3886.896592657597
 31
0.0
 12
709.84817151000266
 22
3887.396592657597
 32
0.0
 13
709.84817151000266
 23
3887.396592657597
 33
0.0
  0
TEXT
  5
17FBB0
  8
0
  6
BYBLOCK
 62
    90
 10
623.5148381766694
 20
3889.396592657597
 30
0.0
 40
4.0
  1
154.0
  7
MONOTXT
  0
POINT
  5
17FBB1
  8
DEFPOINTS
  6
BYBLOCK
 62
     0
 10
555.84817151000266
 20
3895.0005089654528
 30
0.0
  0
POINT
  5
17FBB2
  8
DEFPOINTS
  6
BYBLOCK
 62
     0
 10
709.84817151000266
 20
3969.9593378262639
 30
0.0
  0
POINT
  5
17FBB3
  8
DEFPOINTS
  6
BYBLOCK
 62
     0
 10
709.84817151000266
 20
3887.396592657597
 30
0.0
  0
ENDBLK
  5
17FBB4
  8
0
  0
BLOCK
  8
0
  2
*D69
 70
     1
 10
0.0
 20
0.0
 30
0.0
  3
*D69
  1

  0
LINE
  5
17FBB7
  8
0
  6
BYBLOCK
 62
     4
 10
597.34817151000266
 20
3948.1856585739652
 30
0.0
 11
591.8548661701825
 21
3948.1856585739652
 31
0.0
  0
LINE
  5
17FBB8
  8
0
  6
BYBLOCK
 62
     4
 10
602.34817151000266
 20
3955.2155074049001
 30
0.0
 11
591.8548661701825
 21
3955.2155074049001
 31
0.0
  0
LINE
  5
17FBB9
  8
0
  6
BYBLOCK
 62
     4
 10
593.65486617018246
 20
3945.1856585739652
 30
0.0
 11
593.65486617018246
 21
3942.1856585739652
 31
0.0
  0
LINE
  5
17FBBA
  8
0
  6
BYBLOCK
 62
     4
 10
593.65486617018246
 20
3958.2155074049001
 30
0.0
 11
593.65486617018246
 21
3961.2155074049001
 31
0.0
  0
TEXT
  5
17FBBB
  8
0
  6
BYBLOCK
 62
    90
 10
578.18819950351565
 20
3949.7005829894329
 30
0.0
 40
4.0
  1
7.0
  7
MONOTXT
  0
LINE
  5
17FBBC
  8
0
  6
BYBLOCK
 62
     4
 10
593.65486617018246
 20
3948.1856585739652
 30
0.0
 11
593.65486617018246
 21
3955.2155074049001
 31
0.0
  0
SOLID
  5
17FBBD
  8
0
  6
BYBLOCK
 62
     4
 10
593.15486617018234
 20
3945.1856585739652
 30
0.0
 11
594.15486617018234
 21
3945.1856585739652
 31
0.0
 12
593.65486617018246
 22
3948.1856585739652
 32
0.0
 13
593.65486617018246
 23
3948.1856585739652
 33
0.0
  0
SOLID
  5
17FBBE
  8
0
  6
BYBLOCK
 62
     4
 10
593.15486617018234
 20
3958.2155074049001
 30
0.0
 11
594.15486617018234
 21
3958.2155074049001
 31
0.0
 12
593.65486617018246
 22
3955.2155074049001
 32
0.0
 13
593.65486617018246
 23
3955.2155074049001
 33
0.0
  0
POINT
  5
17FBBF
  8
DEFPOINTS
  6
BYBLOCK
 62
     0
 10
598.84817151000277
 20
3948.1856585739652
 30
0.0
  0
POINT
  5
17FBC0
  8
DEFPOINTS
  6
BYBLOCK
 62
     0
 10
603.84817151000277
 20
3955.2155074049001
 30
0.0
  0
POINT
  5
17FBC1
  8
DEFPOINTS
  6
BYBLOCK
 62
     0
 10
593.65486617018246
 20
3955.2155074049001
 30
0.0
  0
ENDBLK
  5
17FBC2
  8
0
  0
BLOCK
  8
0
  2
*D70
 70
     1
 10
0.0
 20
0.0
 30
0.0
  3
*D70
  1

  0
LINE
  5
17FBC5
  8
0
  6
BYBLOCK
 62
     4
 10
602.34817151000266
 20
3955.2155074049001
 30
0.0
 11
594.1626325942234
 21
3955.2155074049001
 31
0.0
  0
LINE
  5
17FBC6
  8
0
  6
BYBLOCK
 62
     4
 10
597.34817151000266
 20
3974.7155074049001
 30
0.0
 11
594.1626325942234
 21
3974.7155074049001
 31
0.0
  0
LINE
  5
17FBC7
  8
0
  6
BYBLOCK
 62
     4
 10
595.96263259422335
 20
3958.2155074049001
 30
0.0
 11
595.96263259422335
 21
3960.9655074049001
 31
0.0
  0
LINE
  5
17FBC8
  8
0
  6
BYBLOCK
 62
     4
 10
595.96263259422335
 20
3971.7155074049001
 30
0.0
 11
595.96263259422335
 21
3968.9655074049001
 31
0.0
  0
SOLID
  5
17FBC9
  8
0
  6
BYBLOCK
 62
     4
 10
595.46263259422335
 20
3958.2155074049001
 30
0.0
 11
596.46263259422335
 21
3958.2155074049001
 31
0.0
 12
595.96263259422335
 22
3955.2155074049001
 32
0.0
 13
595.96263259422335
 23
3955.2155074049001
 33
0.0
  0
SOLID
  5
17FBCA
  8
0
  6
BYBLOCK
 62
     4
 10
595.46263259422335
 20
3971.7155074049001
 30
0.0
 11
596.46263259422335
 21
3971.7155074049001
 31
0.0
 12
595.96263259422335
 22
3974.7155074049001
 32
0.0
 13
595.96263259422335
 23
3974.7155074049001
 33
0.0
  0
TEXT
  5
17FBCB
  8
0
  6
BYBLOCK
 62
    90
 10
588.62929926088998
 20
3962.9655074049001
 30
0.0
 40
4.0
  1
19.5
  7
MONOTXT
  0
POINT
  5
17FBCC
  8
DEFPOINTS
  6
BYBLOCK
 62
     0
 10
603.84817151000277
 20
3955.2155074049001
 30
0.0
  0
POINT
  5
17FBCD
  8
DEFPOINTS
  6
BYBLOCK
 62
     0
 10
598.84817151000277
 20
3974.7155074049001
 30
0.0
  0
POINT
  5
17FBCE
  8
DEFPOINTS
  6
BYBLOCK
 62
     0
 10
595.96263259422335
 20
3974.7155074049001
 30
0.0
  0
ENDBLK
  5
17FBCF
  8
0
  0
BLOCK
  8
0
  2
*D71
 70
     1
 10
0.0
 20
0.0
 30
0.0
  3
*D71
  1

  0
LINE
  5
17FBD2
  8
0
  6
BYBLOCK
 62
     4
 10
630.34817151000266
 20
3955.2155074049001
 30
0.0
 11
623.98607038940497
 21
3955.2155074049001
 31
0.0
  0
LINE
  5
17FBD3
  8
0
  6
BYBLOCK
 62
     4
 10
625.34817151000266
 20
3970.2155074049001
 30
0.0
 11
623.98607038940497
 21
3970.2155074049001
 31
0.0
  0
LINE
  5
17FBD4
  8
0
  6
BYBLOCK
 62
     4
 10
625.78607038940504
 20
3958.2155074049001
 30
0.0
 11
625.78607038940504
 21
3960.2155074049001
 31
0.0
  0
LINE
  5
17FBD5
  8
0
  6
BYBLOCK
 62
     4
 10
625.78607038940504
 20
3967.2155074049001
 30
0.0
 11
625.78607038940504
 21
3965.2155074049001
 31
0.0
  0
TEXT
  5
17FBD6
  8
0
  6
BYBLOCK
 62
    90
 10
616.35212526039061
 20
3960.7155074049001
 30
0.0
 40
4.0
  1
15.0
  7
MONOTXT
  0
SOLID
  5
17FBD7
  8
0
  6
BYBLOCK
 62
     4
 10
625.28607038940504
 20
3958.2155074049001
 30
0.0
 11
626.28607038940504
 21
3958.2155074049001
 31
0.0
 12
625.78607038940504
 22
3955.2155074049001
 32
0.0
 13
625.78607038940504
 23
3955.2155074049001
 33
0.0
  0
SOLID
  5
17FBD8
  8
0
  6
BYBLOCK
 62
     4
 10
625.28607038940504
 20
3967.2155074049001
 30
0.0
 11
626.28607038940504
 21
3967.2155074049001
 31
0.0
 12
625.78607038940504
 22
3970.2155074049001
 32
0.0
 13
625.78607038940504
 23
3970.2155074049001
 33
0.0
  0
POINT
  5
17FBD9
  8
DEFPOINTS
  6
BYBLOCK
 62
     0
 10
631.84817151000266
 20
3955.2155074049001
 30
0.0
  0
POINT
  5
17FBDA
  8
DEFPOINTS
  6
BYBLOCK
 62
     0
 10
626.84817151000266
 20
3970.2155074049001
 30
0.0
  0
POINT
  5
17FBDB
  8
DEFPOINTS
  6
BYBLOCK
 62
     0
 10
625.78607038940504
 20
3970.2155074049001
 30
0.0
  0
ENDBLK
  5
17FBDC
  8
0
  0
BLOCK
  8
0
  2
*D72
 70
     1
 10
0.0
 20
0.0
 30
0.0
  3
*D72
  1

  0
LINE
  5
17FBDF
  8
0
  6
BYBLOCK
 62
     4
 10
630.34817151000266
 20
3955.2155074049001
 30
0.0
 11
622.38838664782884
 21
3955.2155074049001
 31
0.0
  0
LINE
  5
17FBE0
  8
0
  6
BYBLOCK
 62
     4
 10
625.34817151000266
 20
3950.2155074049001
 30
0.0
 11
622.38838664782884
 21
3950.2155074049001
 31
0.0
  0
LINE
  5
17FBE1
  8
0
  6
BYBLOCK
 62
     4
 10
624.18838664782868
 20
3958.2155074049001
 30
0.0
 11
624.18838664782868
 21
3961.2155074049001
 31
0.0
  0
LINE
  5
17FBE2
  8
0
  6
BYBLOCK
 62
     4
 10
624.18838664782868
 20
3947.2155074049001
 30
0.0
 11
624.18838664782868
 21
3944.2155074049001
 31
0.0
  0
TEXT
  5
17FBE3
  8
0
  6
BYBLOCK
 62
    90
 10
608.7217199811621
 20
3950.7155074049001
 30
0.0
 40
4.0
  1
5.0
  7
MONOTXT
  0
LINE
  5
17FBE4
  8
0
  6
BYBLOCK
 62
     4
 10
624.18838664782868
 20
3955.2155074049001
 30
0.0
 11
624.18838664782868
 21
3950.2155074049001
 31
0.0
  0
SOLID
  5
17FBE5
  8
0
  6
BYBLOCK
 62
     4
 10
623.68838664782868
 20
3958.2155074049001
 30
0.0
 11
624.68838664782868
 21
3958.2155074049001
 31
0.0
 12
624.18838664782868
 22
3955.2155074049001
 32
0.0
 13
624.18838664782868
 23
3955.2155074049001
 33
0.0
  0
SOLID
  5
17FBE6
  8
0
  6
BYBLOCK
 62
     4
 10
623.68838664782868
 20
3947.2155074049001
 30
0.0
 11
624.68838664782868
 21
3947.2155074049001
 31
0.0
 12
624.18838664782868
 22
3950.2155074049001
 32
0.0
 13
624.18838664782868
 23
3950.2155074049001
 33
0.0
  0
POINT
  5
17FBE7
  8
DEFPOINTS
  6
BYBLOCK
 62
     0
 10
631.84817151000266
 20
3955.2155074049001
 30
0.0
  0
POINT
  5
17FBE8
  8
DEFPOINTS
  6
BYBLOCK
 62
     0
 10
626.84817151000266
 20
3950.2155074049001
 30
0.0
  0
POINT
  5
17FBE9
  8
DEFPOINTS
  6
BYBLOCK
 62
     0
 10
624.18838664782868
 20
3950.2155074049001
 30
0.0
  0
ENDBLK
  5
17FBEA
  8
0
  0
BLOCK
  8
0
  2
*D73
 70
     1
 10
0.0
 20
0.0
 30
0.0
  3
*D73
  1

  0
LINE
  5
17FBED
  8
0
  6
BYBLOCK
 62
     4
 10
672.34817151000266
 20
3955.2155074049001
 30
0.0
 11
659.06942442654963
 21
3955.2155074049001
 31
0.0
  0
LINE
  5
17FBEE
  8
0
  6
BYBLOCK
 62
     4
 10
667.34817151000266
 20
3953.2155074049001
 30
0.0
 11
659.06942442654963
 21
3953.2155074049001
 31
0.0
  0
LINE
  5
17FBEF
  8
0
  6
BYBLOCK
 62
     4
 10
660.86942442654947
 20
3958.2155074049001
 30
0.0
 11
660.86942442654947
 21
3961.2155074049001
 31
0.0
  0
LINE
  5
17FBF0
  8
0
  6
BYBLOCK
 62
     4
 10
660.86942442654947
 20
3950.2155074049001
 30
0.0
 11
660.86942442654947
 21
3947.2155074049001
 31
0.0
  0
TEXT
  5
17FBF1
  8
0
  6
BYBLOCK
 62
    90
 10
645.40275775988289
 20
3952.2155074049001
 30
0.0
 40
4.0
  1
2.0
  7
MONOTXT
  0
LINE
  5
17FBF2
  8
0
  6
BYBLOCK
 62
     4
 10
660.86942442654947
 20
3955.2155074049001
 30
0.0
 11
660.86942442654947
 21
3953.2155074049001
 31
0.0
  0
SOLID
  5
17FBF3
  8
0
  6
BYBLOCK
 62
     4
 10
660.36942442654947
 20
3958.2155074049001
 30
0.0
 11
661.36942442654947
 21
3958.2155074049001
 31
0.0
 12
660.86942442654947
 22
3955.2155074049001
 32
0.0
 13
660.86942442654947
 23
3955.2155074049001
 33
0.0
  0
SOLID
  5
17FBF4
  8
0
  6
BYBLOCK
 62
     4
 10
660.36942442654947
 20
3950.2155074049001
 30
0.0
 11
661.36942442654947
 21
3950.2155074049001
 31
0.0
 12
660.86942442654947
 22
3953.2155074049001
 32
0.0
 13
660.86942442654947
 23
3953.2155074049001
 33
0.0
  0
POINT
  5
17FBF5
  8
DEFPOINTS
  6
BYBLOCK
 62
     0
 10
673.84817151000277
 20
3955.2155074049001
 30
0.0
  0
POINT
  5
17FBF6
  8
DEFPOINTS
  6
BYBLOCK
 62
     0
 10
668.84817151000266
 20
3953.2155074049001
 30
0.0
  0
POINT
  5
17FBF7
  8
DEFPOINTS
  6
BYBLOCK
 62
     0
 10
660.86942442654947
 20
3953.2155074049001
 30
0.0
  0
ENDBLK
  5
17FBF8
  8
0
  0
BLOCK
  8
0
  2
*D74
 70
     1
 10
0.0
 20
0.0
 30
0.0
  3
*D74
  1

  0
LINE
  5
17FBFB
  8
0
  6
BYBLOCK
 62
     4
 10
703.34817151000277
 20
3974.959337826263
 30
0.0
 11
700.07665208311516
 21
3974.959337826263
 31
0.0
  0
LINE
  5
17FBFC
  8
0
  6
BYBLOCK
 62
     4
 10
708.34817151000266
 20
3955.2155074049001
 30
0.0
 11
700.07665208311516
 21
3955.2155074049001
 31
0.0
  0
LINE
  5
17FBFD
  8
0
  6
BYBLOCK
 62
     4
 10
701.87665208311523
 20
3971.959337826263
 30
0.0
 11
701.87665208311523
 21
3965.9010538319139
 31
0.0
  0
LINE
  5
17FBFE
  8
0
  6
BYBLOCK
 62
     4
 10
701.87665208311523
 20
3958.2155074049001
 30
0.0
 11
701.87665208311523
 21
3960.2155074049001
 31
0.0
  0
TEXT
  5
17FBFF
  8
0
  6
BYBLOCK
 62
    90
 10
694.54331874978175
 20
3959.901053831913
 30
0.0
 40
4.0
  1
19.7
  7
MONOTXT
  0
SOLID
  5
17FC00
  8
0
  6
BYBLOCK
 62
     4
 10
701.37665208311523
 20
3971.959337826263
 30
0.0
 11
702.37665208311523
 21
3971.959337826263
 31
0.0
 12
701.87665208311523
 22
3974.959337826263
 32
0.0
 13
701.87665208311523
 23
3974.959337826263
 33
0.0
  0
SOLID
  5
17FC01
  8
0
  6
BYBLOCK
 62
     4
 10
701.37665208311523
 20
3958.2155074049001
 30
0.0
 11
702.37665208311523
 21
3958.2155074049001
 31
0.0
 12
701.87665208311523
 22
3955.2155074049001
 32
0.0
 13
701.87665208311523
 23
3955.2155074049001
 33
0.0
  0
POINT
  5
17FC02
  8
DEFPOINTS
  6
BYBLOCK
 62
     0
 10
704.84817151000266
 20
3974.959337826263
 30
0.0
  0
POINT
  5
17FC03
  8
DEFPOINTS
  6
BYBLOCK
 62
     0
 10
709.84817151000266
 20
3955.2155074049001
 30
0.0
  0
POINT
  5
17FC04
  8
DEFPOINTS
  6
BYBLOCK
 62
     0
 10
701.87665208311523
 20
3955.2155074049001
 30
0.0
  0
ENDBLK
  5
17FC05
  8
0
  0
BLOCK
  8
0
  2
*D75
 70
     1
 10
0.0
 20
0.0
 30
0.0
  3
*D75
  1

  0
LINE
  5
17FC08
  8
0
  6
BYBLOCK
 62
     4
 10
688.34817151000266
 20
3977.2155074048992
 30
0.0
 11
692.13782179808663
 21
3977.2155074048992
 31
0.0
  0
LINE
  5
17FC09
  8
0
  6
BYBLOCK
 62
     4
 10
683.34817151000266
 20
3955.2155074049001
 30
0.0
 11
692.13782179808663
 21
3955.2155074049001
 31
0.0
  0
LINE
  5
17FC0A
  8
0
  6
BYBLOCK
 62
     4
 10
690.33782179808668
 20
3974.2155074048992
 30
0.0
 11
690.33782179808668
 21
3972.2155074049001
 31
0.0
  0
LINE
  5
17FC0B
  8
0
  6
BYBLOCK
 62
     4
 10
690.33782179808668
 20
3958.2155074049001
 30
0.0
 11
690.33782179808668
 21
3966.4112090462331
 31
0.0
  0
TEXT
  5
17FC0C
  8
0
  6
BYBLOCK
 62
    90
 10
683.00448846475331
 20
3968.4112090462322
 30
0.0
 40
4.0
  1
22.0
  7
MONOTXT
  0
SOLID
  5
17FC0D
  8
0
  6
BYBLOCK
 62
     4
 10
689.83782179808668
 20
3974.2155074048992
 30
0.0
 11
690.83782179808668
 21
3974.2155074048992
 31
0.0
 12
690.33782179808668
 22
3977.2155074048992
 32
0.0
 13
690.33782179808668
 23
3977.2155074048992
 33
0.0
  0
SOLID
  5
17FC0E
  8
0
  6
BYBLOCK
 62
     4
 10
689.83782179808668
 20
3958.2155074049001
 30
0.0
 11
690.83782179808668
 21
3958.2155074049001
 31
0.0
 12
690.33782179808668
 22
3955.2155074049001
 32
0.0
 13
690.33782179808668
 23
3955.2155074049001
 33
0.0
  0
POINT
  5
17FC0F
  8
DEFPOINTS
  6
BYBLOCK
 62
     0
 10
686.84817151000277
 20
3977.2155074048992
 30
0.0
  0
POINT
  5
17FC10
  8
DEFPOINTS
  6
BYBLOCK
 62
     0
 10
681.84817151000266
 20
3955.2155074049001
 30
0.0
  0
POINT
  5
17FC11
  8
DEFPOINTS
  6
BYBLOCK
 62
     0
 10
690.33782179808668
 20
3955.2155074049001
 30
0.0
  0
ENDBLK
  5
17FC12
  8
0
  0
BLOCK
  8
0
  2
*D76
 70
     1
 10
0.0
 20
0.0
 30
0.0
  3
*D76
  1

  0
LINE
  5
17FC15
  8
0
  6
BYBLOCK
 62
     4
 10
558.75048914856848
 20
3960.4668455510168
 30
0.0
 11
560.20164796785104
 21
3963.0925146240761
 31
0.0
  0
TEXT
  5
17FC16
  8
0
  6
BYBLOCK
 62
    90
 10
562.0905983330905
 20
3960.611529334451
 30
0.0
 40
4.0
  1
%%c6.0
  7
MONOTXT
  0
SOLID
  5
17FC17
  8
0
  6
BYBLOCK
 62
     4
 10
552.50824235926029
 20
3950.2060290619952
 30
0.0
 11
553.38346538361316
 21
3949.722309455567
 31
0.0
 12
554.39701269071952
 22
3952.5898383318399
 32
0.0
 13
554.39701269071952
 23
3952.5898383318399
 33
0.0
  0
SOLID
  5
17FC18
  8
0
  6
BYBLOCK
 62
     4
 10
558.31287763639193
 20
3960.7087053542309
 30
0.0
 11
559.18810066074468
 21
3960.2249857478032
 31
0.0
 12
557.29933032928557
 22
3957.841176477958
 32
0.0
 13
557.29933032928557
 23
3957.841176477958
 33
0.0
  0
LINE
  5
17FC19
  8
0
  6
BYBLOCK
 62
     4
 10
555.34817151000254
 20
3955.2155074048992
 30
0.0
 11
556.34817151000254
 21
3955.2155074048992
 31
0.0
  0
LINE
  5
17FC1A
  8
0
  6
BYBLOCK
 62
     4
 10
555.84817151000254
 20
3954.7155074048992
 30
0.0
 11
555.84817151000254
 21
3955.7155074048992
 31
0.0
  0
POINT
  5
17FC1B
  8
DEFPOINTS
  6
BYBLOCK
 62
     0
 10
557.29933032928557
 20
3957.841176477958
 30
0.0
  0
POINT
  5
17FC1C
  8
DEFPOINTS
  6
BYBLOCK
 62
     0
 10
554.39701269071952
 20
3952.5898383318399
 30
0.0
  0
ENDBLK
  5
17FC1D
  8
0
  0
BLOCK
  8
0
  2
*D77
 70
     1
 10
0.0
 20
0.0
 30
0.0
  3
*D77
  1

  0
LINE
  5
17FC20
  8
0
  6
BYBLOCK
 62
     4
 10
607.86111122537238
 20
3978.4766661147678
 30
0.0
 11
610.04998743375563
 21
3980.5282072292412
 31
0.0
  0
TEXT
  5
17FC21
  8
0
  6
BYBLOCK
 62
    90
 10
613.56739363911754
 20
3984.5912722596008
 30
0.0
 40
4.0
  1
(8x) %%c5.0
  7
MONOTXT
  0
SOLID
  5
17FC22
  8
0
  6
BYBLOCK
 62
     4
 10
599.49330827555525
 20
3971.31916139643
 30
0.0
 11
600.177155313713
 21
3970.5895359936349
 31
0.0
 12
602.02410800301732
 22
3973.0058898095058
 32
0.0
 13
602.02410800301732
 23
3973.0058898095058
 33
0.0
  0
SOLID
  5
17FC23
  8
0
  6
BYBLOCK
 62
     4
 10
607.51918770629368
 20
3978.8414788161649
 30
0.0
 11
608.20303474445143
 21
3978.1118534133702
 31
0.0
 12
605.67223501698925
 22
3976.425125000294
 32
0.0
 13
605.67223501698925
 23
3976.425125000294
 33
0.0
  0
LINE
  5
17FC24
  8
0
  6
BYBLOCK
 62
     4
 10
603.34817151000334
 20
3974.7155074049001
 30
0.0
 11
604.34817151000334
 21
3974.7155074049001
 31
0.0
  0
LINE
  5
17FC25
  8
0
  6
BYBLOCK
 62
     4
 10
603.84817151000334
 20
3974.2155074048992
 30
0.0
 11
603.84817151000334
 21
3975.2155074049001
 31
0.0
  0
POINT
  5
17FC26
  8
DEFPOINTS
  6
BYBLOCK
 62
     0
 10
605.67223501698925
 20
3976.425125000294
 30
0.0
  0
POINT
  5
17FC27
  8
DEFPOINTS
  6
BYBLOCK
 62
     0
 10
602.02410800301732
 20
3973.0058898095058
 30
0.0
  0
ENDBLK
  5
17FC28
  8
0
  0
BLOCK
  8
0
  2
*D78
 70
     1
 10
0.0
 20
0.0
 30
0.0
  3
*D78
  1

  0
LINE
  5
17FC2B
  8
0
  6
BYBLOCK
 62
     4
 10
768.37813533234225
 20
3943.7195089608831
 30
0.0
 11
809.24875632467376
 21
3943.7195089608831
 31
0.0
  0
LINE
  5
17FC2C
  8
0
  6
BYBLOCK
 62
     4
 10
806.64920708597924
 20
3955.2155074049001
 30
0.0
 11
805.64875632467397
 21
3955.2155074049001
 31
0.0
  0
LINE
  5
17FC2D
  8
0
  6
BYBLOCK
 62
     4
 10
807.44875632467392
 20
3946.7195089608831
 30
0.0
 11
807.44875632467392
 21
3952.2155074049001
 31
0.0
  0
TEXT
  5
17FC2E
  8
0
  6
BYBLOCK
 62
    90
 10
787.98208965800723
 20
3947.4675081828909
 30
0.0
 40
4.0
  1
11.5
  7
MONOTXT
  0
SOLID
  5
17FC2F
  8
0
  6
BYBLOCK
 62
     4
 10
806.94875632467381
 20
3946.7195089608831
 30
0.0
 11
807.94875632467404
 21
3946.7195089608831
 31
0.0
 12
807.44875632467392
 22
3943.7195089608831
 32
0.0
 13
807.44875632467392
 23
3943.7195089608831
 33
0.0
  0
SOLID
  5
17FC30
  8
0
  6
BYBLOCK
 62
     4
 10
806.94875632467381
 20
3952.2155074049001
 30
0.0
 11
807.94875632467404
 21
3952.2155074049001
 31
0.0
 12
807.44875632467392
 22
3955.2155074049001
 32
0.0
 13
807.44875632467392
 23
3955.2155074049001
 33
0.0
  0
POINT
  5
17FC31
  8
DEFPOINTS
  6
BYBLOCK
 62
     0
 10
766.87813533234225
 20
3943.7195089608831
 30
0.0
  0
POINT
  5
17FC32
  8
DEFPOINTS
  6
BYBLOCK
 62
     0
 10
808.14920708597936
 20
3955.2155074049001
 30
0.0
  0
POINT
  5
17FC33
  8
DEFPOINTS
  6
BYBLOCK
 62
     0
 10
807.44875632467392
 20
3955.2155074049001
 30
0.0
  0
ENDBLK
  5
17FC34
  8
0
  0
BLOCK
  8
0
  2
*D80
 70
     1
 10
0.0
 20
0.0
 30
0.0
  3
*D80
  1

  0
LINE
  5
17FDEE
  8
COTATION
 62
     4
 10
242.7111283219042
 20
126.690885655476
 30
0.0
 11
242.7111283219042
 21
153.7321187882811
 31
0.0
  0
LINE
  5
17FDEF
  8
COTATION
 62
     4
 10
208.39941468392999
 20
132.1092616956175
 30
0.0
 11
208.39941468392999
 21
153.7321187882811
 31
0.0
  0
LINE
  5
17FDF0
  8
COTATION
 62
     4
 10
239.7111283219042
 20
151.932118788281
 30
0.0
 11
237.12670007434571
 21
151.932118788281
 31
0.0
  0
LINE
  5
17FDF1
  8
COTATION
 62
     4
 10
211.39941468392999
 20
151.932118788281
 30
0.0
 11
213.98384293148851
 21
151.932118788281
 31
0.0
  0
SOLID
  5
17FDF2
  8
COTATION
 62
     4
 10
239.7111283219042
 20
152.432118788281
 30
0.0
 11
239.7111283219042
 21
151.432118788281
 31
0.0
 12
242.7111283219042
 22
151.932118788281
 32
0.0
 13
242.7111283219042
 23
151.932118788281
 33
0.0
  0
SOLID
  5
17FDF3
  8
COTATION
 62
     4
 10
211.39941468392999
 20
152.432118788281
 30
0.0
 11
211.39941468392999
 21
151.432118788281
 31
0.0
 12
208.39941468392999
 22
151.932118788281
 32
0.0
 13
208.39941468392999
 23
151.932118788281
 33
0.0
  0
INSERT
  5
17FDF4
  8
CHARIOT
  2
*U103
 10
0.0
 20
0.0
 30
0.0
  0
POINT
  5
17FDF5
  8
DEFPOINTS
 62
     0
 10
242.7111283219042
 20
125.190885655476
 30
0.0
  0
POINT
  5
17FDF6
  8
DEFPOINTS
 62
     0
 10
208.39941468392999
 20
130.6092616956175
 30
0.0
  0
POINT
  5
17FDF7
  8
DEFPOINTS
 62
     0
 10
208.39941468392999
 20
151.932118788281
 30
0.0
  0
ENDBLK
  5
17FCE5
  8
0
  0
BLOCK
  8
0
  2
*D81
 70
     1
 10
0.0
 20
0.0
 30
0.0
  3
*D81
  1

  0
LINE
  5
17FDF8
  8
COTATION
 62
     4
 10
242.7111283142159
 20
104.94867768966689
 30
0.0
 11
242.7111283142159
 21
75.971000451142302
 31
0.0
  0
LINE
  5
17FDF9
  8
COTATION
 62
     4
 10
207.71112831170399
 20
104.9486777132301
 30
0.0
 11
207.71112831170399
 21
75.971000451142302
 31
0.0
  0
LINE
  5
17FDFA
  8
COTATION
 62
     4
 10
239.7111283142159
 20
77.771000451142299
 30
0.0
 11
236.7825568843885
 21
77.771000451142299
 31
0.0
  0
LINE
  5
17FDFB
  8
COTATION
 62
     4
 10
210.71112831170399
 20
77.771000451142299
 30
0.0
 11
213.63969974153139
 21
77.771000451142299
 31
0.0
  0
SOLID
  5
17FDFC
  8
COTATION
 62
     4
 10
239.7111283142159
 20
78.271000451142299
 30
0.0
 11
239.7111283142159
 21
77.271000451142299
 31
0.0
 12
242.7111283142159
 22
77.771000451142299
 32
0.0
 13
242.7111283142159
 23
77.771000451142299
 33
0.0
  0
SOLID
  5
17FDFD
  8
COTATION
 62
     4
 10
210.71112831170399
 20
78.271000451142299
 30
0.0
 11
210.71112831170399
 21
77.271000451142299
 31
0.0
 12
207.71112831170399
 22
77.771000451142299
 32
0.0
 13
207.71112831170399
 23
77.771000451142299
 33
0.0
  0
INSERT
  5
17FDFE
  8
CHARIOT
  2
*U104
 10
0.0
 20
0.0
 30
0.0
  0
POINT
  5
17FDFF
  8
DEFPOINTS
 62
     0
 10
242.7111283142159
 20
106.44867768966689
 30
0.0
  0
POINT
  5
17FE00
  8
DEFPOINTS
 62
     0
 10
207.71112831170399
 20
106.4486777132301
 30
0.0
  0
POINT
  5
17FE01
  8
DEFPOINTS
 62
     0
 10
207.71112831170399
 20
77.771000451142299
 30
0.0
  0
ENDBLK
  5
17FCF2
  8
0
  0
BLOCK
  8
0
  2
*D82
 70
     1
 10
0.0
 20
0.0
 30
0.0
  3
*D82
  1

  0
LINE
  5
17FE02
  8
COTATION
 62
     4
 10
207.25034801925159
 20
131.57344311014731
 30
0.0
 11
176.99157814575571
 21
156.96356575087739
 31
0.0
  0
LINE
  5
17FE03
  8
COTATION
 62
     4
 10
193.0876068185033
 20
114.6949454031747
 30
0.0
 11
162.82883694500751
 21
140.08506804390481
 31
0.0
  0
LINE
  5
17FE04
  8
COTATION
 62
     4
 10
176.44209531431011
 20
153.5084147240847
 30
0.0
 11
174.23158911233159
 21
150.87403601642521
 31
0.0
  0
LINE
  5
17FE05
  8
COTATION
 62
     4
 10
166.1360797716813
 20
141.22618367582581
 30
0.0
 11
167.51879206291289
 21
142.87403601642521
 31
0.0
  0
INSERT
  5
17FE06
  8
CHARIOT
  2
*U105
 10
0.0
 20
0.0
 30
0.0
  0
SOLID
  5
17FE07
  8
COTATION
 62
     4
 10
176.05907309275071
 20
153.829808528928
 30
0.0
 11
176.82511753586959
 21
153.18702091924149
 31
0.0
 12
178.37045814336989
 22
155.80654805344159
 32
0.0
 13
178.37045814336989
 23
155.80654805344159
 33
0.0
  0
SOLID
  5
17FE08
  8
COTATION
 62
     4
 10
165.75305755012181
 20
141.5475774806691
 30
0.0
 11
166.51910199324081
 21
140.90478987098251
 31
0.0
 12
164.2077169426216
 22
138.92805034646889
 32
0.0
 13
164.2077169426216
 23
138.92805034646889
 33
0.0
  0
POINT
  5
17FE09
  8
DEFPOINTS
 62
     0
 10
208.39941468392999
 20
130.6092616956175
 30
0.0
  0
POINT
  5
17FE0A
  8
DEFPOINTS
 62
     0
 10
194.2366734831817
 20
113.7307639886449
 30
0.0
  0
POINT
  5
17FE0B
  8
DEFPOINTS
 62
     0
 10
164.2077169426216
 20
138.92805034646889
 30
0.0
  0
ENDBLK
  5
17FCFF
  8
0
  0
BLOCK
  8
0
  2
*D83
 70
     1
 10
0.0
 20
0.0
 30
0.0
  3
*D83
  1

  0
LINE
  5
17FE0C
  8
COTATION
 62
     4
 10
244.21112831667699
 20
112.4486776896497
 30
0.0
 11
254.7382630597541
 21
112.4486776896497
 31
0.0
  0
LINE
  5
17FE0D
  8
COTATION
 62
     4
 10
244.2111283142159
 20
106.44867768966689
 30
0.0
 11
254.7382630597541
 21
106.44867768966689
 31
0.0
  0
LINE
  5
17FE0E
  8
COTATION
 62
     4
 10
252.93826305975401
 20
115.4486776896497
 30
0.0
 11
252.93826305975401
 21
118.4486776896497
 31
0.0
  0
LINE
  5
17FE0F
  8
COTATION
 62
     4
 10
252.93826305975401
 20
103.44867768966689
 30
0.0
 11
252.93826305975401
 21
100.44867768966689
 31
0.0
  0
INSERT
  5
17FE10
  8
CHARIOT
  2
*U106
 10
0.0
 20
0.0
 30
0.0
  0
SOLID
  5
17FE11
  8
COTATION
 62
     4
 10
252.43826305975401
 20
115.4486776896497
 30
0.0
 11
253.43826305975401
 21
115.4486776896497
 31
0.0
 12
252.93826305975401
 22
112.4486776896497
 32
0.0
 13
252.93826305975401
 23
112.4486776896497
 33
0.0
  0
SOLID
  5
17FE12
  8
COTATION
 62
     4
 10
252.43826305975401
 20
103.44867768966689
 30
0.0
 11
253.43826305975401
 21
103.44867768966689
 31
0.0
 12
252.93826305975401
 22
106.44867768966689
 32
0.0
 13
252.93826305975401
 23
106.44867768966689
 33
0.0
  0
POINT
  5
17FE13
  8
DEFPOINTS
 62
     0
 10
242.71112831667699
 20
112.4486776896497
 30
0.0
  0
POINT
  5
17FE14
  8
DEFPOINTS
 62
     0
 10
242.7111283142159
 20
106.44867768966689
 30
0.0
  0
POINT
  5
17FE15
  8
DEFPOINTS
 62
     0
 10
252.93826305975401
 20
106.44867768966689
 30
0.0
  0
ENDBLK
  5
17FD0C
  8
0
  0
BLOCK
  8
0
  2
*D84
 70
     1
 10
0.0
 20
0.0
 30
0.0
  3
*D84
  1

  0
LINE
  5
17FE16
  8
COTATION
 62
     4
 10
242.7111283219042
 20
126.690885655476
 30
0.0
 11
242.7111283219042
 21
176.9816559039262
 31
0.0
  0
LINE
  5
17FE17
  8
COTATION
 62
     4
 10
28.681164491876419
 20
110.94867760861911
 30
0.0
 11
28.681164491876419
 21
176.9816559039262
 31
0.0
  0
LINE
  5
17FE18
  8
COTATION
 62
     4
 10
239.7111283219042
 20
175.1816559039261
 30
0.0
 11
149.17233688308079
 21
175.1816559039261
 31
0.0
  0
LINE
  5
17FE19
  8
COTATION
 62
     4
 10
31.681164491876419
 20
175.1816559039261
 30
0.0
 11
122.2199559306998
 21
175.1816559039261
 31
0.0
  0
SOLID
  5
17FE1A
  8
COTATION
 62
     4
 10
239.7111283219042
 20
175.68165590392621
 30
0.0
 11
239.7111283219042
 21
174.68165590392621
 31
0.0
 12
242.7111283219042
 22
175.1816559039261
 32
0.0
 13
242.7111283219042
 23
175.1816559039261
 33
0.0
  0
SOLID
  5
17FE1B
  8
COTATION
 62
     4
 10
31.681164491876419
 20
175.68165590392621
 30
0.0
 11
31.681164491876419
 21
174.68165590392621
 31
0.0
 12
28.681164491876419
 22
175.1816559039261
 32
0.0
 13
28.681164491876419
 23
175.1816559039261
 33
0.0
  0
INSERT
  5
17FE1C
  8
CHARIOT
  2
*U107
 10
0.0
 20
0.0
 30
0.0
  0
POINT
  5
17FE1D
  8
DEFPOINTS
 62
     0
 10
242.7111283219042
 20
125.190885655476
 30
0.0
  0
POINT
  5
17FE1E
  8
DEFPOINTS
 62
     0
 10
28.681164491876419
 20
109.44867760861911
 30
0.0
  0
POINT
  5
17FE1F
  8
DEFPOINTS
 62
     0
 10
28.681164491876419
 20
175.1816559039261
 30
0.0
  0
ENDBLK
  5
17FD19
  8
0
  0
BLOCK
  8
0
  2
*D85
 70
     1
 10
0.0
 20
0.0
 30
0.0
  3
*D85
  1

  0
LINE
  5
17FE20
  8
COTATION
 62
     4
 10
211.69851114606939
 20
131.42952410296601
 30
0.0
 11
215.25980496291001
 21
135.67370880346931
 31
0.0
  0
LINE
  5
17FE21
  8
COTATION
 62
     4
 10
208.63433337359331
 20
134.00067454171241
 30
0.0
 11
212.19562719043381
 21
138.2448592422156
 31
0.0
  0
LINE
  5
17FE22
  8
COTATION
 62
     4
 10
216.40092059483109
 20
132.3664659767955
 30
0.0
 11
218.69905392418801
 21
130.4381031477358
 31
0.0
  0
LINE
  5
17FE23
  8
COTATION
 62
     4
 10
208.74047616364109
 20
138.79434207366111
 30
0.0
 11
206.4423428342842
 21
140.72270490272081
 31
0.0
  0
INSERT
  5
17FE24
  8
CHARIOT
  2
*U108
 10
0.0
 20
0.0
 30
0.0
  0
SOLID
  5
17FE25
  8
COTATION
 62
     4
 10
216.72231439967439
 20
132.74948819835501
 30
0.0
 11
216.0795267899878
 21
131.98344375523601
 31
0.0
 12
214.10278726547421
 22
134.2948288058551
 32
0.0
 13
214.10278726547421
 23
134.2948288058551
 33
0.0
  0
SOLID
  5
17FE26
  8
COTATION
 62
     4
 10
209.06186996848439
 20
139.1773642952206
 30
0.0
 11
208.41908235879791
 21
138.4113198521016
 31
0.0
 12
211.03860949299809
 22
136.8659792446015
 32
0.0
 13
211.03860949299809
 23
136.8659792446015
 33
0.0
  0
POINT
  5
17FE27
  8
DEFPOINTS
 62
     0
 10
210.73432973153959
 20
130.28045743828761
 30
0.0
  0
POINT
  5
17FE28
  8
DEFPOINTS
 62
     0
 10
207.6701519590635
 20
132.85160787703401
 30
0.0
  0
POINT
  5
17FE29
  8
DEFPOINTS
 62
     0
 10
211.03860949299809
 20
136.8659792446015
 30
0.0
  0
ENDBLK
  5
17FD26
  8
0
  0
BLOCK
  8
0
  2
*D86
 70
     1
 10
0.0
 20
0.0
 30
0.0
  3
*D86
  1

  0
ARC
  5
180013
  8
COTATION
 62
     4
 10
190.64357638103209
 20
109.4486776086185
 30
0.0
 40
21.556393484810961
 50
7.9802939500043557
 51
42.019706049993928
  0
SOLID
  5
180014
  8
COTATION
 62
     4
 10
212.49000310985659
 20
112.47619816467871
 30
0.0
 11
211.49242707848489
 21
112.406613240788
 31
0.0
 12
212.199969865843
 22
109.4486776086185
 32
0.0
 13
212.199969865843
 23
109.4486776086185
 33
0.0
  0
SOLID
  5
180015
  8
COTATION
 62
     4
 10
206.3108694396868
 20
123.51849945621019
 30
0.0
 11
207.00540409664421
 21
124.2379587047331
 31
0.0
 12
204.49975902259681
 22
125.9618330513436
 32
0.0
 13
204.49975902259681
 23
125.9618330513436
 33
0.0
  0
TEXT
  8
COTATION
  40
4
  5
18007E
  62
90
  72
0
  71
0
 10
207.618
 20
114.015
 30
0.000000
  1
50%%d%%p0%%d
  0
POINT
  5
180017
  8
DEFPOINTS
 62
     0
 10
211.294375262827
 20
115.6311209456544
 30
0.0
  0
POINT
  5
180018
  8
DEFPOINTS
 62
     0
 10
28.681164491876519
 20
109.4486776086182
 30
0.0
  0
POINT
  5
180019
  8
DEFPOINTS
 62
     0
 10
184.9891135115941
 20
102.70995116977559
 30
0.0
  0
POINT
  5
18001A
  8
DEFPOINTS
 62
     0
 10
216.41651186392869
 20
140.16366606205739
 30
0.0
  0
POINT
  5
18001B
  8
DEFPOINTS
 62
     0
 10
283.98220006785277
 20
109.4486776086186
 30
0.0
  0
ENDBLK
  5
17FD32
  8
0
  0
BLOCK
  8
0
  2
*D87
 70
     1
 10
0.0
 20
0.0
 30
0.0
  3
*D87
  1

  0
LINE
  5
17FE33
  8
CHARIOT
 62
     4
 10
31.681164491876419
 20
107.94867760861911
 30
0.0
 11
31.681164491876409
 21
74.453272535006093
 31
0.0
  0
LINE
  5
17FE34
  8
CHARIOT
 62
     4
 10
79.681164491876416
 20
98.418828777684212
 30
0.0
 11
79.681164491876416
 21
74.453272535006093
 31
0.0
  0
LINE
  5
17FE35
  8
CHARIOT
 62
     4
 10
34.681164491876423
 20
76.25327253500609
 30
0.0
 11
76.681164491876416
 21
76.25327253500609
 31
0.0
  0
SOLID
  5
17FE36
  8
CHARIOT
 62
     4
 10
34.681164491876423
 20
76.75327253500609
 30
0.0
 11
34.681164491876423
 21
75.75327253500609
 31
0.0
 12
31.681164491876409
 22
76.25327253500609
 32
0.0
 13
31.681164491876409
 23
76.25327253500609
 33
0.0
  0
SOLID
  5
17FE37
  8
CHARIOT
 62
     4
 10
76.681164491876416
 20
76.75327253500609
 30
0.0
 11
76.681164491876416
 21
75.75327253500609
 31
0.0
 12
79.681164491876416
 22
76.25327253500609
 32
0.0
 13
79.681164491876416
 23
76.25327253500609
 33
0.0
  0
INSERT
  5
17FE38
  8
CHARIOT
  2
*U109
 10
0.0
 20
0.0
 30
0.0
  0
POINT
  5
17FE39
  8
DEFPOINTS
 62
     0
 10
31.681164491876419
 20
109.44867760861911
 30
0.0
  0
POINT
  5
17FE3A
  8
DEFPOINTS
 62
     0
 10
79.681164491876416
 20
99.918828777684212
 30
0.0
  0
POINT
  5
17FE3B
  8
DEFPOINTS
 62
     0
 10
79.681164491876416
 20
76.25327253500609
 30
0.0
  0
ENDBLK
  5
17FD3E
  8
0
  0
BLOCK
  8
0
  2
*D88
 70
     1
 10
0.0
 20
0.0
 30
0.0
  3
*D88
  1

  0
LINE
  5
17FE3C
  8
CHARIOT
 62
     4
 10
31.681164491876419
 20
72.953272535005908
 30
0.0
 11
31.681164491876419
 21
66.759158823340115
 31
0.0
  0
LINE
  5
17FE3D
  8
CHARIOT
 62
     4
 10
107.6811644918764
 20
97.948677608619164
 30
0.0
 11
107.6811644918764
 21
66.759158823340115
 31
0.0
  0
LINE
  5
17FE3E
  8
CHARIOT
 62
     4
 10
34.681164491876423
 20
68.559158823340113
 30
0.0
 11
104.6811644918764
 21
68.559158823340113
 31
0.0
  0
SOLID
  5
17FE3F
  8
CHARIOT
 62
     4
 10
34.681164491876423
 20
69.059158823340113
 30
0.0
 11
34.681164491876423
 21
68.059158823340113
 31
0.0
 12
31.681164491876419
 22
68.559158823340113
 32
0.0
 13
31.681164491876419
 23
68.559158823340113
 33
0.0
  0
SOLID
  5
17FE40
  8
CHARIOT
 62
     4
 10
104.6811644918764
 20
69.059158823340113
 30
0.0
 11
104.6811644918764
 21
68.059158823340113
 31
0.0
 12
107.6811644918764
 22
68.559158823340113
 32
0.0
 13
107.6811644918764
 23
68.559158823340113
 33
0.0
  0
INSERT
  5
17FE41
  8
CHARIOT
  2
*U110
 10
0.0
 20
0.0
 30
0.0
  0
POINT
  5
17FE42
  8
DEFPOINTS
 62
     0
 10
31.681164491876419
 20
74.453272535005894
 30
0.0
  0
POINT
  5
17FE43
  8
DEFPOINTS
 62
     0
 10
107.6811644918764
 20
99.448677608619164
 30
0.0
  0
POINT
  5
17FE44
  8
DEFPOINTS
 62
     0
 10
107.6811644918764
 20
68.559158823340113
 30
0.0
  0
ENDBLK
  5
17FD4A
  8
0
  0
BLOCK
  8
0
  2
*D89
 70
     1
 10
0.0
 20
0.0
 30
0.0
  3
*D89
  1

  0
LINE
  5
17FE45
  8
CHARIOT
 62
     4
 10
31.681164491876419
 20
65.259158823339931
 30
0.0
 11
31.681164491876419
 21
58.210144827982461
 31
0.0
  0
LINE
  5
17FE46
  8
CHARIOT
 62
     4
 10
149.68116449187639
 20
100.94867760861911
 30
0.0
 11
149.68116449187639
 21
58.210144827982461
 31
0.0
  0
LINE
  5
17FE47
  8
CHARIOT
 62
     4
 10
34.681164491876423
 20
60.010144827982458
 30
0.0
 11
146.68116449187639
 21
60.010144827982458
 31
0.0
  0
SOLID
  5
17FE48
  8
CHARIOT
 62
     4
 10
34.681164491876423
 20
60.510144827982458
 30
0.0
 11
34.681164491876423
 21
59.510144827982458
 31
0.0
 12
31.681164491876419
 22
60.010144827982458
 32
0.0
 13
31.681164491876419
 23
60.010144827982458
 33
0.0
  0
SOLID
  5
17FE49
  8
CHARIOT
 62
     4
 10
146.68116449187639
 20
60.510144827982458
 30
0.0
 11
146.68116449187639
 21
59.510144827982458
 31
0.0
 12
149.68116449187639
 22
60.010144827982458
 32
0.0
 13
149.68116449187639
 23
60.010144827982458
 33
0.0
  0
INSERT
  5
17FE4A
  8
CHARIOT
  2
*U111
 10
0.0
 20
0.0
 30
0.0
  0
POINT
  5
17FE4B
  8
DEFPOINTS
 62
     0
 10
31.681164491876419
 20
66.759158823339931
 30
0.0
  0
POINT
  5
17FE4C
  8
DEFPOINTS
 62
     0
 10
149.68116449187639
 20
102.44867760861911
 30
0.0
  0
POINT
  5
17FE4D
  8
DEFPOINTS
 62
     0
 10
149.68116449187639
 20
60.010144827982458
 30
0.0
  0
ENDBLK
  5
17FD56
  8
0
  0
BLOCK
  8
0
  2
*D90
 70
     1
 10
0.0
 20
0.0
 30
0.0
  3
*D90
  1

  0
LINE
  5
17FE4E
  8
CHARIOT
 62
     4
 10
31.681164491876419
 20
56.710144827982269
 30
0.0
 11
31.681164491876419
 21
49.233679169172959
 31
0.0
  0
LINE
  5
17FE4F
  8
CHARIOT
 62
     4
 10
157.68116449187639
 20
124.94867760861911
 30
0.0
 11
157.68116449187639
 21
49.233679169172959
 31
0.0
  0
LINE
  5
17FE50
  8
CHARIOT
 62
     4
 10
34.681164491876423
 20
51.033679169172963
 30
0.0
 11
154.68116449187639
 21
51.033679169172963
 31
0.0
  0
SOLID
  5
17FE51
  8
CHARIOT
 62
     4
 10
34.681164491876423
 20
51.533679169172963
 30
0.0
 11
34.681164491876423
 21
50.533679169172949
 31
0.0
 12
31.681164491876419
 22
51.033679169172963
 32
0.0
 13
31.681164491876419
 23
51.033679169172963
 33
0.0
  0
SOLID
  5
17FE52
  8
CHARIOT
 62
     4
 10
154.68116449187639
 20
51.533679169172963
 30
0.0
 11
154.68116449187639
 21
50.533679169172949
 31
0.0
 12
157.68116449187639
 22
51.033679169172963
 32
0.0
 13
157.68116449187639
 23
51.033679169172963
 33
0.0
  0
INSERT
  5
17FE53
  8
CHARIOT
  2
*U112
 10
0.0
 20
0.0
 30
0.0
  0
POINT
  5
17FE54
  8
DEFPOINTS
 62
     0
 10
31.681164491876419
 20
58.210144827982269
 30
0.0
  0
POINT
  5
17FE55
  8
DEFPOINTS
 62
     0
 10
157.68116449187639
 20
126.44867760861911
 30
0.0
  0
POINT
  5
17FE56
  8
DEFPOINTS
 62
     0
 10
157.68116449187639
 20
51.033679169172963
 30
0.0
  0
ENDBLK
  5
17FD62
  8
0
  0
BLOCK
  8
0
  2
*D91
 70
     1
 10
0.0
 20
0.0
 30
0.0
  3
*D91
  1

  0
LINE
  5
17FE57
  8
CHARIOT
 62
     4
 10
31.681164491876419
 20
47.733679169172767
 30
0.0
 11
31.681164491876419
 21
39.82976286131607
 31
0.0
  0
LINE
  5
17FE58
  8
CHARIOT
 62
     4
 10
185.68116449187639
 20
122.69250802998251
 30
0.0
 11
185.68116449187639
 21
39.82976286131607
 31
0.0
  0
LINE
  5
17FE59
  8
CHARIOT
 62
     4
 10
34.681164491876423
 20
41.62976286131606
 30
0.0
 11
182.68116449187639
 21
41.62976286131606
 31
0.0
  0
SOLID
  5
17FE5A
  8
CHARIOT
 62
     4
 10
34.681164491876423
 20
42.12976286131606
 30
0.0
 11
34.681164491876423
 21
41.129762861316067
 31
0.0
 12
31.681164491876419
 22
41.62976286131606
 32
0.0
 13
31.681164491876419
 23
41.62976286131606
 33
0.0
  0
SOLID
  5
17FE5B
  8
CHARIOT
 62
     4
 10
182.68116449187639
 20
42.12976286131606
 30
0.0
 11
182.68116449187639
 21
41.129762861316067
 31
0.0
 12
185.68116449187639
 22
41.62976286131606
 32
0.0
 13
185.68116449187639
 23
41.62976286131606
 33
0.0
  0
INSERT
  5
17FE5C
  8
CHARIOT
  2
*U113
 10
0.0
 20
0.0
 30
0.0
  0
POINT
  5
17FE5D
  8
DEFPOINTS
 62
     0
 10
31.681164491876419
 20
49.233679169172767
 30
0.0
  0
POINT
  5
17FE5E
  8
DEFPOINTS
 62
     0
 10
185.68116449187639
 20
124.19250802998251
 30
0.0
  0
POINT
  5
17FE5F
  8
DEFPOINTS
 62
     0
 10
185.68116449187639
 20
41.62976286131606
 30
0.0
  0
ENDBLK
  5
17FD6E
  8
0
  0
BLOCK
  8
0
  2
*D92
 70
     1
 10
0.0
 20
0.0
 30
0.0
  3
*D92
  1

  0
LINE
  5
17FE60
  8
CHARIOT
 62
     4
 10
73.181164491876416
 20
102.4188287776842
 30
0.0
 11
67.687859152056106
 21
102.4188287776842
 31
0.0
  0
LINE
  5
17FE61
  8
CHARIOT
 62
     4
 10
78.181164491876416
 20
109.44867760861911
 30
0.0
 11
67.687859152056106
 21
109.44867760861911
 31
0.0
  0
LINE
  5
17FE62
  8
CHARIOT
 62
     4
 10
69.487859152056103
 20
99.418828777684212
 30
0.0
 11
69.487859152056103
 21
96.418828777684226
 31
0.0
  0
LINE
  5
17FE63
  8
CHARIOT
 62
     4
 10
69.487859152056103
 20
112.44867760861911
 30
0.0
 11
69.487859152056103
 21
115.44867760861911
 31
0.0
  0
INSERT
  5
17FE64
  8
CHARIOT
  2
*U114
 10
0.0
 20
0.0
 30
0.0
  0
SOLID
  5
17FE65
  8
CHARIOT
 62
     4
 10
68.987859152056103
 20
99.418828777684212
 30
0.0
 11
69.987859152056103
 21
99.418828777684212
 31
0.0
 12
69.487859152056103
 22
102.4188287776842
 32
0.0
 13
69.487859152056103
 23
102.4188287776842
 33
0.0
  0
SOLID
  5
17FE66
  8
CHARIOT
 62
     4
 10
68.987859152056103
 20
112.44867760861911
 30
0.0
 11
69.987859152056103
 21
112.44867760861911
 31
0.0
 12
69.487859152056103
 22
109.44867760861911
 32
0.0
 13
69.487859152056103
 23
109.44867760861911
 33
0.0
  0
POINT
  5
17FE67
  8
DEFPOINTS
 62
     0
 10
74.681164491876416
 20
102.4188287776842
 30
0.0
  0
POINT
  5
17FE68
  8
DEFPOINTS
 62
     0
 10
79.681164491876416
 20
109.44867760861911
 30
0.0
  0
POINT
  5
17FE69
  8
DEFPOINTS
 62
     0
 10
69.487859152056103
 20
109.44867760861911
 30
0.0
  0
ENDBLK
  5
17FD7B
  8
0
  0
BLOCK
  8
0
  2
*D93
 70
     1
 10
0.0
 20
0.0
 30
0.0
  3
*D93
  1

  0
LINE
  5
17FE6A
  8
CHARIOT
 62
     4
 10
78.181164491876416
 20
109.44867760861911
 30
0.0
 11
69.995625576096984
 21
109.44867760861911
 31
0.0
  0
LINE
  5
17FE6B
  8
CHARIOT
 62
     4
 10
73.181164491876416
 20
128.94867760861911
 30
0.0
 11
69.995625576096984
 21
128.94867760861911
 31
0.0
  0
LINE
  5
17FE6C
  8
CHARIOT
 62
     4
 10
71.795625576096995
 20
112.44867760861911
 30
0.0
 11
71.795625576096995
 21
115.19867760861911
 31
0.0
  0
LINE
  5
17FE6D
  8
CHARIOT
 62
     4
 10
71.795625576096995
 20
125.94867760861921
 30
0.0
 11
71.795625576096995
 21
123.19867760861921
 31
0.0
  0
SOLID
  5
17FE6E
  8
CHARIOT
 62
     4
 10
71.295625576096995
 20
112.44867760861911
 30
0.0
 11
72.295625576096995
 21
112.44867760861911
 31
0.0
 12
71.795625576096995
 22
109.44867760861911
 32
0.0
 13
71.795625576096995
 23
109.44867760861911
 33
0.0
  0
SOLID
  5
17FE6F
  8
CHARIOT
 62
     4
 10
71.295625576096995
 20
125.94867760861921
 30
0.0
 11
72.295625576096995
 21
125.94867760861921
 31
0.0
 12
71.795625576096995
 22
128.94867760861911
 32
0.0
 13
71.795625576096995
 23
128.94867760861911
 33
0.0
  0
INSERT
  5
17FE70
  8
CHARIOT
  2
*U115
 10
0.0
 20
0.0
 30
0.0
  0
POINT
  5
17FE71
  8
DEFPOINTS
 62
     0
 10
79.681164491876416
 20
109.44867760861911
 30
0.0
  0
POINT
  5
17FE72
  8
DEFPOINTS
 62
     0
 10
74.681164491876416
 20
128.94867760861911
 30
0.0
  0
POINT
  5
17FE73
  8
DEFPOINTS
 62
     0
 10
71.795625576096995
 20
128.94867760861911
 30
0.0
  0
ENDBLK
  5
17FD88
  8
0
  0
BLOCK
  8
0
  2
*D94
 70
     1
 10
0.0
 20
0.0
 30
0.0
  3
*D94
  1

  0
LINE
  5
17FE74
  8
CHARIOT
 62
     4
 10
106.1811644918764
 20
109.44867760861911
 30
0.0
 11
99.819063371278688
 21
109.44867760861911
 31
0.0
  0
LINE
  5
17FE75
  8
CHARIOT
 62
     4
 10
101.1811644918764
 20
124.44867760861911
 30
0.0
 11
99.819063371278688
 21
124.44867760861911
 31
0.0
  0
LINE
  5
17FE76
  8
CHARIOT
 62
     4
 10
101.6190633712787
 20
112.44867760861911
 30
0.0
 11
101.6190633712787
 21
112.94867760861911
 31
0.0
  0
LINE
  5
17FE77
  8
CHARIOT
 62
     4
 10
101.6190633712787
 20
121.44867760861911
 30
0.0
 11
101.6190633712787
 21
120.94867760861911
 31
0.0
  0
INSERT
  5
17FE78
  8
CHARIOT
  2
*U116
 10
0.0
 20
0.0
 30
0.0
  0
SOLID
  5
17FE79
  8
CHARIOT
 62
     4
 10
101.1190633712787
 20
112.44867760861911
 30
0.0
 11
102.1190633712787
 21
112.44867760861911
 31
0.0
 12
101.6190633712787
 22
109.44867760861911
 32
0.0
 13
101.6190633712787
 23
109.44867760861911
 33
0.0
  0
SOLID
  5
17FE7A
  8
CHARIOT
 62
     4
 10
101.1190633712787
 20
121.44867760861911
 30
0.0
 11
102.1190633712787
 21
121.44867760861911
 31
0.0
 12
101.6190633712787
 22
124.44867760861911
 32
0.0
 13
101.6190633712787
 23
124.44867760861911
 33
0.0
  0
POINT
  5
17FE7B
  8
DEFPOINTS
 62
     0
 10
107.6811644918764
 20
109.44867760861911
 30
0.0
  0
POINT
  5
17FE7C
  8
DEFPOINTS
 62
     0
 10
102.6811644918764
 20
124.44867760861911
 30
0.0
  0
POINT
  5
17FE7D
  8
DEFPOINTS
 62
     0
 10
101.6190633712787
 20
124.44867760861911
 30
0.0
  0
ENDBLK
  5
17FD95
  8
0
  0
BLOCK
  8
0
  2
*D95
 70
     1
 10
0.0
 20
0.0
 30
0.0
  3
*D95
  1

  0
LINE
  5
17FE7E
  8
CHARIOT
 62
     4
 10
106.1811644918764
 20
109.44867760861911
 30
0.0
 11
98.221379629702454
 21
109.44867760861911
 31
0.0
  0
LINE
  5
17FE7F
  8
CHARIOT
 62
     4
 10
101.1811644918764
 20
104.44867760861911
 30
0.0
 11
98.221379629702454
 21
104.44867760861911
 31
0.0
  0
LINE
  5
17FE80
  8
CHARIOT
 62
     4
 10
100.02137962970239
 20
112.44867760861911
 30
0.0
 11
100.02137962970239
 21
115.44867760861911
 31
0.0
  0
LINE
  5
17FE81
  8
CHARIOT
 62
     4
 10
100.02137962970239
 20
101.44867760861911
 30
0.0
 11
100.02137962970239
 21
98.448677608619164
 31
0.0
  0
INSERT
  5
17FE82
  8
CHARIOT
  2
*U117
 10
0.0
 20
0.0
 30
0.0
  0
SOLID
  5
17FE83
  8
CHARIOT
 62
     4
 10
99.521379629702437
 20
112.44867760861911
 30
0.0
 11
100.52137962970239
 21
112.44867760861911
 31
0.0
 12
100.02137962970239
 22
109.44867760861911
 32
0.0
 13
100.02137962970239
 23
109.44867760861911
 33
0.0
  0
SOLID
  5
17FE84
  8
CHARIOT
 62
     4
 10
99.521379629702437
 20
101.44867760861911
 30
0.0
 11
100.52137962970239
 21
101.44867760861911
 31
0.0
 12
100.02137962970239
 22
104.44867760861911
 32
0.0
 13
100.02137962970239
 23
104.44867760861911
 33
0.0
  0
POINT
  5
17FE85
  8
DEFPOINTS
 62
     0
 10
107.6811644918764
 20
109.44867760861911
 30
0.0
  0
POINT
  5
17FE86
  8
DEFPOINTS
 62
     0
 10
102.6811644918764
 20
104.44867760861911
 30
0.0
  0
POINT
  5
17FE87
  8
DEFPOINTS
 62
     0
 10
100.02137962970239
 20
104.44867760861911
 30
0.0
  0
ENDBLK
  5
17FDA2
  8
0
  0
BLOCK
  8
0
  2
*D96
 70
     1
 10
0.0
 20
0.0
 30
0.0
  3
*D96
  1

  0
LINE
  5
17FE88
  8
CHARIOT
 62
     4
 10
148.18116449187639
 20
109.44867760861911
 30
0.0
 11
134.90241740842319
 21
109.44867760861911
 31
0.0
  0
LINE
  5
17FE89
  8
CHARIOT
 62
     4
 10
143.18116449187639
 20
107.44867760861911
 30
0.0
 11
134.90241740842319
 21
107.44867760861911
 31
0.0
  0
LINE
  5
17FE8A
  8
CHARIOT
 62
     4
 10
136.7024174084232
 20
112.44867760861911
 30
0.0
 11
136.7024174084232
 21
115.44867760861911
 31
0.0
  0
LINE
  5
17FE8B
  8
CHARIOT
 62
     4
 10
136.7024174084232
 20
104.44867760861911
 30
0.0
 11
136.7024174084232
 21
101.44867760861911
 31
0.0
  0
INSERT
  5
17FE8C
  8
CHARIOT
  2
*U118
 10
0.0
 20
0.0
 30
0.0
  0
SOLID
  5
17FE8D
  8
CHARIOT
 62
     4
 10
136.2024174084232
 20
112.44867760861911
 30
0.0
 11
137.2024174084232
 21
112.44867760861911
 31
0.0
 12
136.7024174084232
 22
109.44867760861911
 32
0.0
 13
136.7024174084232
 23
109.44867760861911
 33
0.0
  0
SOLID
  5
17FE8E
  8
CHARIOT
 62
     4
 10
136.2024174084232
 20
104.44867760861911
 30
0.0
 11
137.2024174084232
 21
104.44867760861911
 31
0.0
 12
136.7024174084232
 22
107.44867760861911
 32
0.0
 13
136.7024174084232
 23
107.44867760861911
 33
0.0
  0
POINT
  5
17FE8F
  8
DEFPOINTS
 62
     0
 10
149.68116449187639
 20
109.44867760861911
 30
0.0
  0
POINT
  5
17FE90
  8
DEFPOINTS
 62
     0
 10
144.68116449187639
 20
107.44867760861911
 30
0.0
  0
POINT
  5
17FE91
  8
DEFPOINTS
 62
     0
 10
136.7024174084232
 20
107.44867760861911
 30
0.0
  0
ENDBLK
  5
17FDAF
  8
0
  0
BLOCK
  8
0
  2
*D97
 70
     1
 10
0.0
 20
0.0
 30
0.0
  3
*D97
  1

  0
LINE
  5
17FE92
  8
CHARIOT
 62
     4
 10
179.18116449187639
 20
129.19250802998249
 30
0.0
 11
175.90964506498881
 21
129.19250802998249
 31
0.0
  0
LINE
  5
17FE93
  8
CHARIOT
 62
     4
 10
184.18116449187639
 20
109.44867760861911
 30
0.0
 11
175.90964506498881
 21
109.44867760861911
 31
0.0
  0
LINE
  5
17FE94
  8
CHARIOT
 62
     4
 10
177.70964506498891
 20
132.19250802998249
 30
0.0
 11
177.70964506498891
 21
135.19250802998249
 31
0.0
  0
LINE
  5
17FE95
  8
CHARIOT
 62
     4
 10
177.70964506498891
 20
106.44867760861911
 30
0.0
 11
177.70964506498891
 21
103.44867760861911
 31
0.0
  0
INSERT
  5
17FE96
  8
CHARIOT
  2
*U119
 10
0.0
 20
0.0
 30
0.0
  0
SOLID
  5
17FE97
  8
CHARIOT
 62
     4
 10
177.20964506498891
 20
132.19250802998249
 30
0.0
 11
178.20964506498891
 21
132.19250802998249
 31
0.0
 12
177.70964506498891
 22
129.19250802998249
 32
0.0
 13
177.70964506498891
 23
129.19250802998249
 33
0.0
  0
SOLID
  5
17FE98
  8
CHARIOT
 62
     4
 10
177.20964506498891
 20
106.44867760861911
 30
0.0
 11
178.20964506498891
 21
106.44867760861911
 31
0.0
 12
177.70964506498891
 22
109.44867760861911
 32
0.0
 13
177.70964506498891
 23
109.44867760861911
 33
0.0
  0
POINT
  5
17FE99
  8
DEFPOINTS
 62
     0
 10
180.68116449187639
 20
129.19250802998249
 30
0.0
  0
POINT
  5
17FE9A
  8
DEFPOINTS
 62
     0
 10
185.68116449187639
 20
109.44867760861911
 30
0.0
  0
POINT
  5
17FE9B
  8
DEFPOINTS
 62
     0
 10
177.70964506498891
 20
109.44867760861911
 30
0.0
  0
ENDBLK
  5
17FDBC
  8
0
  0
BLOCK
  8
0
  2
*D98
 70
     1
 10
0.0
 20
0.0
 30
0.0
  3
*D98
  1

  0
LINE
  5
17FE9C
  8
CHARIOT
 62
     4
 10
164.18116449187639
 20
131.44867760861911
 30
0.0
 11
167.97081477996031
 21
131.44867760861911
 31
0.0
  0
LINE
  5
17FE9D
  8
CHARIOT
 62
     4
 10
159.18116449187639
 20
109.44867760861911
 30
0.0
 11
167.97081477996031
 21
109.44867760861911
 31
0.0
  0
LINE
  5
17FE9E
  8
CHARIOT
 62
     4
 10
166.1708147799603
 20
134.44867760861911
 30
0.0
 11
166.1708147799603
 21
137.44867760861911
 31
0.0
  0
LINE
  5
17FE9F
  8
CHARIOT
 62
     4
 10
166.1708147799603
 20
106.44867760861911
 30
0.0
 11
166.1708147799603
 21
103.44867760861911
 31
0.0
  0
INSERT
  5
17FEA0
  8
CHARIOT
  2
*U120
 10
0.0
 20
0.0
 30
0.0
  0
SOLID
  5
17FEA1
  8
CHARIOT
 62
     4
 10
165.6708147799603
 20
134.44867760861911
 30
0.0
 11
166.6708147799603
 21
134.44867760861911
 31
0.0
 12
166.1708147799603
 22
131.44867760861911
 32
0.0
 13
166.1708147799603
 23
131.44867760861911
 33
0.0
  0
SOLID
  5
17FEA2
  8
CHARIOT
 62
     4
 10
165.6708147799603
 20
106.44867760861911
 30
0.0
 11
166.6708147799603
 21
106.44867760861911
 31
0.0
 12
166.1708147799603
 22
109.44867760861911
 32
0.0
 13
166.1708147799603
 23
109.44867760861911
 33
0.0
  0
POINT
  5
17FEA3
  8
DEFPOINTS
 62
     0
 10
162.68116449187639
 20
131.44867760861911
 30
0.0
  0
POINT
  5
17FEA4
  8
DEFPOINTS
 62
     0
 10
157.68116449187639
 20
109.44867760861911
 30
0.0
  0
POINT
  5
17FEA5
  8
DEFPOINTS
 62
     0
 10
166.1708147799603
 20
109.44867760861911
 30
0.0
  0
ENDBLK
  5
17FDC9
  8
0
  0
BLOCK
  8
0
  2
*D99
 70
     1
 10
0.0
 20
0.0
 30
0.0
  3
*D99
  1

  0
LINE
  5
17FEA6
  8
CHARIOT
 62
     4
 10
28.77884685331037
 20
104.1973394625001
 30
0.0
 11
27.327688034027581
 21
101.57167038944119
 31
0.0
  0
LINE
  5
17FEA7
  8
CHARIOT
 62
     4
 10
34.583482130442
 20
114.7000157547363
 30
0.0
 11
36.034640949724803
 21
117.3256848277952
 31
0.0
  0
INSERT
  5
17FEA8
  8
CHARIOT
  2
*U121
 10
0.0
 20
0.0
 30
0.0
  0
SOLID
  5
17FEA9
  8
CHARIOT
 62
     4
 10
28.341235341133888
 20
104.4391992657139
 30
0.0
 11
29.21645836548684
 21
103.9554796592863
 31
0.0
 12
30.230005672593158
 22
106.8230085355589
 32
0.0
 13
30.230005672593158
 23
106.8230085355589
 33
0.0
  0
SOLID
  5
17FEAA
  8
CHARIOT
 62
     4
 10
34.145870618265533
 20
114.9418755579501
 30
0.0
 11
35.021093642618482
 21
114.4581559515225
 31
0.0
 12
33.132323311159212
 22
112.0743466816775
 32
0.0
 13
33.132323311159212
 23
112.0743466816775
 33
0.0
  0
LINE
  5
17FEAB
  8
CHARIOT
 62
     4
 10
31.181164491876189
 20
109.4486776086182
 30
0.0
 11
32.181164491876189
 21
109.4486776086182
 31
0.0
  0
LINE
  5
17FEAC
  8
CHARIOT
 62
     4
 10
31.681164491876189
 20
108.9486776086182
 30
0.0
 11
31.681164491876189
 21
109.9486776086182
 31
0.0
  0
POINT
  5
17FEAD
  8
DEFPOINTS
 62
     0
 10
33.132323311159212
 20
112.0743466816775
 30
0.0
  0
POINT
  5
17FEAE
  8
DEFPOINTS
 62
     0
 10
30.230005672593158
 20
106.8230085355589
 30
0.0
  0
ENDBLK
  5
17FDD5
  8
0
  0
BLOCK
  8
0
  2
*D100
 70
     1
 10
0.0
 20
0.0
 30
0.0
  3
*D100
  1

  0
LINE
  5
17FEAF
  8
CHARIOT
 62
     4
 10
75.668224776507714
 20
125.1875188987521
 30
0.0
 11
73.479348568124493
 21
123.13597778427889
 31
0.0
  0
LINE
  5
17FEB0
  8
CHARIOT
 62
     4
 10
83.694104207246212
 20
132.70983631848699
 30
0.0
 11
85.882980415629433
 21
134.7613774329603
 31
0.0
  0
INSERT
  5
17FEB1
  8
CHARIOT
  2
*U122
 10
0.0
 20
0.0
 30
0.0
  0
SOLID
  5
17FEB2
  8
CHARIOT
 62
     4
 10
75.326301257428824
 20
125.5523316001493
 30
0.0
 11
76.010148295586575
 21
124.8227061973548
 31
0.0
 12
77.857100984890948
 22
127.2390600132252
 32
0.0
 13
77.857100984890948
 23
127.2390600132252
 33
0.0
  0
SOLID
  5
17FEB3
  8
CHARIOT
 62
     4
 10
83.352180688167337
 20
133.0746490198843
 30
0.0
 11
84.036027726325074
 21
132.34502361708991
 31
0.0
 12
81.505227998862992
 22
130.65829520401391
 32
0.0
 13
81.505227998862992
 23
130.65829520401391
 33
0.0
  0
LINE
  5
17FEB4
  8
CHARIOT
 62
     4
 10
79.18116449187697
 20
128.94867760861951
 30
0.0
 11
80.18116449187697
 21
128.94867760861959
 31
0.0
  0
LINE
  5
17FEB5
  8
CHARIOT
 62
     4
 10
79.681164491876956
 20
128.44867760861951
 30
0.0
 11
79.68116449187697
 21
129.44867760861959
 31
0.0
  0
POINT
  5
17FEB6
  8
DEFPOINTS
 62
     0
 10
81.505227998862992
 20
130.65829520401391
 30
0.0
  0
POINT
  5
17FEB7
  8
DEFPOINTS
 62
     0
 10
77.857100984890948
 20
127.2390600132252
 30
0.0
  0
ENDBLK
  5
17FDE1
  8
0
  0
BLOCK
  8
0
  2
*D101
 70
     1
 10
0.0
 20
0.0
 30
0.0
  3
*D101
  1

  0
LINE
  5
17FEB8
  8
CHARIOT
 62
     4
 10
244.2111283142159
 20
97.952679164602159
 30
0.0
 11
285.08174930654758
 21
97.952679164602159
 31
0.0
  0
LINE
  5
17FEB9
  8
CHARIOT
 62
     4
 10
282.482200067853
 20
109.44867760861911
 30
0.0
 11
281.48174930654761
 21
109.44867760861911
 31
0.0
  0
LINE
  5
17FEBA
  8
CHARIOT
 62
     4
 10
283.28174930654762
 20
100.9526791646021
 30
0.0
 11
283.28174930654762
 21
106.44867760861911
 31
0.0
  0
INSERT
  5
17FEBB
  8
CHARIOT
  2
*U123
 10
0.0
 20
0.0
 30
0.0
  0
SOLID
  5
17FEBC
  8
CHARIOT
 62
     4
 10
282.78174930654762
 20
100.9526791646021
 30
0.0
 11
283.78174930654762
 21
100.9526791646021
 31
0.0
 12
283.28174930654762
 22
97.952679164602159
 32
0.0
 13
283.28174930654762
 23
97.952679164602159
 33
0.0
  0
SOLID
  5
17FEBD
  8
CHARIOT
 62
     4
 10
282.78174930654762
 20
106.44867760861911
 30
0.0
 11
283.78174930654762
 21
106.44867760861911
 31
0.0
 12
283.28174930654762
 22
109.44867760861911
 32
0.0
 13
283.28174930654762
 23
109.44867760861911
 33
0.0
  0
POINT
  5
17FEBE
  8
DEFPOINTS
 62
     0
 10
242.7111283142159
 20
97.952679164602159
 30
0.0
  0
POINT
  5
17FEBF
  8
DEFPOINTS
 62
     0
 10
283.982200067853
 20
109.44867760861911
 30
0.0
  0
POINT
  5
17FEC0
  8
DEFPOINTS
 62
     0
 10
283.28174930654762
 20
109.44867760861911
 30
0.0
  0
ENDBLK
  5
17FDED
  8
0
  0
BLOCK
  8
0
  2
*D102
 70
     1
 10
0.0
 20
0.0
 30
0.0
  3
*D102
  1

  0
ARC
  5
17FEFA
  8
COTATION
 62
     4
 10
850.62104030058504
 20
3944.6918775581589
 30
0.0
 40
21.55639348481127
 50
7.9802939500043051
 51
42.019706049993331
  0
SOLID
  5
17FEFB
  8
COTATION
 62
     4
 10
872.46746702940936
 20
3947.71939811422
 30
0.0
 11
871.46989099803841
 21
3947.649813190329
 31
0.0
 12
872.17743378539626
 22
3944.6918775581589
 32
0.0
 13
872.17743378539626
 23
3944.6918775581589
 33
0.0
  0
SOLID
  5
17FEFC
  8
COTATION
 62
     4
 10
866.28833335924026
 20
3958.7616994057512
 30
0.0
 11
866.98286801619713
 21
3959.4811586542742
 31
0.0
 12
864.47722294214975
 22
3961.2050330008842
 32
0.0
 13
864.47722294214975
 23
3961.2050330008842
 33
0.0
  0
TEXT
  8
COTATION
  40
4
  5
18007F
  62
90
  72
0
  71
0
 10
867.596
 20
3949.26
 30
0.000000
  1
50%%d%%p0%%d
  0
POINT
  5
17FEFE
  8
DEFPOINTS
 62
     0
 10
871.27183918238018
 20
3950.8743208951951
 30
0.0
  0
POINT
  5
17FEFF
  8
DEFPOINTS
 62
     0
 10
688.65862841142985
 20
3944.6918775581589
 30
0.0
  0
POINT
  5
17FF00
  8
DEFPOINTS
 62
     0
 10
844.96657743114736
 20
3937.9531511193159
 30
0.0
  0
POINT
  5
17FF01
  8
DEFPOINTS
 62
     0
 10
876.39397578348235
 20
3975.4068660115981
 30
0.0
  0
POINT
  5
17FF02
  8
DEFPOINTS
 62
     0
 10
943.9596639874062
 20
3944.6918775581598
 30
0.0
  0
ENDBLK
  5
17FF04
  8
0
  0
BLOCK
  8
0
  2
*U103
 70
     1
 10
0.0
 20
0.0
 30
0.0
  3
*U103
  1

  0
TEXT
  5
180027
  8
COTATION
 62
    90
 10
215.4124143600599
 20
149.932118788281
 30
0.0
 40
4.0
  1
34.3
  0
TEXT
  5
180028
  8
COTATION
 62
    90
 10
228.7457476933933
 20
150.932118788281
 30
0.0
 40
2.0
  1
±0.1
  0
ENDBLK
  5
18002A
  8
0
  0
BLOCK
  8
0
  2
*U104
 70
     1
 10
0.0
 20
0.0
 30
0.0
  3
*U104
  1

  0
TEXT
  5
18002C
  8
COTATION
 62
    90
 10
215.0682711701028
 20
75.771000451142299
 30
0.0
 40
4.0
  1
35.0
  0
TEXT
  5
18002D
  8
COTATION
 62
    90
 10
228.40160450343609
 20
76.771000451142285
 30
0.0
 40
2.0
  1
±0.1
  0
ENDBLK
  5
18002F
  8
0
  0
BLOCK
  8
0
  2
*U105
 70
     1
 10
0.0
 20
0.0
 30
0.0
  3
*U105
  1

  0
TEXT
  5
180031
  8
COTATION
 62
    90
 10
161.04800826342591
 20
144.87403601642521
 30
0.0
 40
4.0
  1
22.0
  0
TEXT
  5
180032
  8
COTATION
 62
    90
 10
174.3813415967592
 20
145.87403601642521
 30
0.0
 40
2.0
  1
±0.1
  0
ENDBLK
  5
180034
  8
0
  0
BLOCK
  8
0
  2
*U106
 70
     1
 10
0.0
 20
0.0
 30
0.0
  3
*U106
  1

  0
TEXT
  5
180036
  8
COTATION
 62
    90
 10
257.25644639363662
 20
107.44867760861911
 30
0.0
 40
4.0
  1
%%C 6.0
  0
ENDBLK
  5
180038
  8
0
  0
BLOCK
  8
0
  2
*U107
 70
     1
 10
0.0
 20
0.0
 30
0.0
  3
*U107
  1

  0
TEXT
  5
18003A
  8
COTATION
 62
    90
 10
123.6485273592712
 20
173.18165590392621
 30
0.0
 40
4.0
  1
214.0
  0
TEXT
  5
18003B
  8
COTATION
 62
    90
 10
140.7913845021283
 20
174.18165590392621
 30
0.0
 40
2.0
  1
±0.1
  0
ENDBLK
  5
18003D
  8
0
  0
BLOCK
  8
0
  2
*U108
 70
     1
 10
0.0
 20
0.0
 30
0.0
  3
*U108
  1

  0
TEXT
  5
18003F
  8
COTATION
 62
    90
 10
208.61071243449069
 20
140.05197298869319
 30
0.0
 40
4.0
  1
%%C 4.0
  0
ENDBLK
  5
180041
  8
0
  0
BLOCK
  8
0
  2
*U109
 70
     1
 10
0.0
 20
0.0
 30
0.0
  3
*U109
  1

  0
TEXT
  5
180043
  8
CHARIOT
 62
    90
 10
49.014497825209752
 20
78.25327253500609
 30
0.0
 40
4.0
  1
48.0
  0
ENDBLK
  5
180045
  8
0
  0
BLOCK
  8
0
  2
*U110
 70
     1
 10
0.0
 20
0.0
 30
0.0
  3
*U110
  1

  0
TEXT
  5
180047
  8
CHARIOT
 62
    90
 10
63.014497825209752
 20
70.559158823340113
 30
0.0
 40
4.0
  1
76.0
  0
ENDBLK
  5
180049
  8
0
  0
BLOCK
  8
0
  2
*U111
 70
     1
 10
0.0
 20
0.0
 30
0.0
  3
*U111
  1

  0
TEXT
  5
18004B
  8
CHARIOT
 62
    90
 10
81.824021634733555
 20
62.010144827982458
 30
0.0
 40
4.0
  1
118.0
  0
ENDBLK
  5
18004D
  8
0
  0
BLOCK
  8
0
  2
*U112
 70
     1
 10
0.0
 20
0.0
 30
0.0
  3
*U112
  1

  0
TEXT
  5
18004F
  8
CHARIOT
 62
    90
 10
85.824021634733569
 20
53.033679169172949
 30
0.0
 40
4.0
  1
126.0
  0
ENDBLK
  5
180051
  8
0
  0
BLOCK
  8
0
  2
*U113
 70
     1
 10
0.0
 20
0.0
 30
0.0
  3
*U113
  1

  0
TEXT
  5
180053
  8
CHARIOT
 62
    90
 10
99.824021634733569
 20
43.629762861316067
 30
0.0
 40
4.0
  1
154.0
  0
ENDBLK
  5
180055
  8
0
  0
BLOCK
  8
0
  2
*U114
 70
     1
 10
0.0
 20
0.0
 30
0.0
  3
*U114
  1

  0
TEXT
  5
180057
  8
CHARIOT
 62
    90
 10
57.925954390151333
 20
103.9337531931517
 30
0.0
 40
4.0
  1
7.0
  0
ENDBLK
  5
180059
  8
0
  0
BLOCK
  8
0
  2
*U115
 70
     1
 10
0.0
 20
0.0
 30
0.0
  3
*U115
  1

  0
TEXT
  5
18005B
  8
CHARIOT
 62
    90
 10
64.843244623716032
 20
117.19867760861921
 30
0.0
 40
4.0
  1
19.5
  0
ENDBLK
  5
18005D
  8
0
  0
BLOCK
  8
0
  2
*U116
 70
     1
 10
0.0
 20
0.0
 30
0.0
  3
*U116
  1

  0
TEXT
  5
18005F
  8
CHARIOT
 62
    90
 10
92.566070623216675
 20
114.94867760861911
 30
0.0
 40
4.0
  1
15.0
  0
ENDBLK
  5
180061
  8
0
  0
BLOCK
  8
0
  2
*U117
 70
     1
 10
0.0
 20
0.0
 30
0.0
  3
*U117
  1

  0
TEXT
  5
180063
  8
CHARIOT
 62
    90
 10
88.459474867797653
 20
104.94867760861921
 30
0.0
 40
4.0
  1
5.0
  0
ENDBLK
  5
180065
  8
0
  0
BLOCK
  8
0
  2
*U118
 70
     1
 10
0.0
 20
0.0
 30
0.0
  3
*U118
  1

  0
TEXT
  5
180067
  8
CHARIOT
 62
    90
 10
125.1405126465184
 20
106.44867760861921
 30
0.0
 40
4.0
  1
2.0
  0
ENDBLK
  5
180069
  8
0
  0
BLOCK
  8
0
  2
*U119
 70
     1
 10
0.0
 20
0.0
 30
0.0
  3
*U119
  1

  0
TEXT
  5
18006B
  8
CHARIOT
 62
    90
 10
170.75726411260791
 20
114.134224035633
 30
0.0
 40
4.0
  1
19.7
  0
ENDBLK
  5
18006D
  8
0
  0
BLOCK
  8
0
  2
*U120
 70
     1
 10
0.0
 20
0.0
 30
0.0
  3
*U120
  1

  0
TEXT
  5
18006F
  8
CHARIOT
 62
    90
 10
159.50414811329361
 20
122.6443792499517
 30
0.0
 40
4.0
  1
22.0
  0
ENDBLK
  5
180071
  8
0
  0
BLOCK
  8
0
  2
*U121
 70
     1
 10
0.0
 20
0.0
 30
0.0
  3
*U121
  1

  0
TEXT
  5
180073
  8
CHARIOT
 62
    90
 10
38.685496076868937
 20
114.84469953817
 30
0.0
 40
4.0
  1
\U+22056.0
  0
ENDBLK
  5
180075
  8
0
  0
BLOCK
  8
0
  2
*U122
 70
     1
 10
0.0
 20
0.0
 30
0.0
  3
*U122
  1

  0
TEXT
  5
180077
  8
CHARIOT
 62
    90
 10
91.876577097181681
 20
139.49110912998739
 30
0.0
 40
4.0
  1
(8x) \U+22055.0
  0
ENDBLK
  5
180079
  8
0
  0
BLOCK
  8
0
  2
*U123
 70
     1
 10
0.0
 20
0.0
 30
0.0
  3
*U123
  1

  0
TEXT
  5
18007B
  8
CHARIOT
 62
    90
 10
265.52936835416659
 20
101.7006783866107
 30
0.0
 40
4.0
  1
11.5
  0
ENDBLK
  5
18007D
  8
0
  0
ENDSEC
  0
SECTION
  2
ENTITIES
  0
INSERT
  5
2
  8
0
  2
SEMAFOR
 10
0.0
 20
0.0
 30
0.0
  0
INSERT
  5
4
  8
0
  2
SEMAFOR
 10
0.0
 20
0.0
 30
0.0
  0
INSERT
  5
6
  8
0
  2
SEMAFOR
 10
0.0
 20
0.0
 30
0.0
  0
INSERT
  5
8
  8
0
  2
SEMAFOR
 10
0.0
 20
0.0
 30
0.0
  0
INSERT
  5
A
  8
0
  2
SEMAFOR
 10
0.0
 20
0.0
 30
0.0
  0
INSERT
  5
C
  8
0
  2
SEMAFOR
 10
0.0
 20
0.0
 30
0.0
  0
INSERT
  5
D
  8
0
  2
ACAD
 10
4733.4389627447927
 20
626.98922552497561
 30
0.0
  0
INSERT
  5
E
  8
0
  2
ACAD
 10
4401.2404021617613
 20
426.56681958498802
 30
0.0
  0
INSERT
  5
F
  8
0
  2
ACAD
 10
4401.2404021617613
 20
426.56681958498802
 30
0.0
  0
INSERT
  5
10
  8
0
  2
ACAD
 10
9843.6585030093738
 20
4161.7623992877234
 30
0.0
  0
INSERT
  5
11
  8
0
  2
ACAD
 10
10335.40967800786
 20
4128.0225861498011
 30
0.0
  0
INSERT
  5
12
  8
0
  2
ACAD
 10
5694.1362955782188
 20
8197.3877944074975
 30
0.0
  0
INSERT
  5
13
  8
0
  2
ACAD
 10
6185.8874705767112
 20
8163.6479812695761
 30
0.0
  0
INSERT
  5
C0
  8
P2
  2
ACAD
 10
8411.0782083018512
 20
2850.915628098021
 30
0.0
 41
0.02
 42
0.02
 43
0.02
  0
INSERT
  5
1AA
  8
0
  2
SEMAFOR
 10
0.0
 20
0.0
 30
0.0
 41
3.75
 42
3.75
 43
3.75
  0
INSERT
  5
1AC
  8
0
  2
SEMAFOR
 10
0.0
 20
0.0
 30
0.0
 41
3.75
 42
3.75
 43
3.75
  0
INSERT
  5
1AE
  8
0
  2
SEMAFOR
 10
0.0
 20
0.0
 30
0.0
 41
3.75
 42
3.75
 43
3.75
  0
INSERT
  5
1E7
  8
0
  2
ACAD
 10
5000.0469436296116
 20
3549.2343797401409
 30
0.0
  0
INSERT
  5
1E8
  8
0
  2
ACAD
 10
5491.7981186281031
 20
3515.4945666022199
 30
0.0
  0
INSERT
  5
1FB
  8
0
  2
SEMAFOR
 10
3708.5714045475338
 20
999.82442613291903
 30
0.0
  0
INSERT
  5
1FD
  8
0
  2
SEMAFOR
 10
3708.5714045475338
 20
999.82442613291903
 30
0.0
  0
INSERT
  5
1FF
  8
0
  2
SEMAFOR
 10
3708.5714045475338
 20
999.82442613291903
 30
0.0
  0
INSERT
  5
201
  8
0
  2
SEMAFOR
 10
3708.5714045475338
 20
999.82442613291903
 30
0.0
  0
INSERT
  5
203
  8
0
  2
SEMAFOR
 10
3708.5714045475338
 20
999.82442613291903
 30
0.0
  0
INSERT
  5
205
  8
0
  2
SEMAFOR
 10
3708.5714045475338
 20
999.82442613291903
 30
0.0
  0
INSERT
  5
206
  8
0
  2
ACAD
 10
8442.0103672923287
 20
1626.813651657895
 30
0.0
  0
INSERT
  5
207
  8
0
  2
ACAD
 10
8109.8118067092946
 20
1426.3912457179069
 30
0.0
  0
INSERT
  5
208
  8
0
  2
ACAD
 10
8109.8118067092946
 20
1426.3912457179069
 30
0.0
  0
INSERT
  5
209
  8
0
  2
ACAD
 10
13552.22990755691
 20
5161.5868254206416
 30
0.0
  0
INSERT
  5
20A
  8
0
  2
ACAD
 10
14043.9810825554
 20
5127.8470122827202
 30
0.0
  0
INSERT
  5
20B
  8
0
  2
ACAD
 10
9402.7077001257549
 20
9197.2122205404157
 30
0.0
  0
INSERT
  5
20C
  8
0
  2
ACAD
 10
9894.4588751242445
 20
9163.4724074024944
 30
0.0
  0
INSERT
  5
20D
  8
P2
  2
ACAD
 10
12119.64961284938
 20
3850.7400542309401
 30
0.0
 41
0.02
 42
0.02
 43
0.02
  0
INSERT
  5
20F
  8
0
  2
SEMAFOR
 10
3708.5714045475338
 20
999.82442613291903
 30
0.0
 41
3.75
 42
3.75
 43
3.75
  0
INSERT
  5
211
  8
0
  2
SEMAFOR
 10
3708.5714045475338
 20
999.82442613291903
 30
0.0
 41
3.75
 42
3.75
 43
3.75
  0
INSERT
  5
213
  8
0
  2
SEMAFOR
 10
3708.5714045475338
 20
999.82442613291903
 30
0.0
 41
3.75
 42
3.75
 43
3.75
  0
INSERT
  5
214
  8
0
  2
ACAD
 10
11004.667248186281
 20
2686.4915150072802
 30
0.0
  0
INSERT
  5
215
  8
0
  2
ACAD
 10
10672.46868760325
 20
2486.0691090672931
 30
0.0
  0
INSERT
  5
216
  8
0
  2
ACAD
 10
10672.46868760325
 20
2486.0691090672931
 30
0.0
  0
INSERT
  5
217
  8
0
  2
ACAD
 10
16114.88678845086
 20
6221.2646887700266
 30
0.0
  0
INSERT
  5
218
  8
0
  2
ACAD
 10
16606.637963449361
 20
6187.5248756321062
 30
0.0
  0
INSERT
  5
219
  8
0
  2
ACAD
 10
11965.36458101971
 20
10256.890083889801
 30
0.0
  0
INSERT
  5
21A
  8
0
  2
ACAD
 10
12457.1157560182
 20
10223.150270751879
 30
0.0
  0
INSERT
  5
233
  8
0
  2
SEMAFOR
 10
3708.5714045475338
 20
999.82442613291903
 30
0.0
 41
10.0
 42
10.0
 43
10.0
  0
INSERT
  5
235
  8
0
  2
SEMAFOR
 10
3708.5714045475338
 20
999.82442613291903
 30
0.0
 41
10.0
 42
10.0
 43
10.0
  0
INSERT
  5
237
  8
0
  2
SEMAFOR
 10
3708.5714045475338
 20
999.82442613291903
 30
0.0
 41
10.0
 42
10.0
 43
10.0
  0
INSERT
  5
240
  8
0
  2
SEMAFOR
 10
3524.0684305484692
 20
207.20092630162131
 30
0.0
  0
INSERT
  5
242
  8
0
  2
SEMAFOR
 10
3524.0684305484692
 20
207.20092630162131
 30
0.0
  0
INSERT
  5
244
  8
0
  2
SEMAFOR
 10
3524.0684305484692
 20
207.20092630162131
 30
0.0
  0
INSERT
  5
246
  8
0
  2
SEMAFOR
 10
3524.0684305484692
 20
207.20092630162131
 30
0.0
  0
INSERT
  5
248
  8
0
  2
SEMAFOR
 10
3524.0684305484692
 20
207.20092630162131
 30
0.0
  0
INSERT
  5
24A
  8
0
  2
SEMAFOR
 10
3524.0684305484692
 20
207.20092630162131
 30
0.0
  0
INSERT
  5
24B
  8
0
  2
ACAD
 10
8257.507393293261
 20
834.19015182659678
 30
0.0
  0
INSERT
  5
24C
  8
0
  2
ACAD
 10
7925.3088327102296
 20
633.76774588660919
 30
0.0
  0
INSERT
  5
24D
  8
0
  2
ACAD
 10
7925.3088327102296
 20
633.76774588660919
 30
0.0
  0
INSERT
  5
24E
  8
0
  2
ACAD
 10
13367.72693355784
 20
4368.9633255893441
 30
0.0
  0
INSERT
  5
24F
  8
0
  2
ACAD
 10
13859.47810855633
 20
4335.2235124514227
 30
0.0
  0
INSERT
  5
250
  8
0
  2
ACAD
 10
9218.2047261266889
 20
8404.5887207091182
 30
0.0
  0
INSERT
  5
251
  8
0
  2
ACAD
 10
9709.9559011251822
 20
8370.8489075711968
 30
0.0
  0
INSERT
  5
252
  8
P2
  2
ACAD
 10
11935.14663885032
 20
3058.1165543996422
 30
0.0
 41
0.02
 42
0.02
 43
0.02
  0
INSERT
  5
254
  8
0
  2
SEMAFOR
 10
3524.0684305484692
 20
207.20092630162131
 30
0.0
 41
3.75
 42
3.75
 43
3.75
  0
INSERT
  5
256
  8
0
  2
SEMAFOR
 10
3524.0684305484692
 20
207.20092630162131
 30
0.0
 41
3.75
 42
3.75
 43
3.75
  0
INSERT
  5
258
  8
0
  2
SEMAFOR
 10
3524.0684305484692
 20
207.20092630162131
 30
0.0
 41
3.75
 42
3.75
 43
3.75
  0
INSERT
  5
259
  8
0
  2
ACAD
 10
10820.164274187209
 20
1893.868015175982
 30
0.0
  0
INSERT
  5
25A
  8
0
  2
ACAD
 10
10487.965713604181
 20
1693.4456092359951
 30
0.0
  0
INSERT
  5
25B
  8
0
  2
ACAD
 10
10487.965713604181
 20
1693.4456092359951
 30
0.0
  0
INSERT
  5
25C
  8
0
  2
ACAD
 10
15930.383814451799
 20
5428.64118893873
 30
0.0
  0
INSERT
  5
25D
  8
0
  2
ACAD
 10
16422.134989450289
 20
5394.9013758008077
 30
0.0
  0
INSERT
  5
25E
  8
0
  2
ACAD
 10
11780.861607020641
 20
9464.2665840585032
 30
0.0
  0
INSERT
  5
25F
  8
0
  2
ACAD
 10
12272.61278201913
 20
9430.5267709205818
 30
0.0
  0
INSERT
  5
290
  8
0
  2
SEMAFOR
 10
3524.0684305484692
 20
207.20092630162131
 30
0.0
 41
10.0
 42
10.0
 43
10.0
  0
INSERT
  5
292
  8
0
  2
SEMAFOR
 10
3524.0684305484692
 20
207.20092630162131
 30
0.0
 41
10.0
 42
10.0
 43
10.0
  0
INSERT
  5
294
  8
0
  2
SEMAFOR
 10
3524.0684305484692
 20
207.20092630162131
 30
0.0
 41
10.0
 42
10.0
 43
10.0
  0
INSERT
  5
29E
  8
0
  2
SEMAFOR
 10
15386.960463810399
 20
3267.8879405965258
 30
0.0
  0
INSERT
  5
2A0
  8
0
  2
SEMAFOR
 10
15386.960463810399
 20
3267.8879405965258
 30
0.0
  0
INSERT
  5
2A2
  8
0
  2
SEMAFOR
 10
15386.960463810399
 20
3267.8879405965258
 30
0.0
  0
INSERT
  5
2A3
  8
0
  2
ACAD
 10
20120.399426555188
 20
3894.877166121501
 30
0.0
  0
INSERT
  5
2A4
  8
0
  2
ACAD
 10
19788.200865972161
 20
3694.4547601815138
 30
0.0
  0
INSERT
  5
2A5
  8
0
  2
ACAD
 10
19788.200865972161
 20
3694.4547601815138
 30
0.0
  0
INSERT
  5
2A6
  8
0
  2
ACAD
 10
25230.618966819769
 20
7429.6503398842506
 30
0.0
  0
INSERT
  5
2A7
  8
0
  2
ACAD
 10
25722.370141818261
 20
7395.9105267463274
 30
0.0
  0
INSERT
  5
2A8
  8
0
  2
ACAD
 10
21081.09675938862
 20
11465.275735004019
 30
0.0
  0
INSERT
  5
2A9
  8
0
  2
ACAD
 10
21572.847934387111
 20
11431.5359218661
 30
0.0
  0
INSERT
  5
2AA
  8
P2
  2
ACAD
 10
23798.038672112249
 20
6118.8035686945468
 30
0.0
 41
0.02
 42
0.02
 43
0.02
  0
INSERT
  5
2AC
  8
0
  2
SEMAFOR
 10
15386.960463810399
 20
3267.8879405965258
 30
0.0
 41
3.75
 42
3.75
 43
3.75
  0
INSERT
  5
2AE
  8
0
  2
SEMAFOR
 10
15386.960463810399
 20
3267.8879405965258
 30
0.0
 41
3.75
 42
3.75
 43
3.75
  0
INSERT
  5
2B0
  8
0
  2
SEMAFOR
 10
15386.960463810399
 20
3267.8879405965258
 30
0.0
 41
3.75
 42
3.75
 43
3.75
  0
INSERT
  5
2B1
  8
0
  2
ACAD
 10
20387.007407440011
 20
6817.1223203366681
 30
0.0
  0
INSERT
  5
2B2
  8
0
  2
ACAD
 10
20878.758582438499
 20
6783.3825071987458
 30
0.0
  0
INSERT
  5
2B4
  8
0
  2
SEMAFOR
 10
19095.531868357932
 20
4267.7123667294454
 30
0.0
  0
INSERT
  5
2B6
  8
0
  2
SEMAFOR
 10
19095.531868357932
 20
4267.7123667294454
 30
0.0
  0
INSERT
  5
2B8
  8
0
  2
SEMAFOR
 10
19095.531868357932
 20
4267.7123667294454
 30
0.0
  0
INSERT
  5
2BA
  8
0
  2
SEMAFOR
 10
19095.531868357932
 20
4267.7123667294454
 30
0.0
  0
INSERT
  5
2BC
  8
0
  2
SEMAFOR
 10
19095.531868357932
 20
4267.7123667294454
 30
0.0
  0
INSERT
  5
2BE
  8
0
  2
SEMAFOR
 10
19095.531868357932
 20
4267.7123667294454
 30
0.0
  0
INSERT
  5
2BF
  8
0
  2
ACAD
 10
23828.970831102732
 20
4894.7015922544206
 30
0.0
  0
INSERT
  5
2C0
  8
0
  2
ACAD
 10
23496.77227051969
 20
4694.279186314433
 30
0.0
  0
INSERT
  5
2C1
  8
0
  2
ACAD
 10
23496.77227051969
 20
4694.279186314433
 30
0.0
  0
INSERT
  5
2C2
  8
0
  2
ACAD
 10
28939.190371367309
 20
8429.4747660171706
 30
0.0
  0
INSERT
  5
2C3
  8
0
  2
ACAD
 10
29430.94154636579
 20
8395.7349528792456
 30
0.0
  0
INSERT
  5
2C4
  8
0
  2
ACAD
 10
24789.668163936149
 20
12465.100161136939
 30
0.0
  0
INSERT
  5
2C5
  8
0
  2
ACAD
 10
25281.41933893464
 20
12431.36034799902
 30
0.0
  0
INSERT
  5
2C6
  8
P2
  2
ACAD
 10
27506.610076659781
 20
7118.627994827466
 30
0.0
 41
0.02
 42
0.02
 43
0.02
  0
INSERT
  5
2C8
  8
0
  2
SEMAFOR
 10
19095.531868357932
 20
4267.7123667294454
 30
0.0
 41
3.75
 42
3.75
 43
3.75
  0
INSERT
  5
2CA
  8
0
  2
SEMAFOR
 10
19095.531868357932
 20
4267.7123667294454
 30
0.0
 41
3.75
 42
3.75
 43
3.75
  0
INSERT
  5
2CC
  8
0
  2
SEMAFOR
 10
19095.531868357932
 20
4267.7123667294454
 30
0.0
 41
3.75
 42
3.75
 43
3.75
  0
INSERT
  5
2CD
  8
0
  2
ACAD
 10
26391.62771199668
 20
5954.3794556038056
 30
0.0
  0
INSERT
  5
2CE
  8
0
  2
ACAD
 10
26059.429151413649
 20
5753.957049663818
 30
0.0
  0
INSERT
  5
2CF
  8
0
  2
ACAD
 10
26059.429151413649
 20
5753.957049663818
 30
0.0
  0
INSERT
  5
2D0
  8
0
  2
ACAD
 10
31501.847252261261
 20
9489.1526293665538
 30
0.0
  0
INSERT
  5
2D1
  8
0
  2
ACAD
 10
31993.598427259749
 20
9455.4128162286306
 30
0.0
  0
INSERT
  5
2D2
  8
0
  2
ACAD
 10
27352.325044830101
 20
13524.778024486321
 30
0.0
  0
INSERT
  5
2D3
  8
0
  2
ACAD
 10
27844.076219828599
 20
13491.038211348399
 30
0.0
  0
INSERT
  5
2D5
  8
0
  2
SEMAFOR
 10
19095.531868357932
 20
4267.7123667294454
 30
0.0
 41
10.0
 42
10.0
 43
10.0
  0
INSERT
  5
2D7
  8
0
  2
SEMAFOR
 10
19095.531868357932
 20
4267.7123667294454
 30
0.0
 41
10.0
 42
10.0
 43
10.0
  0
INSERT
  5
2D9
  8
0
  2
SEMAFOR
 10
19095.531868357932
 20
4267.7123667294454
 30
0.0
 41
10.0
 42
10.0
 43
10.0
  0
INSERT
  5
2F5
  8
0
  2
SEMAFOR
 10
13167.983238715129
 20
2491.233538220928
 30
0.0
  0
INSERT
  5
2F7
  8
0
  2
SEMAFOR
 10
13167.983238715129
 20
2491.233538220928
 30
0.0
  0
INSERT
  5
2F9
  8
0
  2
SEMAFOR
 10
13167.983238715129
 20
2491.233538220928
 30
0.0
  0
INSERT
  5
2FB
  8
0
  2
SEMAFOR
 10
17706.774905143931
 20
3012.2450404000119
 30
0.0
  0
INSERT
  5
2FD
  8
0
  2
SEMAFOR
 10
17706.774905143931
 20
3012.2450404000119
 30
0.0
  0
INSERT
  5
2FF
  8
0
  2
SEMAFOR
 10
17706.774905143931
 20
3012.2450404000119
 30
0.0
  0
INSERT
  5
300
  8
0
  2
ACAD
 10
21077.800978393119
 20
8060.5914657547173
 30
0.0
  0
INSERT
  5
301
  8
0
  2
ACAD
 10
21569.552153391611
 20
8026.8516526167932
 30
0.0
  0
INSERT
  5
30A
  8
ASHADE
 62
     1
  2
AVE_RENDER
 10
13167.983238715129
 20
2491.233538220928
 30
0.0
1001
AVE_RENDER
1002
{
1070
     2
1000
Pref
1070
    30
1070
    20
1070
     1
1070
     0
1000
ESS
1070
    10
1070
     0
1070
    30
1040
1.0
1070
     1
1040
0.51
1040
0.37
1040
0.41
1040
1.587301587301587
1010
0.915
1020
0.085
1030
0.7821999999999997
1040
0.38
1070
    49
1002
}
  0
INSERT
  5
30B
  8
ASHADE
 62
     3
  2
AVE_RENDER
 10
13167.983238715129
 20
2491.233538220928
 30
0.0
1001
AVE_RENDER
1002
{
1070
     0
1000
Full Opt
1070
     0
1070
     1
1070
     1
1070
     1
1070
     0
1070
     0
1070
     0
1070
     1
1070
     1
1040
0.0001
1040
0.0001
1002
}
  0
INSERT
  5
30C
  8
ASHADE
 62
     4
  2
AVE_RENDER
 10
13167.983238715129
 20
2491.233538220928
 30
0.0
1001
AVE_RENDER
1002
{
1070
     0
1000
Quick Opt
1070
     0
1070
     1
1070
     1
1070
     1
1070
     0
1070
     0
1070
     1
1002
}
  0
INSERT
  5
30D
  8
ASHADE
 62
     2
  2
AVE_RENDER
 10
13167.983238715129
 20
2491.233538220928
 30
0.0
1001
AVE_RENDER
1002
{
1070
     0
1000
ESS
1000

1002
{
1070
     1
1002
}
1002
}
  0
INSERT
  5
30F
  8
0
  2
SEMAFOR
 10
19618.034838546169
 20
3675.6152159067619
 30
0.0
 41
8.0
 42
8.0
 43
8.0
  0
INSERT
  5
311
  8
0
  2
SEMAFOR
 10
19618.034838546169
 20
3675.6152159067619
 30
0.0
 41
8.0
 42
8.0
 43
8.0
  0
INSERT
  5
313
  8
0
  2
SEMAFOR
 10
19618.034838546169
 20
3675.6152159067619
 30
0.0
 41
8.0
 42
8.0
 43
8.0
  0
LINE
  5
17FC89
  8
PLATINE
  6
AXESX2
 10
28.681164491876419
 20
109.44867760861911
 30
0.0
 11
283.982200067853
 21
109.44867760861911
 31
0.0
  0
LINE
  5
17FC8A
  8
PLATINE
  6
AXESX2
 10
184.9891135115941
 20
102.70995116977559
 30
0.0
 11
216.4165118639288
 21
140.1636660620575
 31
0.0
  0
ARC
  5
17FC8B
  8
PLATINE
 10
31.681164491876419
 20
109.44867760861911
 30
0.0
 40
3.0
 50
221.8103148957702
 51
138.1896851042298
  0
LINE
  5
17FC8C
  8
PLATINE
  6
CACHE
 10
207.71112831416551
 20
112.4486777132301
 30
0.0
 11
242.71112831667699
 21
112.4486776896497
 31
0.0
  0
LINE
  5
17FC8D
  8
PLATINE
  6
CACHE
 10
207.71112831170399
 20
106.4486777132301
 30
0.0
 11
242.7111283142159
 21
106.44867768966689
 31
0.0
  0
LINE
  5
17FC8E
  8
PLATINE
  6
CACHE
 10
195.76876236941959
 20
112.4451887692707
 30
0.0
 11
210.73432973153959
 21
130.28045743828761
 31
0.0
  0
LINE
  5
17FC8F
  8
PLATINE
  6
CACHE
 10
207.71112831170399
 20
106.4486777132301
 30
0.0
 11
207.71112831452569
 21
112.4486777132301
 31
0.0
  0
LINE
  5
17FC90
  8
PLATINE
  6
CACHE
 10
207.71112831170399
 20
106.4486777132301
 30
0.0
 11
205.9790775041354
 21
109.4486777132301
 31
0.0
  0
LINE
  5
17FC91
  8
PLATINE
  6
CACHE
 10
207.71112831170399
 20
112.4486777132301
 30
0.0
 11
205.9790775041354
 21
109.4486777132301
 31
0.0
  0
LINE
  5
17FC92
  8
PLATINE
  6
CACHE
 10
192.70458459694549
 20
115.016339208018
 30
0.0
 11
193.59388587349619
 21
112.96471954552401
 31
0.0
  0
LINE
  5
17FC93
  8
PLATINE
  6
CACHE
 10
192.7045845969449
 20
115.016339208018
 30
0.0
 11
206.0644996363211
 21
130.93806595294831
 31
0.0
  0
LINE
  5
17FC94
  8
PLATINE
  6
CACHE
 10
193.59388587349619
 20
112.96471954552401
 30
0.0
 11
195.7687623694205
 21
112.4451887692707
 31
0.0
  0
LINE
  5
17FC95
  8
PLATINE
  6
CACHE
 10
195.76876236941951
 20
112.4451887692707
 30
0.0
 11
192.7045845969439
 21
115.01633920801891
 31
0.0
  0
LINE
  5
17FC96
  8
PLATINE
 10
242.7111283107308
 20
97.95267916459899
 30
0.0
 11
242.7111283219042
 21
125.190885655476
 31
0.0
  0
POLYLINE
  5
17FC97
  8
PLATINE
 66
     1
 10
0.0
 20
0.0
 30
0.0
  0
VERTEX
  5
17FFE8
  8
PLATINE
 10
29.431184238362221
 20
107.44867760861911
 30
0.0
  0
VERTEX
  5
17FFE9
  8
PLATINE
 10
30.39087111145011
 20
106.1692636012735
 30
0.0
  0
VERTEX
  5
17FFEA
  8
PLATINE
 10
30.479478491876421
 20
106.05931960861879
 30
0.0
  0
VERTEX
  5
17FFEB
  8
PLATINE
 10
32.132703491876441
 20
104.6933116086188
 30
0.0
  0
VERTEX
  5
17FFEC
  8
PLATINE
 10
34.762071491876441
 20
103.39935460861891
 30
0.0
  0
VERTEX
  5
17FFED
  8
PLATINE
 10
39.179883491876467
 20
102.2021236086189
 30
0.0
  0
VERTEX
  5
17FFEE
  8
PLATINE
 10
46.488618491876423
 20
100.78446260861929
 30
0.0
  0
VERTEX
  5
17FFEF
  8
PLATINE
 10
57.877611491876451
 20
99.605984608619565
 30
0.0
  0
VERTEX
  5
17FFF0
  8
PLATINE
 10
72.295707491876442
 20
98.669321608619157
 30
0.0
  0
VERTEX
  5
17FFF1
  8
PLATINE
 10
87.476425491876398
 20
98.154436608619577
 30
0.0
  0
VERTEX
  5
17FFF2
  8
PLATINE
 10
103.1167564918763
 20
97.950456608619334
 30
0.0
  0
VERTEX
  5
17FFF3
  8
PLATINE
 10
119.0670054918764
 20
97.922820608619531
 30
0.0
  0
VERTEX
  5
17FFF4
  8
PLATINE
 10
135.23472349187631
 20
97.939270608619594
 30
0.0
  0
VERTEX
  5
17FFF5
  8
PLATINE
 10
151.47942749187641
 20
97.936638608618964
 30
0.0
  0
VERTEX
  5
17FFF6
  8
PLATINE
 10
167.7280794918764
 20
97.933019608618906
 30
0.0
  0
VERTEX
  5
17FFF7
  8
PLATINE
 10
183.99054949187641
 20
97.934335608618781
 30
0.0
  0
VERTEX
  5
17FFF8
  8
PLATINE
 10
200.23591149187641
 20
97.931374608619535
 30
0.0
  0
VERTEX
  5
17FFF9
  8
PLATINE
 10
216.40395849187641
 20
97.927426608619044
 30
0.0
  0
VERTEX
  5
17FFFA
  8
PLATINE
 10
232.58154649187631
 20
97.943218608619205
 30
0.0
  0
VERTEX
  5
17FFFB
  8
PLATINE
 10
242.7111283107308
 20
97.95267916459899
 30
0.0
  0
SEQEND
  5
17FFFC
  8
PLATINE
  0
POLYLINE
  5
17FC98
  8
PLATINE
 66
     1
 10
0.0
 20
0.0
 30
0.0
  0
VERTEX
  5
17FFFD
  8
PLATINE
 10
242.71112832190411
 20
125.190885655476
 30
0.0
  0
VERTEX
  5
17FFFE
  8
PLATINE
 10
235.41292049187641
 20
126.50732760861909
 30
0.0
  0
VERTEX
  5
17FFFF
  8
PLATINE
 10
220.0479624918764
 20
128.96890560861951
 30
0.0
  0
VERTEX
  5
180000
  8
PLATINE
 10
204.67741149187631
 20
131.13339660861899
 30
0.0
  0
VERTEX
  5
180001
  8
PLATINE
 10
189.33712849187631
 20
132.97448060861959
 30
0.0
  0
VERTEX
  5
180002
  8
PLATINE
 10
174.1787824918764
 20
134.44511060861939
 30
0.0
  0
VERTEX
  5
180003
  8
PLATINE
 10
159.13427049187641
 20
135.50514860861901
 30
0.0
  0
VERTEX
  5
180004
  8
PLATINE
 10
143.82524249187639
 20
136.1463696086189
 30
0.0
  0
VERTEX
  5
180005
  8
PLATINE
 10
128.2056384918763
 20
136.42108460861931
 30
0.0
  0
VERTEX
  5
180006
  8
PLATINE
 10
113.1496114918764
 20
136.34508560861869
 30
0.0
  0
VERTEX
  5
180007
  8
PLATINE
 10
99.129605491876418
 20
135.702548608619
 30
0.0
  0
VERTEX
  5
180008
  8
PLATINE
 10
85.517559491876455
 20
134.2447496086192
 30
0.0
  0
VERTEX
  5
180009
  8
PLATINE
 10
71.883470491876437
 20
131.92200960861871
 30
0.0
  0
VERTEX
  5
18000A
  8
PLATINE
 10
59.21664149187643
 20
128.86165160861901
 30
0.0
  0
VERTEX
  5
18000B
  8
PLATINE
 10
48.255348491876362
 20
125.2245566086189
 30
0.0
  0
VERTEX
  5
18000C
  8
PLATINE
 10
40.739672491876377
 20
121.7466976086193
 30
0.0
  0
VERTEX
  5
18000D
  8
PLATINE
 10
36.015232491876418
 20
118.6468596086192
 30
0.0
  0
VERTEX
  5
18000E
  8
PLATINE
 10
32.69726749187646
 20
115.7743606086192
 30
0.0
  0
VERTEX
  5
18000F
  8
PLATINE
 10
30.695631491876391
 20
113.76647360861941
 30
0.0
  0
VERTEX
  5
180010
  8
PLATINE
 10
29.539525491876361
 20
112.2543896086195
 30
0.0
  0
VERTEX
  5
180011
  8
PLATINE
 10
29.142798132849862
 20
111.44867760861911
 30
0.0
  0
SEQEND
  5
180012
  8
PLATINE
  0
LINE
  5
17FC99
  8
PLATINE
 10
29.142798132849862
 20
111.44867760861911
 30
0.0
 11
29.445096514376591
 21
111.44867760861911
 31
0.0
  0
LINE
  5
17FC9A
  8
PLATINE
 10
29.431184238362221
 20
107.44867760861911
 30
0.0
 11
29.445096514376591
 21
107.44867760861911
 31
0.0
  0
DIMENSION
  5
17FC9B
  8
COTATION
  2
*D80
 10
208.39941468392999
 20
151.932118788281
 30
0.0
 11
225.55527150291709
 21
151.932118788281
 31
0.0
 70
     0
 13
242.7111283219042
 23
125.190885655476
 33
0.0
 14
208.39941468392999
 24
130.6092616956175
 34
0.0
1001
ACAD
1000
DSTYLE
1002
{
1070
    47
1040
0.1
1070
    48
1040
0.1
1002
}
  0
DIMENSION
  5
17FC9C
  8
COTATION
  2
*D81
 10
207.71112831170399
 20
77.771000451142299
 30
0.0
 11
225.21112831295989
 21
77.771000451142299
 31
0.0
 70
     0
 13
242.7111283142159
 23
106.44867768966689
 33
0.0
 14
207.71112831170399
 24
106.4486777132301
 34
0.0
1001
ACAD
1000
DSTYLE
1002
{
1070
    47
1040
0.1
1070
    48
1040
0.1
1002
}
  0
DIMENSION
  5
17FC9D
  8
COTATION
  2
*D82
 10
164.2077169426216
 20
138.92805034646889
 30
0.0
 11
171.190865406283
 21
146.87403601642521
 31
0.0
 70
   129
 13
208.39941468392999
 23
130.6092616956175
 33
0.0
 14
194.23667348318179
 24
113.7307639886449
 34
0.0
1001
ACAD
1000
DSTYLE
1002
{
1070
    74
1070
     1
1070
    73
1070
     1
1070
    77
1070
     1
1002
}
  0
DIMENSION
  5
17FC9E
  8
COTATION
  2
*D83
 10
252.93826305975401
 20
106.44867768966689
 30
0.0
 11
265.82787496506512
 21
109.44867760861911
 31
0.0
 70
   128
  1
%%C <>
 13
242.71112831667699
 23
112.4486776896497
 33
0.0
 14
242.7111283142159
 24
106.44867768966689
 34
0.0
 50
90.0
1001
ACAD
1000
DSTYLE
1002
{
1070
    71
1070
     0
1070
    74
1070
     1
1070
    73
1070
     1
1070
    77
1070
     1
1002
}
  0
DIMENSION
  5
17FC9F
  8
COTATION
  2
*D84
 10
28.681164491876419
 20
175.1816559039261
 30
0.0
 11
135.69614640689031
 21
175.1816559039261
 31
0.0
 70
     0
 13
242.7111283219042
 23
125.190885655476
 33
0.0
 14
28.681164491876419
 24
109.44867760861911
 34
0.0
1001
ACAD
1000
DSTYLE
1002
{
1070
    47
1040
0.1
1070
    48
1040
0.1
1002
}
  0
DIMENSION
  5
17FCA0
  8
COTATION
  2
*D85
 10
211.03860949299809
 20
136.8659792446015
 30
0.0
 11
217.18214100591931
 21
142.05197298869319
 31
0.0
 70
   129
  1
%%C <>
 13
210.73432973153959
 23
130.28045743828761
 33
0.0
 14
207.67015195906339
 24
132.85160787703401
 34
0.0
1001
ACAD
1000
DSTYLE
1002
{
1070
    71
1070
     0
1070
    74
1070
     1
1070
    73
1070
     1
1070
    77
1070
     1
1002
}
  0
DIMENSION
  5
17FCA1
  8
COTATION
  2
*D86
 10
283.98220006785289
 20
109.44867760861869
 30
0.0
 11
215.6181503789625
 21
121.0945127230117
 31
0.0
 70
     2
 13
184.9891135115941
 23
102.70995116977559
 33
0.0
 14
216.4165118639288
 24
140.1636660620575
 34
0.0
 15
28.68116449187653
 25
109.4486776086182
 35
0.0
 16
211.294375262827
 26
115.6311209456544
 36
0.0
1001
ACAD
1000
DSTYLE
1002
{
1070
   271
1070
     0
1070
    47
1040
0.1
1070
    48
1040
0.1
1070
   272
1070
     0
1070
   271
1070
     0
1002
}
  0
POLYLINE
  5
17FCA2
  8
FONDPLAN
 66
     1
 10
0.0
 20
0.0
 30
0.0
 70
     1
  0
VERTEX
  5
18001C
  8
FONDPLAN
 10
1.49999932088383
 20
1.4999995178513921
 30
0.0
  0
VERTEX
  5
18001D
  8
FONDPLAN
 10
1.49999932088383
 20
209.24999951785139
 30
0.0
  0
VERTEX
  5
18001E
  8
FONDPLAN
 10
301.49999932088377
 20
209.24999951785139
 30
0.0
  0
VERTEX
  5
18001F
  8
FONDPLAN
 10
301.49999932088377
 20
1.4999995178513921
 30
0.0
  0
SEQEND
  5
180020
  8
FONDPLAN
  0
TEXT
  5
17FCA3
  8
FONDPLAN
 10
164.0792738854114
 20
3.822192421728686
 30
0.0
 40
9.6123617385888558
  1
Platine Perfo+
  0
TEXT
  5
17FCA4
  8
FONDPLAN
 10
235.3292738854114
 20
17.754152228551899
 30
0.0
 40
4.806180869294427
  1
Ech 1
  0
TEXT
  5
17FCA5
  8
FONDPLAN
 10
235.3292738854114
 20
25.254152228551899
 30
0.0
 40
4.806180869294427
  1
Marc Lemaitre
  0
LINE
  5
17FCA6
  8
FONDPLAN
 10
158.9999993208838
 20
16.499999517851389
 30
0.0
 11
301.49999932088377
 21
16.499999517851389
 31
0.0
  0
LINE
  5
17FCA7
  8
FONDPLAN
 10
158.9999993208838
 20
23.999999517851389
 30
0.0
 11
301.49999932088377
 21
23.999999517851389
 31
0.0
  0
LINE
  5
17FCA8
  8
FONDPLAN
 10
301.49999932088377
 20
31.499999517851389
 30
0.0
 11
158.9999993208838
 21
31.499999517851389
 31
0.0
  0
TEXT
  5
17FCA9
  8
FONDPLAN
 10
164.0792738854114
 20
25.254152228551899
 30
0.0
 40
4.806180869294427
  1
Date: 8/11/99
  0
TEXT
  5
17FCAA
  8
FONDPLAN
 10
164.0792738854114
 20
17.754152228551899
 30
0.0
 40
4.806180869294427
  1
Parab'aile
  0
LINE
  5
17FCAB
  8
FONDPLAN
 10
230.2499993208838
 20
31.499999517851389
 30
0.0
 11
230.2499993208838
 21
16.499999517851389
 31
0.0
  0
CIRCLE
  5
17FCAC
  8
FONDPLAN
 10
276.40595415615633
 20
20.249999517851389
 30
0.0
 40
2.9509660459880389
  0
LINE
  5
17FCAD
  8
FONDPLAN
 10
271.34565211393772
 20
20.249999517851389
 30
0.0
 11
297.90434652783011
 21
20.249999517851389
 31
0.0
  0
LINE
  5
17FCAE
  8
FONDPLAN
 10
267.74999932088377
 20
23.999999517851389
 30
0.0
 11
267.74999932088377
 21
16.499999517851389
 31
0.0
  0
LINE
  5
17FCAF
  8
FONDPLAN
 10
286.71038214689167
 20
17.29903347186336
 30
0.0
 11
294.018114242362
 21
18.479419890258669
 31
0.0
  0
LINE
  5
17FCB0
  8
FONDPLAN
 10
286.71038214689167
 20
17.29903347186336
 30
0.0
 11
286.71038214689167
 21
23.200965563839421
 31
0.0
  0
LINE
  5
17FCB1
  8
FONDPLAN
 10
276.40595415615633
 20
16.708840262665941
 30
0.0
 11
276.40595415615633
 21
23.791158773036841
 31
0.0
  0
LINE
  5
17FCB2
  8
FONDPLAN
 10
286.71038214689167
 20
23.200965563839421
 30
0.0
 11
294.018114242362
 21
22.020579145444572
 31
0.0
  0
CIRCLE
  5
17FCB3
  8
FONDPLAN
 10
276.40595415615633
 20
20.249999517851389
 30
0.0
 40
1.7705796275928229
  0
LINE
  5
17FCB4
  8
FONDPLAN
 10
294.018114242362
 20
18.479419890258669
 30
0.0
 11
294.018114242362
 21
22.020579145444572
 31
0.0
  0
POLYLINE
  5
17FCB5
  8
FONDPLAN
 66
     1
 10
0.0
 20
0.0
 30
0.0
 70
     1
  0
VERTEX
  5
180021
  8
FONDPLAN
 10
-0.0000006791161695
 20
-0.0000004821486073
 30
0.0
  0
VERTEX
  5
180022
  8
FONDPLAN
 10
-0.0000006791161695
 20
210.74999951785139
 30
0.0
  0
VERTEX
  5
180023
  8
FONDPLAN
 10
302.99999932088377
 20
210.74999951785139
 30
0.0
  0
VERTEX
  5
180024
  8
FONDPLAN
 10
302.99999932088377
 20
-0.0000004821486073
 30
0.0
  0
SEQEND
  5
180025
  8
FONDPLAN
  0
CIRCLE
  5
17FCB6
  8
CHARIOT
 10
79.681164491876416
 20
128.94867760861911
 30
0.0
 40
2.5
  0
CIRCLE
  5
17FCB7
  8
CHARIOT
 10
79.681164491876416
 20
102.4188287776842
 30
0.0
 40
2.5
  0
CIRCLE
  5
17FCB8
  8
CHARIOT
 10
107.6811644918764
 20
124.44867760861911
 30
0.0
 40
2.5
  0
CIRCLE
  5
17FCB9
  8
CHARIOT
 10
107.6811644918764
 20
104.44867760861911
 30
0.0
 40
2.5
  0
LINE
  5
17FCBA
  8
CHARIOT
  6
AXES_MOYEN
 10
74.681164491876416
 20
128.94867760861911
 30
0.0
 11
84.681164491876416
 21
128.94867760861911
 31
0.0
  0
CIRCLE
  5
17FCBB
  8
CHARIOT
 10
149.68116449187639
 20
124.44867760861911
 30
0.0
 40
2.5
  0
CIRCLE
  5
17FCBC
  8
CHARIOT
 10
149.68116449187639
 20
107.44867760861911
 30
0.0
 40
2.5
  0
CIRCLE
  5
17FCBD
  8
CHARIOT
 10
157.68116449187639
 20
131.44867760861911
 30
0.0
 40
2.5
  0
CIRCLE
  5
17FCBE
  8
CHARIOT
 10
185.68116449187639
 20
129.19250802998249
 30
0.0
 40
2.5
  0
LINE
  5
17FCBF
  8
CHARIOT
  6
AXES_MOYEN
 10
74.681164491876416
 20
102.4188287776842
 30
0.0
 11
84.681164491876416
 21
102.4188287776842
 31
0.0
  0
LINE
  5
17FCC0
  8
CHARIOT
  6
AXES_MOYEN
 10
102.6811644918764
 20
104.44867760861911
 30
0.0
 11
112.6811644918764
 21
104.44867760861911
 31
0.0
  0
LINE
  5
17FCC1
  8
CHARIOT
  6
AXES_MOYEN
 10
144.68116449187639
 20
107.44867760861911
 30
0.0
 11
154.68116449187639
 21
107.44867760861911
 31
0.0
  0
LINE
  5
17FCC2
  8
CHARIOT
  6
AXES_MOYEN
 10
157.68116449187639
 20
126.44867760861911
 30
0.0
 11
157.68116449187639
 21
136.44867760861911
 31
0.0
  0
LINE
  5
17FCC3
  8
CHARIOT
  6
AXES_MOYEN
 10
152.68116449187639
 20
131.44867760861911
 30
0.0
 11
162.68116449187639
 21
131.44867760861911
 31
0.0
  0
LINE
  5
17FCC4
  8
CHARIOT
  6
AXES_MOYEN
 10
185.68116449187639
 20
124.19250802998251
 30
0.0
 11
185.68116449187639
 21
134.19250802998249
 31
0.0
  0
LINE
  5
17FCC5
  8
CHARIOT
  6
AXES_MOYEN
 10
180.68116449187639
 20
129.19250802998249
 30
0.0
 11
190.68116449187639
 21
129.19250802998249
 31
0.0
  0
LINE
  5
17FCC6
  8
CHARIOT
  6
AXES_MOYEN
 10
79.681164491876416
 20
97.950456608619334
 30
0.0
 11
79.681164491876416
 21
133.94867760861911
 31
0.0
  0
LINE
  5
17FCC7
  8
CHARIOT
  6
AXES_MOYEN
 10
149.68116449187639
 20
102.44867760861911
 30
0.0
 11
149.68116449187639
 21
129.44867760861911
 31
0.0
  0
LINE
  5
17FCC8
  8
CHARIOT
  6
AXES_MOYEN
 10
107.6811644918764
 20
99.448677608619164
 30
0.0
 11
107.6811644918764
 21
129.44867760861911
 31
0.0
  0
LINE
  5
17FCC9
  8
CHARIOT
  6
AXES_MOYEN
 10
102.6811644918764
 20
124.44867760861911
 30
0.0
 11
154.68116449187639
 21
124.44867760861911
 31
0.0
  0
DIMENSION
  5
17FCCA
  8
CHARIOT
  2
*D87
 10
79.681164491876416
 20
76.25327253500609
 30
0.0
 11
55.681164491876409
 21
80.25327253500609
 31
0.0
 70
     0
 13
31.681164491876419
 23
109.44867760861911
 33
0.0
 14
79.681164491876416
 24
99.918828777684212
 34
0.0
1001
ACAD
1000
DSTYLE
1002
{
1070
    71
1070
     0
1070
    74
1070
     1
1070
    73
1070
     1
1070
    77
1070
     1
1002
}
  0
DIMENSION
  5
17FCCB
  8
CHARIOT
  2
*D88
 10
107.6811644918764
 20
68.559158823340113
 30
0.0
 11
69.681164491876416
 21
72.559158823340113
 31
0.0
 70
     0
 13
31.681164491876419
 23
74.453272535005894
 33
0.0
 14
107.6811644918764
 24
99.448677608619164
 34
0.0
1001
ACAD
1000
DSTYLE
1002
{
1070
    71
1070
     0
1070
    74
1070
     1
1070
    73
1070
     1
1070
    77
1070
     1
1002
}
  0
DIMENSION
  5
17FCCC
  8
CHARIOT
  2
*D89
 10
149.68116449187639
 20
60.010144827982458
 30
0.0
 11
90.681164491876416
 21
64.010144827982444
 31
0.0
 70
     0
 13
31.681164491876419
 23
66.759158823339931
 33
0.0
 14
149.68116449187639
 24
102.44867760861911
 34
0.0
1001
ACAD
1000
DSTYLE
1002
{
1070
    71
1070
     0
1070
    74
1070
     1
1070
    73
1070
     1
1070
    77
1070
     1
1002
}
  0
DIMENSION
  5
17FCCD
  8
CHARIOT
  2
*D90
 10
157.68116449187639
 20
51.033679169172963
 30
0.0
 11
94.681164491876416
 21
55.033679169172949
 31
0.0
 70
     0
 13
31.681164491876419
 23
58.210144827982269
 33
0.0
 14
157.68116449187639
 24
126.44867760861911
 34
0.0
1001
ACAD
1000
DSTYLE
1002
{
1070
    71
1070
     0
1070
    74
1070
     1
1070
    73
1070
     1
1070
    77
1070
     1
1002
}
  0
DIMENSION
  5
17FCCE
  8
CHARIOT
  2
*D91
 10
185.68116449187639
 20
41.62976286131606
 30
0.0
 11
108.6811644918764
 21
45.629762861316067
 31
0.0
 70
     0
 13
31.681164491876419
 23
49.233679169172767
 33
0.0
 14
185.68116449187639
 24
124.19250802998251
 34
0.0
1001
ACAD
1000
DSTYLE
1002
{
1070
    71
1070
     0
1070
    74
1070
     1
1070
    73
1070
     1
1070
    77
1070
     1
1002
}
  0
DIMENSION
  5
17FCCF
  8
CHARIOT
  2
*D92
 10
69.487859152056103
 20
109.44867760861911
 30
0.0
 11
62.687859152056078
 21
105.9337531931517
 31
0.0
 70
     0
 13
74.681164491876416
 23
102.4188287776842
 33
0.0
 14
79.681164491876416
 24
109.44867760861911
 34
0.0
 50
90.0
1001
ACAD
1000
DSTYLE
1002
{
1070
    71
1070
     0
1070
    74
1070
     1
1070
    73
1070
     1
1070
    77
1070
     1
1002
}
  0
DIMENSION
  5
17FCD0
  8
CHARIOT
  2
*D93
 10
71.795625576096995
 20
128.94867760861911
 30
0.0
 11
71.795625576096981
 21
119.19867760861921
 31
0.0
 70
     0
 13
79.681164491876416
 23
109.44867760861911
 33
0.0
 14
74.681164491876416
 24
128.94867760861911
 34
0.0
 50
90.0
1001
ACAD
1000
DSTYLE
1002
{
1070
    71
1070
     0
1070
    74
1070
     1
1070
    73
1070
     1
1070
    77
1070
     1
1002
}
  0
DIMENSION
  5
17FCD1
  8
CHARIOT
  2
*D94
 10
101.6190633712787
 20
124.44867760861911
 30
0.0
 11
99.518451575597624
 21
116.94867760861911
 31
0.0
 70
   128
 13
107.6811644918764
 23
109.44867760861911
 33
0.0
 14
102.6811644918764
 24
124.44867760861911
 34
0.0
 50
90.0
1001
ACAD
1000
DSTYLE
1002
{
1070
    71
1070
     0
1070
    74
1070
     1
1070
    73
1070
     1
1070
    77
1070
     1
1002
}
  0
DIMENSION
  5
17FCD2
  8
CHARIOT
  2
*D95
 10
100.02137962970239
 20
104.44867760861911
 30
0.0
 11
93.221379629702412
 21
106.94867760861921
 31
0.0
 70
     0
 13
107.6811644918764
 23
109.44867760861911
 33
0.0
 14
102.6811644918764
 24
104.44867760861911
 34
0.0
 50
90.0
1001
ACAD
1000
DSTYLE
1002
{
1070
    71
1070
     0
1070
    74
1070
     1
1070
    73
1070
     1
1070
    77
1070
     1
1002
}
  0
DIMENSION
  5
17FCD3
  8
CHARIOT
  2
*D96
 10
136.7024174084232
 20
107.44867760861911
 30
0.0
 11
129.90241740842319
 21
108.44867760861921
 31
0.0
 70
     0
 13
149.68116449187639
 23
109.44867760861911
 33
0.0
 14
144.68116449187639
 24
107.44867760861911
 34
0.0
 50
90.0
1001
ACAD
1000
DSTYLE
1002
{
1070
    71
1070
     0
1070
    74
1070
     1
1070
    73
1070
     1
1070
    77
1070
     1
1002
}
  0
DIMENSION
  5
17FCD4
  8
CHARIOT
  2
*D97
 10
177.70964506498891
 20
109.44867760861911
 30
0.0
 11
177.70964506498891
 21
116.134224035633
 31
0.0
 70
   128
 13
180.68116449187639
 23
129.19250802998249
 33
0.0
 14
185.68116449187639
 24
109.44867760861911
 34
0.0
 50
90.0
1001
ACAD
1000
DSTYLE
1002
{
1070
    71
1070
     0
1070
    74
1070
     1
1070
    73
1070
     1
1070
    77
1070
     1
1002
}
  0
DIMENSION
  5
17FCD5
  8
CHARIOT
  2
*D98
 10
166.1708147799603
 20
109.44867760861911
 30
0.0
 11
166.1708147799603
 21
124.6443792499517
 31
0.0
 70
   128
 13
162.68116449187639
 23
131.44867760861911
 33
0.0
 14
157.68116449187639
 24
109.44867760861911
 34
0.0
 50
90.0
1001
ACAD
1000
DSTYLE
1002
{
1070
    71
1070
     0
1070
    74
1070
     1
1070
    73
1070
     1
1070
    77
1070
     1
1002
}
  0
DIMENSION
  5
17FCD6
  8
CHARIOT
  2
*D99
 10
30.230005672593158
 20
106.8230085355589
 30
0.0
 11
45.256924648297513
 21
116.84469953817
 31
0.0
 70
   131
 15
33.132323311159212
 25
112.0743466816775
 35
0.0
 40
0.0
1001
ACAD
1000
DSTYLE
1002
{
1070
   288
1070
     1
1070
    71
1070
     0
1070
    74
1070
     1
1070
    73
1070
     1
1070
    77
1070
     1
1002
}
  0
DIMENSION
  5
17FCD7
  8
CHARIOT
  2
*D100
 10
77.857100984890948
 20
127.2390600132252
 30
0.0
 11
106.7337199543245
 21
140.82444246332079
 31
0.0
 70
   131
  1
(8x) <>
 15
81.505227998862992
 25
130.65829520401391
 35
0.0
 40
0.0
1001
ACAD
1000
DSTYLE
1002
{
1070
   288
1070
     1
1070
    71
1070
     0
1070
    74
1070
     1
1070
    73
1070
     1
1070
    77
1070
     1
1002
}
  0
DIMENSION
  5
17FCD8
  8
CHARIOT
  2
*D101
 10
283.28174930654762
 20
109.44867760861911
 30
0.0
 11
272.48174930654761
 21
103.7006783866107
 31
0.0
 70
     0
 13
242.7111283142159
 23
97.952679164602159
 33
0.0
 14
283.982200067853
 24
109.44867760861911
 34
0.0
 50
90.0
1001
ACAD
1000
DSTYLE
1002
{
1070
    71
1070
     0
1070
    74
1070
     1
1070
    73
1070
     1
1070
    77
1070
     1
1002
}
  0
LINE
  5
17FEC1
  8
FONDPLAN
 10
158.9999993208838
 20
31.499999517851389
 30
0.0
 11
158.9999993208838
 21
1.4999995178513921
 31
0.0
  0
VIEWPORT
  5
346F
 67
     1
  8
0
 10
951.22721280329267
 20
3867.358408088332
 30
0.0
 40
725.30477772428856
 41
437.4583326039043
 68
     1
 69
     1
1001
ACAD
1000
MVIEW
1002
{
1070
    16
1010
0.0
1020
0.0
1030
0.0
1010
0.0
1020
0.0
1030
1.0
1040
0.0
1040
437.4583326039043
1040
951.22721280329267
1040
3867.358408088332
1040
50.0
1040
0.0
1040
0.0
1070
     0
1070
   100
1070
     1
1070
     0
1070
     0
1070
     0
1070
     0
1070
     0
1040
0.0
1040
0.0
1040
0.0
1040
5.0
1040
5.0
1040
5.0
1040
5.0
1070
     0
1002
{
1002
}
1002
}
  0
INSERT
  5
12E30
 67
     1
  8
0
  2
SEMAFOR
 10
1551.969059470797
 20
505.39998612816697
 30
0.0
  0
INSERT
  5
12E32
 67
     1
  8
0
  2
SEMAFOR
 10
1551.969059470797
 20
505.39998612816697
 30
0.0
  0
INSERT
  5
12E34
 67
     1
  8
0
  2
SEMAFOR
 10
1551.969059470797
 20
505.39998612816697
 30
0.0
  0
INSERT
  5
12E36
 67
     1
  8
0
  2
SEMAFOR
 10
1551.969059470797
 20
505.39998612816697
 30
0.0
  0
INSERT
  5
12E38
 67
     1
  8
0
  2
SEMAFOR
 10
1551.969059470797
 20
505.39998612816697
 30
0.0
  0
INSERT
  5
12E3A
 67
     1
  8
0
  2
SEMAFOR
 10
1551.969059470797
 20
505.39998612816697
 30
0.0
  0
INSERT
  5
12E3B
 67
     1
  8
0
  2
ACAD
 10
6285.4080222155899
 20
1132.389211653142
 30
0.0
  0
INSERT
  5
12E3C
 67
     1
  8
0
  2
ACAD
 10
5953.2094616325576
 20
931.96680571315505
 30
0.0
  0
INSERT
  5
12E3D
 67
     1
  8
0
  2
ACAD
 10
5953.2094616325576
 20
931.96680571315505
 30
0.0
  0
INSERT
  5
12E3E
 67
     1
  8
0
  2
ACAD
 10
11395.627562480169
 20
4667.1623854158906
 30
0.0
  0
INSERT
  5
12E3F
 67
     1
  8
0
  2
ACAD
 10
11887.378737478661
 20
4633.4225722779684
 30
0.0
  0
INSERT
  5
12E40
 67
     1
  8
0
  2
ACAD
 10
7246.105355049016
 20
8702.7877805356638
 30
0.0
  0
INSERT
  5
12E41
 67
     1
  8
0
  2
ACAD
 10
7737.8565300475066
 20
8669.0479673977425
 30
0.0
  0
INSERT
  5
12E42
 67
     1
  8
P2
  2
ACAD
 10
9963.0472677726484
 20
3356.3156142261878
 30
0.0
 41
0.02
 42
0.02
 43
0.02
  0
INSERT
  5
12E44
 67
     1
  8
0
  2
SEMAFOR
 10
1551.969059470797
 20
505.39998612816697
 30
0.0
 41
3.75
 42
3.75
 43
3.75
  0
INSERT
  5
12E46
 67
     1
  8
0
  2
SEMAFOR
 10
1551.969059470797
 20
505.39998612816697
 30
0.0
 41
3.75
 42
3.75
 43
3.75
  0
INSERT
  5
12E48
 67
     1
  8
0
  2
SEMAFOR
 10
1551.969059470797
 20
505.39998612816697
 30
0.0
 41
3.75
 42
3.75
 43
3.75
  0
INSERT
  5
12E49
 67
     1
  8
0
  2
ACAD
 10
6552.0160031004089
 20
4054.634365868309
 30
0.0
  0
INSERT
  5
12E4A
 67
     1
  8
0
  2
ACAD
 10
7043.7671780989003
 20
4020.8945527303858
 30
0.0
  0
INSERT
  5
12E4C
 67
     1
  8
0
  2
SEMAFOR
 10
5260.5404640183306
 20
1505.2244122610859
 30
0.0
  0
INSERT
  5
12E4E
 67
     1
  8
0
  2
SEMAFOR
 10
5260.5404640183306
 20
1505.2244122610859
 30
0.0
  0
INSERT
  5
12E50
 67
     1
  8
0
  2
SEMAFOR
 10
5260.5404640183306
 20
1505.2244122610859
 30
0.0
  0
INSERT
  5
12E52
 67
     1
  8
0
  2
SEMAFOR
 10
5260.5404640183306
 20
1505.2244122610859
 30
0.0
  0
INSERT
  5
12E54
 67
     1
  8
0
  2
SEMAFOR
 10
5260.5404640183306
 20
1505.2244122610859
 30
0.0
  0
INSERT
  5
12E56
 67
     1
  8
0
  2
SEMAFOR
 10
5260.5404640183306
 20
1505.2244122610859
 30
0.0
  0
INSERT
  5
12E57
 67
     1
  8
0
  2
ACAD
 10
9993.9794267631241
 20
2132.213637786062
 30
0.0
  0
INSERT
  5
12E58
 67
     1
  8
0
  2
ACAD
 10
9661.7808661800937
 20
1931.791231846074
 30
0.0
  0
INSERT
  5
12E59
 67
     1
  8
0
  2
ACAD
 10
9661.7808661800937
 20
1931.791231846074
 30
0.0
  0
INSERT
  5
12E5A
 67
     1
  8
0
  2
ACAD
 10
15104.1989670277
 20
5666.9868115488098
 30
0.0
  0
INSERT
  5
12E5B
 67
     1
  8
0
  2
ACAD
 10
15595.9501420262
 20
5633.2469984108866
 30
0.0
  0
INSERT
  5
12E5C
 67
     1
  8
0
  2
ACAD
 10
10954.67675959655
 20
9702.6122066685821
 30
0.0
  0
INSERT
  5
12E5D
 67
     1
  8
0
  2
ACAD
 10
11446.42793459504
 20
9668.8723935306625
 30
0.0
  0
INSERT
  5
12E5E
 67
     1
  8
P2
  2
ACAD
 10
13671.618672320181
 20
4356.1400403591069
 30
0.0
 41
0.02
 42
0.02
 43
0.02
  0
INSERT
  5
12E60
 67
     1
  8
0
  2
SEMAFOR
 10
5260.5404640183306
 20
1505.2244122610859
 30
0.0
 41
3.75
 42
3.75
 43
3.75
  0
INSERT
  5
12E62
 67
     1
  8
0
  2
SEMAFOR
 10
5260.5404640183306
 20
1505.2244122610859
 30
0.0
 41
3.75
 42
3.75
 43
3.75
  0
INSERT
  5
12E64
 67
     1
  8
0
  2
SEMAFOR
 10
5260.5404640183306
 20
1505.2244122610859
 30
0.0
 41
3.75
 42
3.75
 43
3.75
  0
INSERT
  5
12E65
 67
     1
  8
0
  2
ACAD
 10
12556.63630765708
 20
3191.891501135447
 30
0.0
  0
INSERT
  5
12E66
 67
     1
  8
0
  2
ACAD
 10
12224.437747074049
 20
2991.469095195459
 30
0.0
  0
INSERT
  5
12E67
 67
     1
  8
0
  2
ACAD
 10
12224.437747074049
 20
2991.469095195459
 30
0.0
  0
INSERT
  5
12E68
 67
     1
  8
0
  2
ACAD
 10
17666.855847921659
 20
6726.6646748981948
 30
0.0
  0
INSERT
  5
12E69
 67
     1
  8
0
  2
ACAD
 10
18158.60702292015
 20
6692.9248617602716
 30
0.0
  0
INSERT
  5
12E6A
 67
     1
  8
0
  2
ACAD
 10
13517.3336404905
 20
10762.290070017971
 30
0.0
  0
INSERT
  5
12E6B
 67
     1
  8
0
  2
ACAD
 10
14009.08481548899
 20
10728.55025688004
 30
0.0
  0
INSERT
  5
12E6D
 67
     1
  8
0
  2
SEMAFOR
 10
5260.5404640183306
 20
1505.2244122610859
 30
0.0
 41
10.0
 42
10.0
 43
10.0
  0
INSERT
  5
12E6F
 67
     1
  8
0
  2
SEMAFOR
 10
5260.5404640183306
 20
1505.2244122610859
 30
0.0
 41
10.0
 42
10.0
 43
10.0
  0
INSERT
  5
12E71
 67
     1
  8
0
  2
SEMAFOR
 10
5260.5404640183306
 20
1505.2244122610859
 30
0.0
 41
10.0
 42
10.0
 43
10.0
  0
INSERT
  5
12E73
 67
     1
  8
0
  2
SEMAFOR
 10
5076.0374900192664
 20
712.6009124297882
 30
0.0
  0
INSERT
  5
12E75
 67
     1
  8
0
  2
SEMAFOR
 10
5076.0374900192664
 20
712.6009124297882
 30
0.0
  0
INSERT
  5
12E77
 67
     1
  8
0
  2
SEMAFOR
 10
5076.0374900192664
 20
712.6009124297882
 30
0.0
  0
INSERT
  5
12E79
 67
     1
  8
0
  2
SEMAFOR
 10
5076.0374900192664
 20
712.6009124297882
 30
0.0
  0
INSERT
  5
12E7B
 67
     1
  8
0
  2
SEMAFOR
 10
5076.0374900192664
 20
712.6009124297882
 30
0.0
  0
INSERT
  5
12E7D
 67
     1
  8
0
  2
SEMAFOR
 10
5076.0374900192664
 20
712.6009124297882
 30
0.0
  0
INSERT
  5
12E7E
 67
     1
  8
0
  2
ACAD
 10
9809.4764527640582
 20
1339.590137954764
 30
0.0
  0
INSERT
  5
12E7F
 67
     1
  8
0
  2
ACAD
 10
9477.2778921810259
 20
1139.167732014776
 30
0.0
  0
INSERT
  5
12E80
 67
     1
  8
0
  2
ACAD
 10
9477.2778921810259
 20
1139.167732014776
 30
0.0
  0
INSERT
  5
12E81
 67
     1
  8
0
  2
ACAD
 10
14919.695993028639
 20
4874.3633117175123
 30
0.0
  0
INSERT
  5
12E82
 67
     1
  8
0
  2
ACAD
 10
15411.447168027131
 20
4840.6234985795891
 30
0.0
  0
INSERT
  5
12E83
 67
     1
  8
0
  2
ACAD
 10
10770.173785597481
 20
8909.9887068372846
 30
0.0
  0
INSERT
  5
12E84
 67
     1
  8
0
  2
ACAD
 10
11261.924960595979
 20
8876.2488936993632
 30
0.0
  0
INSERT
  5
12E85
 67
     1
  8
P2
  2
ACAD
 10
13487.115698321109
 20
3563.516540527809
 30
0.0
 41
0.02
 42
0.02
 43
0.02
  0
INSERT
  5
12E87
 67
     1
  8
0
  2
SEMAFOR
 10
5076.0374900192664
 20
712.6009124297882
 30
0.0
 41
3.75
 42
3.75
 43
3.75
  0
INSERT
  5
12E89
 67
     1
  8
0
  2
SEMAFOR
 10
5076.0374900192664
 20
712.6009124297882
 30
0.0
 41
3.75
 42
3.75
 43
3.75
  0
INSERT
  5
12E8B
 67
     1
  8
0
  2
SEMAFOR
 10
5076.0374900192664
 20
712.6009124297882
 30
0.0
 41
3.75
 42
3.75
 43
3.75
  0
INSERT
  5
12E8C
 67
     1
  8
0
  2
ACAD
 10
12372.13333365801
 20
2399.268001304149
 30
0.0
  0
INSERT
  5
12E8D
 67
     1
  8
0
  2
ACAD
 10
12039.93477307498
 20
2198.845595364161
 30
0.0
  0
INSERT
  5
12E8E
 67
     1
  8
0
  2
ACAD
 10
12039.93477307498
 20
2198.845595364161
 30
0.0
  0
INSERT
  5
12E8F
 67
     1
  8
0
  2
ACAD
 10
17482.352873922591
 20
5934.0411750668982
 30
0.0
  0
INSERT
  5
12E90
 67
     1
  8
0
  2
ACAD
 10
17974.104048921079
 20
5900.301361928975
 30
0.0
  0
INSERT
  5
12E91
 67
     1
  8
0
  2
ACAD
 10
13332.83066649144
 20
9969.6665701866696
 30
0.0
  0
INSERT
  5
12E92
 67
     1
  8
0
  2
ACAD
 10
13824.58184148993
 20
9935.9267570487482
 30
0.0
  0
INSERT
  5
12E94
 67
     1
  8
0
  2
SEMAFOR
 10
5076.0374900192664
 20
712.6009124297882
 30
0.0
 41
10.0
 42
10.0
 43
10.0
  0
INSERT
  5
12E96
 67
     1
  8
0
  2
SEMAFOR
 10
5076.0374900192664
 20
712.6009124297882
 30
0.0
 41
10.0
 42
10.0
 43
10.0
  0
INSERT
  5
12E98
 67
     1
  8
0
  2
SEMAFOR
 10
5076.0374900192664
 20
712.6009124297882
 30
0.0
 41
10.0
 42
10.0
 43
10.0
  0
INSERT
  5
12E9A
 67
     1
  8
0
  2
SEMAFOR
 10
16938.929523281189
 20
3773.2879267246931
 30
0.0
  0
INSERT
  5
12E9C
 67
     1
  8
0
  2
SEMAFOR
 10
16938.929523281189
 20
3773.2879267246931
 30
0.0
  0
INSERT
  5
12E9E
 67
     1
  8
0
  2
SEMAFOR
 10
16938.929523281189
 20
3773.2879267246931
 30
0.0
  0
INSERT
  5
12E9F
 67
     1
  8
0
  2
ACAD
 10
21672.368486025989
 20
4400.2771522496678
 30
0.0
  0
INSERT
  5
12EA0
 67
     1
  8
0
  2
ACAD
 10
21340.169925442951
 20
4199.8547463096811
 30
0.0
  0
INSERT
  5
12EA1
 67
     1
  8
0
  2
ACAD
 10
21340.169925442951
 20
4199.8547463096811
 30
0.0
  0
INSERT
  5
12EA2
 67
     1
  8
0
  2
ACAD
 10
26782.58802629057
 20
7935.0503260124169
 30
0.0
  0
INSERT
  5
12EA3
 67
     1
  8
0
  2
ACAD
 10
27274.339201289062
 20
7901.3105128744946
 30
0.0
  0
INSERT
  5
12EA4
 67
     1
  8
0
  2
ACAD
 10
22633.06581885941
 20
11970.675721132189
 30
0.0
  0
INSERT
  5
12EA5
 67
     1
  8
0
  2
ACAD
 10
23124.816993857909
 20
11936.93590799427
 30
0.0
  0
INSERT
  5
12EA6
 67
     1
  8
P2
  2
ACAD
 10
25350.007731583049
 20
6624.2035548227132
 30
0.0
 41
0.02
 42
0.02
 43
0.02
  0
INSERT
  5
12EA8
 67
     1
  8
0
  2
SEMAFOR
 10
16938.929523281189
 20
3773.2879267246931
 30
0.0
 41
3.75
 42
3.75
 43
3.75
  0
INSERT
  5
12EAA
 67
     1
  8
0
  2
SEMAFOR
 10
16938.929523281189
 20
3773.2879267246931
 30
0.0
 41
3.75
 42
3.75
 43
3.75
  0
INSERT
  5
12EAC
 67
     1
  8
0
  2
SEMAFOR
 10
16938.929523281189
 20
3773.2879267246931
 30
0.0
 41
3.75
 42
3.75
 43
3.75
  0
INSERT
  5
12EAD
 67
     1
  8
0
  2
ACAD
 10
21938.976466910801
 20
7322.5223064648353
 30
0.0
  0
INSERT
  5
12EAE
 67
     1
  8
0
  2
ACAD
 10
22430.7276419093
 20
7288.7824933269121
 30
0.0
  0
INSERT
  5
12EB0
 67
     1
  8
0
  2
SEMAFOR
 10
20647.500927828729
 20
4773.1123528576118
 30
0.0
  0
INSERT
  5
12EB2
 67
     1
  8
0
  2
SEMAFOR
 10
20647.500927828729
 20
4773.1123528576118
 30
0.0
  0
INSERT
  5
12EB4
 67
     1
  8
0
  2
SEMAFOR
 10
20647.500927828729
 20
4773.1123528576118
 30
0.0
  0
INSERT
  5
12EB6
 67
     1
  8
0
  2
SEMAFOR
 10
20647.500927828729
 20
4773.1123528576118
 30
0.0
  0
INSERT
  5
12EB8
 67
     1
  8
0
  2
SEMAFOR
 10
20647.500927828729
 20
4773.1123528576118
 30
0.0
  0
INSERT
  5
12EBA
 67
     1
  8
0
  2
SEMAFOR
 10
20647.500927828729
 20
4773.1123528576118
 30
0.0
  0
INSERT
  5
12EBB
 67
     1
  8
0
  2
ACAD
 10
25380.939890573522
 20
5400.1015783825878
 30
0.0
  0
INSERT
  5
12EBC
 67
     1
  8
0
  2
ACAD
 10
25048.741329990491
 20
5199.6791724426002
 30
0.0
  0
INSERT
  5
12EBD
 67
     1
  8
0
  2
ACAD
 10
25048.741329990491
 20
5199.6791724426002
 30
0.0
  0
INSERT
  5
12EBE
 67
     1
  8
0
  2
ACAD
 10
30491.159430838099
 20
8934.8747521453352
 30
0.0
  0
INSERT
  5
12EBF
 67
     1
  8
0
  2
ACAD
 10
30982.910605836591
 20
8901.1349390074101
 30
0.0
  0
INSERT
  5
12EC0
 67
     1
  8
0
  2
ACAD
 10
26341.637223406949
 20
12970.5001472651
 30
0.0
  0
INSERT
  5
12EC1
 67
     1
  8
0
  2
ACAD
 10
26833.388398405441
 20
12936.760334127181
 30
0.0
  0
INSERT
  5
12EC2
 67
     1
  8
P2
  2
ACAD
 10
29058.579136130578
 20
7624.0279809556332
 30
0.0
 41
0.02
 42
0.02
 43
0.02
  0
INSERT
  5
12EC4
 67
     1
  8
0
  2
SEMAFOR
 10
20647.500927828729
 20
4773.1123528576118
 30
0.0
 41
3.75
 42
3.75
 43
3.75
  0
INSERT
  5
12EC6
 67
     1
  8
0
  2
SEMAFOR
 10
20647.500927828729
 20
4773.1123528576118
 30
0.0
 41
3.75
 42
3.75
 43
3.75
  0
INSERT
  5
12EC8
 67
     1
  8
0
  2
SEMAFOR
 10
20647.500927828729
 20
4773.1123528576118
 30
0.0
 41
3.75
 42
3.75
 43
3.75
  0
INSERT
  5
12EC9
 67
     1
  8
0
  2
ACAD
 10
27943.596771467481
 20
6459.7794417319728
 30
0.0
  0
INSERT
  5
12ECA
 67
     1
  8
0
  2
ACAD
 10
27611.398210884439
 20
6259.3570357919853
 30
0.0
  0
INSERT
  5
12ECB
 67
     1
  8
0
  2
ACAD
 10
27611.398210884439
 20
6259.3570357919853
 30
0.0
  0
INSERT
  5
12ECC
 67
     1
  8
0
  2
ACAD
 10
33053.816311732051
 20
9994.5526154947202
 30
0.0
  0
INSERT
  5
12ECD
 67
     1
  8
0
  2
ACAD
 10
33545.56748673055
 20
9960.8128023567988
 30
0.0
  0
INSERT
  5
12ECE
 67
     1
  8
0
  2
ACAD
 10
28904.294104300901
 20
14030.178010614491
 30
0.0
  0
INSERT
  5
12ECF
 67
     1
  8
0
  2
ACAD
 10
29396.045279299389
 20
13996.438197476569
 30
0.0
  0
INSERT
  5
12ED1
 67
     1
  8
0
  2
SEMAFOR
 10
20647.500927828729
 20
4773.1123528576118
 30
0.0
 41
10.0
 42
10.0
 43
10.0
  0
INSERT
  5
12ED3
 67
     1
  8
0
  2
SEMAFOR
 10
20647.500927828729
 20
4773.1123528576118
 30
0.0
 41
10.0
 42
10.0
 43
10.0
  0
INSERT
  5
12ED5
 67
     1
  8
0
  2
SEMAFOR
 10
20647.500927828729
 20
4773.1123528576118
 30
0.0
 41
10.0
 42
10.0
 43
10.0
  0
INSERT
  5
12ED7
 67
     1
  8
0
  2
SEMAFOR
 10
14719.95229818593
 20
2996.6335243490948
 30
0.0
  0
INSERT
  5
12ED9
 67
     1
  8
0
  2
SEMAFOR
 10
14719.95229818593
 20
2996.6335243490948
 30
0.0
  0
INSERT
  5
12EDB
 67
     1
  8
0
  2
SEMAFOR
 10
14719.95229818593
 20
2996.6335243490948
 30
0.0
  0
INSERT
  5
12EDD
 67
     1
  8
0
  2
SEMAFOR
 10
19258.743964614729
 20
3517.6450265281801
 30
0.0
  0
INSERT
  5
12EDF
 67
     1
  8
0
  2
SEMAFOR
 10
19258.743964614729
 20
3517.6450265281801
 30
0.0
  0
INSERT
  5
12EE1
 67
     1
  8
0
  2
SEMAFOR
 10
19258.743964614729
 20
3517.6450265281801
 30
0.0
  0
INSERT
  5
12EE2
 67
     1
  8
0
  2
ACAD
 10
22629.770037863909
 20
8565.9914518828828
 30
0.0
  0
INSERT
  5
12EE3
 67
     1
  8
0
  2
ACAD
 10
23121.521212862401
 20
8532.2516387449596
 30
0.0
  0
INSERT
  5
12EE7
 67
     1
  8
ASHADE
 62
     2
  2
AVE_RENDER
 10
14719.95229818593
 20
2996.6335243490948
 30
0.0
1001
AVE_RENDER
1002
{
1070
     0
1000
ESS
1000

1002
{
1070
     1
1002
}
1002
}
  0
INSERT
  5
12EE9
 67
     1
  8
0
  2
SEMAFOR
 10
21170.00389801697
 20
4181.0152020349278
 30
0.0
 41
8.0
 42
8.0
 43
8.0
  0
INSERT
  5
12EEB
 67
     1
  8
0
  2
SEMAFOR
 10
21170.00389801697
 20
4181.0152020349278
 30
0.0
 41
8.0
 42
8.0
 43
8.0
  0
INSERT
  5
12EED
 67
     1
  8
0
  2
SEMAFOR
 10
21170.00389801697
 20
4181.0152020349278
 30
0.0
 41
8.0
 42
8.0
 43
8.0
  0
INSERT
  5
30C14
 67
     1
  8
AME_FRZ
  2
AME_NIL
 10
0.0
 20
0.0
 30
0.0
  0
INSERT
  5
30C15
 67
     1
  8
AME_FRZ
  2
AME_SOL
 10
0.0
 20
0.0
 30
0.0
1001
AME_SOL
1000
R2.1
1000
AME2
1000
sq cm
1070
     3
1070
     0
1070
     3
1000
wire
1040
45.0
1000
U
1040
1.0
1000
cm
1000
gm
1000
MILD_STEEL
1070
    25
1000
CSG
1070
     1
1070
     3
1070
     3
1070
     3
1070
     0
1000
cu cm
1070
     1
1070
     0
1005
30C14
  0
INSERT
  5
34E79
 67
     1
  8
0
  2
SEMAFOR
 10
1447.964444386256
 20
1825.897531263299
 30
0.0
  0
INSERT
  5
34E7B
 67
     1
  8
0
  2
SEMAFOR
 10
1447.964444386256
 20
1825.897531263299
 30
0.0
  0
INSERT
  5
34E7D
 67
     1
  8
0
  2
SEMAFOR
 10
1447.964444386256
 20
1825.897531263299
 30
0.0
  0
INSERT
  5
34E7F
 67
     1
  8
0
  2
SEMAFOR
 10
1447.964444386256
 20
1825.897531263299
 30
0.0
  0
INSERT
  5
34E81
 67
     1
  8
0
  2
SEMAFOR
 10
1447.964444386256
 20
1825.897531263299
 30
0.0
  0
INSERT
  5
34E83
 67
     1
  8
0
  2
SEMAFOR
 10
1447.964444386256
 20
1825.897531263299
 30
0.0
  0
INSERT
  5
34E84
 67
     1
  8
0
  2
ACAD
 10
6181.4034071310507
 20
2452.8867567882749
 30
0.0
  0
INSERT
  5
34E85
 67
     1
  8
0
  2
ACAD
 10
5849.2048465480193
 20
2252.4643508482868
 30
0.0
  0
INSERT
  5
34E86
 67
     1
  8
0
  2
ACAD
 10
5849.2048465480193
 20
2252.4643508482868
 30
0.0
  0
INSERT
  5
34E87
 67
     1
  8
0
  2
ACAD
 10
11291.62294739563
 20
5987.6599305510217
 30
0.0
  0
INSERT
  5
34E88
 67
     1
  8
0
  2
ACAD
 10
11783.37412239412
 20
5953.9201174131003
 30
0.0
  0
INSERT
  5
34E89
 67
     1
  8
0
  2
ACAD
 10
7142.1007399644759
 20
10023.285325670789
 30
0.0
  0
INSERT
  5
34E8A
 67
     1
  8
0
  2
ACAD
 10
7633.8519149629692
 20
9989.5455125328754
 30
0.0
  0
INSERT
  5
34F37
 67
     1
  8
P2
  2
ACAD
 10
9859.0426526881074
 20
4676.8131593613189
 30
0.0
 41
0.02
 42
0.02
 43
0.02
  0
INSERT
  5
35021
 67
     1
  8
0
  2
SEMAFOR
 10
1447.964444386256
 20
1825.897531263299
 30
0.0
 41
3.75
 42
3.75
 43
3.75
  0
INSERT
  5
35023
 67
     1
  8
0
  2
SEMAFOR
 10
1447.964444386256
 20
1825.897531263299
 30
0.0
 41
3.75
 42
3.75
 43
3.75
  0
INSERT
  5
35025
 67
     1
  8
0
  2
SEMAFOR
 10
1447.964444386256
 20
1825.897531263299
 30
0.0
 41
3.75
 42
3.75
 43
3.75
  0
INSERT
  5
3505E
 67
     1
  8
0
  2
ACAD
 10
6448.0113880158697
 20
5375.1319110034401
 30
0.0
  0
INSERT
  5
3505F
 67
     1
  8
0
  2
ACAD
 10
6939.7625630143611
 20
5341.3920978655187
 30
0.0
  0
INSERT
  5
35072
 67
     1
  8
0
  2
SEMAFOR
 10
5156.5358489337896
 20
2825.7219573962188
 30
0.0
  0
INSERT
  5
35074
 67
     1
  8
0
  2
SEMAFOR
 10
5156.5358489337896
 20
2825.7219573962188
 30
0.0
  0
INSERT
  5
35076
 67
     1
  8
0
  2
SEMAFOR
 10
5156.5358489337896
 20
2825.7219573962188
 30
0.0
  0
INSERT
  5
35078
 67
     1
  8
0
  2
SEMAFOR
 10
5156.5358489337896
 20
2825.7219573962188
 30
0.0
  0
INSERT
  5
3507A
 67
     1
  8
0
  2
SEMAFOR
 10
5156.5358489337896
 20
2825.7219573962188
 30
0.0
  0
INSERT
  5
3507C
 67
     1
  8
0
  2
SEMAFOR
 10
5156.5358489337896
 20
2825.7219573962188
 30
0.0
  0
INSERT
  5
3507D
 67
     1
  8
0
  2
ACAD
 10
9889.9748116785868
 20
3452.711182921194
 30
0.0
  0
INSERT
  5
3507E
 67
     1
  8
0
  2
ACAD
 10
9557.7762510955508
 20
3252.288776981206
 30
0.0
  0
INSERT
  5
3507F
 67
     1
  8
0
  2
ACAD
 10
9557.7762510955508
 20
3252.288776981206
 30
0.0
  0
INSERT
  5
35080
 67
     1
  8
0
  2
ACAD
 10
15000.194351943161
 20
6987.4843566839418
 30
0.0
  0
INSERT
  5
35081
 67
     1
  8
0
  2
ACAD
 10
15491.94552694165
 20
6953.7445435460204
 30
0.0
  0
INSERT
  5
35082
 67
     1
  8
0
  2
ACAD
 10
10850.672144512009
 20
11023.10975180371
 30
0.0
  0
INSERT
  5
35083
 67
     1
  8
0
  2
ACAD
 10
11342.423319510501
 20
10989.36993866579
 30
0.0
  0
INSERT
  5
35084
 67
     1
  8
P2
  2
ACAD
 10
13567.61405723564
 20
5676.6375854942389
 30
0.0
 41
0.02
 42
0.02
 43
0.02
  0
INSERT
  5
35086
 67
     1
  8
0
  2
SEMAFOR
 10
5156.5358489337896
 20
2825.7219573962188
 30
0.0
 41
3.75
 42
3.75
 43
3.75
  0
INSERT
  5
35088
 67
     1
  8
0
  2
SEMAFOR
 10
5156.5358489337896
 20
2825.7219573962188
 30
0.0
 41
3.75
 42
3.75
 43
3.75
  0
INSERT
  5
3508A
 67
     1
  8
0
  2
SEMAFOR
 10
5156.5358489337896
 20
2825.7219573962188
 30
0.0
 41
3.75
 42
3.75
 43
3.75
  0
INSERT
  5
3508B
 67
     1
  8
0
  2
ACAD
 10
12452.63169257254
 20
4512.3890462705785
 30
0.0
  0
INSERT
  5
3508C
 67
     1
  8
0
  2
ACAD
 10
12120.433131989501
 20
4311.966640330591
 30
0.0
  0
INSERT
  5
3508D
 67
     1
  8
0
  2
ACAD
 10
12120.433131989501
 20
4311.966640330591
 30
0.0
  0
INSERT
  5
3508E
 67
     1
  8
0
  2
ACAD
 10
17562.851232837122
 20
8047.1622200333259
 30
0.0
  0
INSERT
  5
3508F
 67
     1
  8
0
  2
ACAD
 10
18054.602407835609
 20
8013.4224068954036
 30
0.0
  0
INSERT
  5
35090
 67
     1
  8
0
  2
ACAD
 10
13413.329025405959
 20
12082.7876151531
 30
0.0
  0
INSERT
  5
35091
 67
     1
  8
0
  2
ACAD
 10
13905.080200404451
 20
12049.04780201518
 30
0.0
  0
INSERT
  5
350AA
 67
     1
  8
0
  2
SEMAFOR
 10
5156.5358489337896
 20
2825.7219573962188
 30
0.0
 41
10.0
 42
10.0
 43
10.0
  0
INSERT
  5
350AC
 67
     1
  8
0
  2
SEMAFOR
 10
5156.5358489337896
 20
2825.7219573962188
 30
0.0
 41
10.0
 42
10.0
 43
10.0
  0
INSERT
  5
350AE
 67
     1
  8
0
  2
SEMAFOR
 10
5156.5358489337896
 20
2825.7219573962188
 30
0.0
 41
10.0
 42
10.0
 43
10.0
  0
INSERT
  5
350B7
 67
     1
  8
0
  2
SEMAFOR
 10
4972.0328749347254
 20
2033.0984575649211
 30
0.0
  0
INSERT
  5
350B9
 67
     1
  8
0
  2
SEMAFOR
 10
4972.0328749347254
 20
2033.0984575649211
 30
0.0
  0
INSERT
  5
350BB
 67
     1
  8
0
  2
SEMAFOR
 10
4972.0328749347254
 20
2033.0984575649211
 30
0.0
  0
INSERT
  5
350BD
 67
     1
  8
0
  2
SEMAFOR
 10
4972.0328749347254
 20
2033.0984575649211
 30
0.0
  0
INSERT
  5
350BF
 67
     1
  8
0
  2
SEMAFOR
 10
4972.0328749347254
 20
2033.0984575649211
 30
0.0
  0
INSERT
  5
350C1
 67
     1
  8
0
  2
SEMAFOR
 10
4972.0328749347254
 20
2033.0984575649211
 30
0.0
  0
INSERT
  5
350C2
 67
     1
  8
0
  2
ACAD
 10
9705.4718376795172
 20
2660.087683089896
 30
0.0
  0
INSERT
  5
350C3
 67
     1
  8
0
  2
ACAD
 10
9373.2732770964867
 20
2459.6652771499089
 30
0.0
  0
INSERT
  5
350C4
 67
     1
  8
0
  2
ACAD
 10
9373.2732770964867
 20
2459.6652771499089
 30
0.0
  0
INSERT
  5
350C5
 67
     1
  8
0
  2
ACAD
 10
14815.6913779441
 20
6194.8608568526452
 30
0.0
  0
INSERT
  5
350C6
 67
     1
  8
0
  2
ACAD
 10
15307.44255294259
 20
6161.121043714722
 30
0.0
  0
INSERT
  5
350C7
 67
     1
  8
0
  2
ACAD
 10
10666.16917051294
 20
10230.48625197241
 30
0.0
  0
INSERT
  5
350C8
 67
     1
  8
0
  2
ACAD
 10
11157.920345511429
 20
10196.746438834491
 30
0.0
  0
INSERT
  5
350C9
 67
     1
  8
P2
  2
ACAD
 10
13383.11108323657
 20
4884.0140856629396
 30
0.0
 41
0.02
 42
0.02
 43
0.02
  0
INSERT
  5
350CB
 67
     1
  8
0
  2
SEMAFOR
 10
4972.0328749347254
 20
2033.0984575649211
 30
0.0
 41
3.75
 42
3.75
 43
3.75
  0
INSERT
  5
350CD
 67
     1
  8
0
  2
SEMAFOR
 10
4972.0328749347254
 20
2033.0984575649211
 30
0.0
 41
3.75
 42
3.75
 43
3.75
  0
INSERT
  5
350CF
 67
     1
  8
0
  2
SEMAFOR
 10
4972.0328749347254
 20
2033.0984575649211
 30
0.0
 41
3.75
 42
3.75
 43
3.75
  0
INSERT
  5
350D0
 67
     1
  8
0
  2
ACAD
 10
12268.128718573471
 20
3719.7655464392819
 30
0.0
  0
INSERT
  5
350D1
 67
     1
  8
0
  2
ACAD
 10
11935.93015799044
 20
3519.3431404992939
 30
0.0
  0
INSERT
  5
350D2
 67
     1
  8
0
  2
ACAD
 10
11935.93015799044
 20
3519.3431404992939
 30
0.0
  0
INSERT
  5
350D3
 67
     1
  8
0
  2
ACAD
 10
17378.34825883805
 20
7254.5387202020293
 30
0.0
  0
INSERT
  5
350D4
 67
     1
  8
0
  2
ACAD
 10
17870.099433836542
 20
7220.798907064107
 30
0.0
  0
INSERT
  5
350D5
 67
     1
  8
0
  2
ACAD
 10
13228.826051406901
 20
11290.164115321801
 30
0.0
  0
INSERT
  5
350D6
 67
     1
  8
0
  2
ACAD
 10
13720.57722640539
 20
11256.424302183879
 30
0.0
  0
INSERT
  5
35107
 67
     1
  8
0
  2
SEMAFOR
 10
4972.0328749347254
 20
2033.0984575649211
 30
0.0
 41
10.0
 42
10.0
 43
10.0
  0
INSERT
  5
35109
 67
     1
  8
0
  2
SEMAFOR
 10
4972.0328749347254
 20
2033.0984575649211
 30
0.0
 41
10.0
 42
10.0
 43
10.0
  0
INSERT
  5
3510B
 67
     1
  8
0
  2
SEMAFOR
 10
4972.0328749347254
 20
2033.0984575649211
 30
0.0
 41
10.0
 42
10.0
 43
10.0
  0
INSERT
  5
35115
 67
     1
  8
0
  2
SEMAFOR
 10
16834.924908196652
 20
5093.7854718598237
 30
0.0
  0
INSERT
  5
35117
 67
     1
  8
0
  2
SEMAFOR
 10
16834.924908196652
 20
5093.7854718598237
 30
0.0
  0
INSERT
  5
35119
 67
     1
  8
0
  2
SEMAFOR
 10
16834.924908196652
 20
5093.7854718598237
 30
0.0
  0
INSERT
  5
3511A
 67
     1
  8
0
  2
ACAD
 10
21568.363870941441
 20
5720.7746973848007
 30
0.0
  0
INSERT
  5
3511B
 67
     1
  8
0
  2
ACAD
 10
21236.165310358421
 20
5520.3522914448131
 30
0.0
  0
INSERT
  5
3511C
 67
     1
  8
0
  2
ACAD
 10
21236.165310358421
 20
5520.3522914448131
 30
0.0
  0
INSERT
  5
3511D
 67
     1
  8
0
  2
ACAD
 10
26678.583411206029
 20
9255.547871147548
 30
0.0
  0
INSERT
  5
3511E
 67
     1
  8
0
  2
ACAD
 10
27170.334586204521
 20
9221.8080580096266
 30
0.0
  0
INSERT
  5
3511F
 67
     1
  8
0
  2
ACAD
 10
22529.061203774869
 20
13291.17326626732
 30
0.0
  0
INSERT
  5
35120
 67
     1
  8
0
  2
ACAD
 10
23020.81237877336
 20
13257.433453129401
 30
0.0
  0
INSERT
  5
35121
 67
     1
  8
P2
  2
ACAD
 10
25246.003116498508
 20
7944.7010999578461
 30
0.0
 41
0.02
 42
0.02
 43
0.02
  0
INSERT
  5
35123
 67
     1
  8
0
  2
SEMAFOR
 10
16834.924908196652
 20
5093.7854718598237
 30
0.0
 41
3.75
 42
3.75
 43
3.75
  0
INSERT
  5
35125
 67
     1
  8
0
  2
SEMAFOR
 10
16834.924908196652
 20
5093.7854718598237
 30
0.0
 41
3.75
 42
3.75
 43
3.75
  0
INSERT
  5
35127
 67
     1
  8
0
  2
SEMAFOR
 10
16834.924908196652
 20
5093.7854718598237
 30
0.0
 41
3.75
 42
3.75
 43
3.75
  0
INSERT
  5
35128
 67
     1
  8
0
  2
ACAD
 10
21834.971851826271
 20
8643.0198515999655
 30
0.0
  0
INSERT
  5
35129
 67
     1
  8
0
  2
ACAD
 10
22326.723026824751
 20
8609.2800384620459
 30
0.0
  0
INSERT
  5
3512B
 67
     1
  8
0
  2
SEMAFOR
 10
20543.496312744192
 20
6093.6098979927447
 30
0.0
  0
INSERT
  5
3512D
 67
     1
  8
0
  2
SEMAFOR
 10
20543.496312744192
 20
6093.6098979927447
 30
0.0
  0
INSERT
  5
3512F
 67
     1
  8
0
  2
SEMAFOR
 10
20543.496312744192
 20
6093.6098979927447
 30
0.0
  0
INSERT
  5
35131
 67
     1
  8
0
  2
SEMAFOR
 10
20543.496312744192
 20
6093.6098979927447
 30
0.0
  0
INSERT
  5
35133
 67
     1
  8
0
  2
SEMAFOR
 10
20543.496312744192
 20
6093.6098979927447
 30
0.0
  0
INSERT
  5
35135
 67
     1
  8
0
  2
SEMAFOR
 10
20543.496312744192
 20
6093.6098979927447
 30
0.0
  0
INSERT
  5
35136
 67
     1
  8
0
  2
ACAD
 10
25276.935275488981
 20
6720.5991235177189
 30
0.0
  0
INSERT
  5
35137
 67
     1
  8
0
  2
ACAD
 10
24944.73671490595
 20
6520.1767175777322
 30
0.0
  0
INSERT
  5
35138
 67
     1
  8
0
  2
ACAD
 10
24944.73671490595
 20
6520.1767175777322
 30
0.0
  0
INSERT
  5
35139
 67
     1
  8
0
  2
ACAD
 10
30387.154815753562
 20
10255.37229728047
 30
0.0
  0
INSERT
  5
3513A
 67
     1
  8
0
  2
ACAD
 10
30878.90599075205
 20
10221.632484142539
 30
0.0
  0
INSERT
  5
3513B
 67
     1
  8
0
  2
ACAD
 10
26237.632608322401
 20
14290.99769240024
 30
0.0
  0
INSERT
  5
3513C
 67
     1
  8
0
  2
ACAD
 10
26729.3837833209
 20
14257.257879262321
 30
0.0
  0
INSERT
  5
3513D
 67
     1
  8
P2
  2
ACAD
 10
28954.574521046041
 20
8944.5255260907652
 30
0.0
 41
0.02
 42
0.02
 43
0.02
  0
INSERT
  5
3513F
 67
     1
  8
0
  2
SEMAFOR
 10
20543.496312744192
 20
6093.6098979927447
 30
0.0
 41
3.75
 42
3.75
 43
3.75
  0
INSERT
  5
35141
 67
     1
  8
0
  2
SEMAFOR
 10
20543.496312744192
 20
6093.6098979927447
 30
0.0
 41
3.75
 42
3.75
 43
3.75
  0
INSERT
  5
35143
 67
     1
  8
0
  2
SEMAFOR
 10
20543.496312744192
 20
6093.6098979927447
 30
0.0
 41
3.75
 42
3.75
 43
3.75
  0
INSERT
  5
35144
 67
     1
  8
0
  2
ACAD
 10
27839.592156382929
 20
7780.2769868671048
 30
0.0
  0
INSERT
  5
35145
 67
     1
  8
0
  2
ACAD
 10
27507.393595799898
 20
7579.8545809271181
 30
0.0
  0
INSERT
  5
35146
 67
     1
  8
0
  2
ACAD
 10
27507.393595799898
 20
7579.8545809271181
 30
0.0
  0
INSERT
  5
35147
 67
     1
  8
0
  2
ACAD
 10
32949.811696647514
 20
11315.050160629849
 30
0.0
  0
INSERT
  5
35148
 67
     1
  8
0
  2
ACAD
 10
33441.562871646012
 20
11281.31034749193
 30
0.0
  0
INSERT
  5
35149
 67
     1
  8
0
  2
ACAD
 10
28800.28948921636
 20
15350.67555574962
 30
0.0
  0
INSERT
  5
3514A
 67
     1
  8
0
  2
ACAD
 10
29292.040664214848
 20
15316.9357426117
 30
0.0
  0
INSERT
  5
3514C
 67
     1
  8
0
  2
SEMAFOR
 10
20543.496312744192
 20
6093.6098979927447
 30
0.0
 41
10.0
 42
10.0
 43
10.0
  0
INSERT
  5
3514E
 67
     1
  8
0
  2
SEMAFOR
 10
20543.496312744192
 20
6093.6098979927447
 30
0.0
 41
10.0
 42
10.0
 43
10.0
  0
INSERT
  5
35150
 67
     1
  8
0
  2
SEMAFOR
 10
20543.496312744192
 20
6093.6098979927447
 30
0.0
 41
10.0
 42
10.0
 43
10.0
  0
INSERT
  5
3516C
 67
     1
  8
0
  2
SEMAFOR
 10
14615.947683101391
 20
4317.1310694842268
 30
0.0
  0
INSERT
  5
3516E
 67
     1
  8
0
  2
SEMAFOR
 10
14615.947683101391
 20
4317.1310694842268
 30
0.0
  0
INSERT
  5
35170
 67
     1
  8
0
  2
SEMAFOR
 10
14615.947683101391
 20
4317.1310694842268
 30
0.0
  0
INSERT
  5
35172
 67
     1
  8
0
  2
SEMAFOR
 10
19154.739349530191
 20
4838.1425716633112
 30
0.0
  0
INSERT
  5
35174
 67
     1
  8
0
  2
SEMAFOR
 10
19154.739349530191
 20
4838.1425716633112
 30
0.0
  0
INSERT
  5
35176
 67
     1
  8
0
  2
SEMAFOR
 10
19154.739349530191
 20
4838.1425716633112
 30
0.0
  0
INSERT
  5
35177
 67
     1
  8
0
  2
ACAD
 10
22525.765422779368
 20
9886.4889970180157
 30
0.0
  0
INSERT
  5
35178
 67
     1
  8
0
  2
ACAD
 10
23017.51659777786
 20
9852.7491838800925
 30
0.0
  0
INSERT
  5
35181
 67
     1
  8
ASHADE
 62
     1
  2
AVE_RENDER
 10
14615.947683101391
 20
4317.1310694842268
 30
0.0
1001
AVE_RENDER
1002
{
1070
     2
1000
Pref
1070
    30
1070
    20
1070
     1
1070
     0
1000
ESS
1070
    10
1070
     0
1070
    30
1040
1.0
1070
     1
1040
0.51
1040
0.37
1040
0.41
1040
1.587301587301587
1010
0.915
1020
0.085
1030
0.7821999999999997
1040
0.38
1070
    49
1002
}
  0
INSERT
  5
35182
 67
     1
  8
ASHADE
 62
     3
  2
AVE_RENDER
 10
14615.947683101391
 20
4317.1310694842268
 30
0.0
1001
AVE_RENDER
1002
{
1070
     0
1000
Full Opt
1070
     0
1070
     1
1070
     1
1070
     1
1070
     0
1070
     0
1070
     0
1070
     1
1070
     1
1040
0.0001
1040
0.0001
1002
}
  0
INSERT
  5
35183
 67
     1
  8
ASHADE
 62
     4
  2
AVE_RENDER
 10
14615.947683101391
 20
4317.1310694842268
 30
0.0
1001
AVE_RENDER
1002
{
1070
     0
1000
Quick Opt
1070
     0
1070
     1
1070
     1
1070
     1
1070
     0
1070
     0
1070
     1
1002
}
  0
INSERT
  5
35184
 67
     1
  8
ASHADE
 62
     2
  2
AVE_RENDER
 10
14615.947683101391
 20
4317.1310694842268
 30
0.0
1001
AVE_RENDER
1002
{
1070
     0
1000
ESS
1000

1002
{
1070
     1
1002
}
1002
}
  0
INSERT
  5
35186
 67
     1
  8
0
  2
SEMAFOR
 10
21065.999282932429
 20
5501.5127471700607
 30
0.0
 41
8.0
 42
8.0
 43
8.0
  0
INSERT
  5
35188
 67
     1
  8
0
  2
SEMAFOR
 10
21065.999282932429
 20
5501.5127471700607
 30
0.0
 41
8.0
 42
8.0
 43
8.0
  0
INSERT
  5
3518A
 67
     1
  8
0
  2
SEMAFOR
 10
21065.999282932429
 20
5501.5127471700607
 30
0.0
 41
8.0
 42
8.0
 43
8.0
  0
LINE
  5
17EE83
 67
     1
  8
PLATINE
  6
AXESX2
 10
688.65862841142985
 20
3944.6918775581598
 30
0.0
 11
943.95966398740666
 21
3944.6918775581598
 31
0.0
  0
LINE
  5
17EE84
 67
     1
  8
PLATINE
  6
AXESX2
 10
844.96657743114758
 20
3937.9531511193172
 30
0.0
 11
876.39397578348235
 21
3975.4068660115981
 31
0.0
  0
ARC
  5
17EE85
 67
     1
  8
PLATINE
 10
691.65862841142985
 20
3944.6918775581598
 30
0.0
 40
3.0
 50
221.81031489577859
 51
138.18968510422141
  0
LINE
  5
17EE87
 67
     1
  8
PLATINE
  6
CACHE
 10
867.68859223371896
 20
3947.6918776627708
 30
0.0
 11
902.68859223623053
 21
3947.6918776391908
 31
0.0
  0
LINE
  5
17EE88
 67
     1
  8
PLATINE
  6
CACHE
 10
867.68859223125753
 20
3941.6918776627708
 30
0.0
 11
902.68859223376944
 21
3941.6918776392081
 31
0.0
  0
LINE
  5
17EE89
 67
     1
  8
PLATINE
  6
CACHE
 10
855.74622628897316
 20
3947.6883887188128
 30
0.0
 11
870.7117936510931
 21
3965.5236573878292
 31
0.0
  0
LINE
  5
17EE8A
 67
     1
  8
PLATINE
  6
CACHE
 10
867.68859223125753
 20
3941.6918776627708
 30
0.0
 11
867.68859223407924
 21
3947.6918776627708
 31
0.0
  0
LINE
  5
17EE8B
 67
     1
  8
PLATINE
  6
CACHE
 10
867.68859223125753
 20
3941.6918776627708
 30
0.0
 11
865.9565414236888
 21
3944.6918776627708
 31
0.0
  0
LINE
  5
17EE8C
 67
     1
  8
PLATINE
  6
CACHE
 10
867.68859223125753
 20
3947.6918776627708
 30
0.0
 11
865.9565414236888
 21
3944.6918776627708
 31
0.0
  0
LINE
  5
17EE8D
 67
     1
  8
PLATINE
  6
CACHE
 10
852.68204851649909
 20
3950.2595391575592
 30
0.0
 11
853.57134979304976
 21
3948.2079194950652
 31
0.0
  0
LINE
  5
17EE8E
 67
     1
  8
PLATINE
  6
CACHE
 10
852.68204851649841
 20
3950.2595391575592
 30
0.0
 11
866.04196355587464
 21
3966.1812659024899
 31
0.0
  0
LINE
  5
17EE8F
 67
     1
  8
PLATINE
  6
CACHE
 10
853.57134979304976
 20
3948.2079194950652
 30
0.0
 11
855.74622628897407
 21
3947.6883887188128
 31
0.0
  0
LINE
  5
17EE90
 67
     1
  8
PLATINE
  6
CACHE
 10
855.74622628897305
 20
3947.6883887188128
 30
0.0
 11
852.6820485164975
 21
3950.2595391575601
 31
0.0
  0
LINE
  5
17EE91
 67
     1
  8
PLATINE
 10
902.68859223028426
 20
3933.195879114141
 30
0.0
 11
902.68859224145763
 21
3960.4340856050171
 31
0.0
  0
POLYLINE
  5
17EE92
 67
     1
  8
PLATINE
 66
     1
 10
0.0
 20
0.0
 30
0.0
  0
VERTEX
  5
17FECE
 67
     1
  8
PLATINE
 10
689.40864815791565
 20
3942.6918775581612
 30
0.0
  0
VERTEX
  5
17FECF
 67
     1
  8
PLATINE
 10
690.36833503100365
 20
3941.4124635508151
 30
0.0
  0
VERTEX
  5
17FED0
 67
     1
  8
PLATINE
 10
690.45694241142985
 20
3941.3025195581599
 30
0.0
  0
VERTEX
  5
17FED1
 67
     1
  8
PLATINE
 10
692.11016741142987
 20
3939.93651155816
 30
0.0
  0
VERTEX
  5
17FED2
 67
     1
  8
PLATINE
 10
694.73953541142987
 20
3938.6425545581601
 30
0.0
  0
VERTEX
  5
17FED3
 67
     1
  8
PLATINE
 10
699.15734741143001
 20
3937.44532355816
 30
0.0
  0
VERTEX
  5
17FED4
 67
     1
  8
PLATINE
 10
706.46608241142985
 20
3936.02766255816
 30
0.0
  0
VERTEX
  5
17FED5
 67
     1
  8
PLATINE
 10
717.85507541142999
 20
3934.8491845581598
 30
0.0
  0
VERTEX
  5
17FED6
 67
     1
  8
PLATINE
 10
732.27317141142998
 20
3933.9125215581612
 30
0.0
  0
VERTEX
  5
17FED7
 67
     1
  8
PLATINE
 10
747.45388941142994
 20
3933.3976365581611
 30
0.0
  0
VERTEX
  5
17FED8
 67
     1
  8
PLATINE
 10
763.09422041142977
 20
3933.1936565581609
 30
0.0
  0
VERTEX
  5
17FED9
 67
     1
  8
PLATINE
 10
779.04446941142999
 20
3933.1660205581611
 30
0.0
  0
VERTEX
  5
17FEDA
 67
     1
  8
PLATINE
 10
795.21218741142991
 20
3933.1824705581612
 30
0.0
  0
VERTEX
  5
17FEDB
 67
     1
  8
PLATINE
 10
811.45689141142987
 20
3933.1798385581601
 30
0.0
  0
VERTEX
  5
17FEDC
 67
     1
  8
PLATINE
 10
827.70554341142986
 20
3933.1762195581609
 30
0.0
  0
VERTEX
  5
17FEDD
 67
     1
  8
PLATINE
 10
843.96801341142987
 20
3933.1775355581599
 30
0.0
  0
VERTEX
  5
17FEDE
 67
     1
  8
PLATINE
 10
860.21337541142998
 20
3933.1745745581611
 30
0.0
  0
VERTEX
  5
17FEDF
 67
     1
  8
PLATINE
 10
876.38142241142998
 20
3933.1706265581602
 30
0.0
  0
VERTEX
  5
17FEE0
 67
     1
  8
PLATINE
 10
892.55901041142988
 20
3933.1864185581599
 30
0.0
  0
VERTEX
  5
17FEE1
 67
     1
  8
PLATINE
 10
902.68859223028426
 20
3933.195879114141
 30
0.0
  0
SEQEND
  5
17FEE2
 67
     1
  8
PLATINE
  0
POLYLINE
  5
17EE93
 67
     1
  8
PLATINE
 66
     1
 10
0.0
 20
0.0
 30
0.0
  0
VERTEX
  5
17FEE3
 67
     1
  8
PLATINE
 10
902.68859224145763
 20
3960.4340856050171
 30
0.0
  0
VERTEX
  5
17FEE4
 67
     1
  8
PLATINE
 10
895.39038441142998
 20
3961.7505275581598
 30
0.0
  0
VERTEX
  5
17FEE5
 67
     1
  8
PLATINE
 10
880.02542641142986
 20
3964.2121055581611
 30
0.0
  0
VERTEX
  5
17FEE6
 67
     1
  8
PLATINE
 10
864.65487541142988
 20
3966.3765965581611
 30
0.0
  0
VERTEX
  5
17FEE7
 67
     1
  8
PLATINE
 10
849.31459241142977
 20
3968.2176805581612
 30
0.0
  0
VERTEX
  5
17FEE8
 67
     1
  8
PLATINE
 10
834.15624641142995
 20
3969.688310558161
 30
0.0
  0
VERTEX
  5
17FEE9
 67
     1
  8
PLATINE
 10
819.11173441142989
 20
3970.7483485581602
 30
0.0
  0
VERTEX
  5
17FEEA
 67
     1
  8
PLATINE
 10
803.80270641142988
 20
3971.38956955816
 30
0.0
  0
VERTEX
  5
17FEEB
 67
     1
  8
PLATINE
 10
788.1831024114299
 20
3971.6642845581609
 30
0.0
  0
VERTEX
  5
17FEEC
 67
     1
  8
PLATINE
 10
773.12707541142993
 20
3971.5882855581599
 30
0.0
  0
VERTEX
  5
17FEED
 67
     1
  8
PLATINE
 10
759.10706941142985
 20
3970.9457485581602
 30
0.0
  0
VERTEX
  5
17FEEE
 67
     1
  8
PLATINE
 10
745.49502341142988
 20
3969.4879495581599
 30
0.0
  0
VERTEX
  5
17FEEF
 67
     1
  8
PLATINE
 10
731.86093441142998
 20
3967.1652095581599
 30
0.0
  0
VERTEX
  5
17FEF0
 67
     1
  8
PLATINE
 10
719.19410541142986
 20
3964.1048515581601
 30
0.0
  0
VERTEX
  5
17FEF1
 67
     1
  8
PLATINE
 10
708.23281241142979
 20
3960.467756558161
 30
0.0
  0
VERTEX
  5
17FEF2
 67
     1
  8
PLATINE
 10
700.71713641142992
 20
3956.9898975581609
 30
0.0
  0
VERTEX
  5
17FEF3
 67
     1
  8
PLATINE
 10
695.99269641142985
 20
3953.8900595581599
 30
0.0
  0
VERTEX
  5
17FEF4
 67
     1
  8
PLATINE
 10
692.67473141143
 20
3951.0175605581599
 30
0.0
  0
VERTEX
  5
17FEF5
 67
     1
  8
PLATINE
 10
690.67309541142993
 20
3949.009673558161
 30
0.0
  0
VERTEX
  5
17FEF6
 67
     1
  8
PLATINE
 10
689.5169894114299
 20
3947.4975895581611
 30
0.0
  0
VERTEX
  5
17FEF7
 67
     1
  8
PLATINE
 10
689.12026205240329
 20
3946.6918775581612
 30
0.0
  0
SEQEND
  5
17FEF8
 67
     1
  8
PLATINE
  0
LINE
  5
17EE94
 67
     1
  8
PLATINE
 10
689.12026205240329
 20
3946.6918775581612
 30
0.0
 11
689.42256043393013
 21
3946.6918775581612
 31
0.0
  0
LINE
  5
17EE95
 67
     1
  8
PLATINE
 10
689.40864815791565
 20
3942.6918775581612
 30
0.0
 11
689.42256043393013
 21
3942.6918775581612
 31
0.0
  0
DIMENSION
  5
17EE96
 67
     1
  8
COTATION
  2
*D6
 10
868.37687860348365
 20
3987.1753187378222
 30
0.0
 11
885.53273542247075
 21
3987.1753187378222
 31
0.0
 12
135.81045690142719
 22
-10.52362984673937
 32
0.0
 13
902.68859224145763
 23
3960.4340856050171
 33
0.0
 14
868.37687860348365
 24
3965.8524616451591
 34
0.0
1001
ACAD
1000
DSTYLE
1002
{
1070
    47
1040
0.1
1070
    48
1040
0.1
1002
}
  0
DIMENSION
  5
17EE97
 67
     1
  8
COTATION
  2
*D7
 10
867.68859223125753
 20
3913.0142004006839
 30
0.0
 11
885.18859223251343
 21
3913.0142004006839
 31
0.0
 12
135.81045690142719
 22
-10.52362984673937
 32
0.0
 13
902.68859223376944
 23
3941.6918776392081
 33
0.0
 14
867.68859223125753
 24
3941.6918776627708
 34
0.0
1001
ACAD
1000
DSTYLE
1002
{
1070
    47
1040
0.1
1070
    48
1040
0.1
1002
}
  0
DIMENSION
  5
17EE98
 67
     1
  8
COTATION
  2
*D8
 10
824.18518086217534
 20
3974.1712502960108
 30
0.0
 11
831.16832932583645
 21
3982.1172359659658
 31
0.0
 12
135.81045690142719
 22
-10.52362984673937
 32
0.0
 70
   129
 13
868.37687860348365
 23
3965.8524616451591
 33
0.0
 14
854.21413740273533
 24
3948.973963938186
 34
0.0
1001
ACAD
1000
DSTYLE
1002
{
1070
    74
1070
     1
1070
    73
1070
     1
1070
    77
1070
     1
1002
}
  0
DIMENSION
  5
17EE99
 67
     1
  8
COTATION
  2
*D9
 10
912.91572697930758
 20
3941.6918776392081
 30
0.0
 11
925.80533888461866
 21
3944.6918775581598
 31
0.0
 12
135.81045690142719
 22
-10.52362984673937
 32
0.0
 70
   128
  1
%%C <>
 13
902.68859223623053
 23
3947.6918776391908
 33
0.0
 14
902.68859223376944
 24
3941.6918776392081
 34
0.0
 50
90.0
1001
ACAD
1000
DSTYLE
1002
{
1070
    71
1070
     0
1070
    74
1070
     1
1070
    73
1070
     1
1070
    77
1070
     1
1002
}
  0
DIMENSION
  5
17EE9B
 67
     1
  8
COTATION
  2
*D10
 10
688.65862841142985
 20
4010.4248558534669
 30
0.0
 11
795.67361032644385
 21
4010.4248558534669
 31
0.0
 12
135.81045690142719
 22
-10.52362984673937
 32
0.0
 13
902.68859224145763
 23
3960.4340856050171
 33
0.0
 14
688.65862841142985
 24
3944.6918775581598
 34
0.0
1001
ACAD
1000
DSTYLE
1002
{
1070
    47
1040
0.1
1070
    48
1040
0.1
1002
}
  0
DIMENSION
  5
17EE9C
 67
     1
  8
COTATION
  2
*D11
 10
871.01607341255158
 20
3972.1091791941431
 30
0.0
 11
877.15960492547276
 21
3977.2951729382339
 31
0.0
 12
135.81045690142719
 22
-10.52362984673937
 32
0.0
 70
   129
  1
%%C <>
 13
870.7117936510931
 23
3965.5236573878292
 33
0.0
 14
867.64761587861699
 24
3968.0948078265751
 34
0.0
1001
ACAD
1000
DSTYLE
1002
{
1070
    71
1070
     0
1070
    74
1070
     1
1070
    73
1070
     1
1070
    77
1070
     1
1002
}
  0
DIMENSION
  5
17EE9D
 67
     1
  8
COTATION
  2
*D12
 10
676.87915812823519
 20
3933.1936565581609
 30
0.0
 11
676.87915812823519
 21
3952.3909710581611
 31
0.0
 12
135.81045690142719
 22
-10.52362984673937
 32
0.0
 13
773.12707541142993
 23
3971.5882855581599
 33
0.0
 14
763.09422041142977
 24
3933.1936565581609
 34
0.0
 50
90.0
1001
ACAD
1000
DSTYLE
1002
{
1070
    74
1070
     1
1070
    73
1070
     1
1070
    77
1070
     1
1002
}
  0
DIMENSION
  5
17F044
 67
     1
  8
COTATION
  2
*D102
 10
943.95966398740643
 20
3944.6918775581598
 30
0.0
 11
875.59561429851567
 21
3956.3377126725532
 31
0.0
 70
     2
 13
844.96657743114758
 23
3937.9531511193172
 33
0.0
 14
876.39397578348235
 24
3975.4068660115981
 34
0.0
 15
688.65862841143007
 25
3944.6918775581598
 35
0.0
 16
871.27183918238018
 26
3950.8743208951951
 36
0.0
1001
ACAD
1000
DSTYLE
1002
{
1070
   271
1070
     0
1070
    47
1040
0.1
1070
    48
1040
0.1
1070
   272
1070
     0
1070
   271
1070
     0
1002
}
  0
TEXT
  5
17F304
 67
     1
  8
CHARIOT
 10
1064.955291548046
 20
3699.7136554824392
 30
0.0
 40
6.099954642209922
  1
DECOUPE PROFIL ep 8
  7
MONOTXT
  0
TEXT
  5
17F31F
 67
     1
  8
CHARIOT
 10
1039.384889800948
 20
3692.0143738951228
 30
0.0
 40
3.5244584317147201
  1
perimètre 477.5 mm  surface 7034 mm^ 2
  7
MONOTXT
  0
POLYLINE
  5
17F508
 67
     1
  8
FONDPLAN
 66
     1
 10
0.0
 20
0.0
 30
0.0
 70
     1
  0
VERTEX
  5
17FF05
 67
     1
  8
FONDPLAN
 10
661.47746324043726
 20
3836.743199467393
 30
0.0
  0
VERTEX
  5
17FF06
 67
     1
  8
FONDPLAN
 10
661.47746324043726
 20
4044.4931994673921
 30
0.0
  0
VERTEX
  5
17FF07
 67
     1
  8
FONDPLAN
 10
961.47746324043737
 20
4044.4931994673921
 30
0.0
  0
VERTEX
  5
17FF08
 67
     1
  8
FONDPLAN
 10
961.47746324043737
 20
3836.743199467393
 30
0.0
  0
SEQEND
  5
17FF09
 67
     1
  8
FONDPLAN
  0
TEXT
  5
17F509
 67
     1
  8
FONDPLAN
 10
824.056737804965
 20
3839.0653923712698
 30
0.0
 40
9.6123617385888558
  1
Platine Perfo+
  0
TEXT
  5
17F50A
 67
     1
  8
FONDPLAN
 10
895.30673780496511
 20
3852.997352178093
 30
0.0
 40
4.806180869294427
  1
Ech 1
  0
TEXT
  5
17F50B
 67
     1
  8
FONDPLAN
 10
895.30673780496511
 20
3860.497352178093
 30
0.0
 40
4.806180869294427
  1
Marc Lemaitre
  0
LINE
  5
17F50C
 67
     1
  8
FONDPLAN
 10
818.97746324043737
 20
3851.743199467393
 30
0.0
 11
961.47746324043737
 21
3851.743199467393
 31
0.0
  0
LINE
  5
17F50D
 67
     1
  8
FONDPLAN
 10
818.97746324043737
 20
3859.243199467393
 30
0.0
 11
961.47746324043737
 21
3859.243199467393
 31
0.0
  0
LINE
  5
17F50E
 67
     1
  8
FONDPLAN
 10
818.97746324043737
 20
3836.743199467393
 30
0.0
 11
961.47746324043737
 21
3836.743199467393
 31
0.0
  0
LINE
  5
17F50F
 67
     1
  8
FONDPLAN
 10
961.47746324043737
 20
3866.743199467393
 30
0.0
 11
818.97746324043737
 21
3866.743199467393
 31
0.0
  0
TEXT
  5
17F510
 67
     1
  8
FONDPLAN
 10
824.056737804965
 20
3860.497352178093
 30
0.0
 40
4.806180869294427
  1
Date: 8/11/99
  0
TEXT
  5
17F511
 67
     1
  8
FONDPLAN
 10
824.056737804965
 20
3852.997352178093
 30
0.0
 40
4.806180869294427
  1
Parab'aile
  0
LINE
  5
17F512
 67
     1
  8
FONDPLAN
 10
818.97746324043737
 20
3866.743199467393
 30
0.0
 11
818.97746324043737
 21
3836.743199467393
 31
0.0
  0
LINE
  5
17F513
 67
     1
  8
FONDPLAN
 10
890.22746324043737
 20
3866.743199467393
 30
0.0
 11
890.22746324043737
 21
3851.743199467393
 31
0.0
  0
CIRCLE
  5
17F514
 67
     1
  8
FONDPLAN
 10
936.38341807570976
 20
3855.493199467393
 30
0.0
 40
2.9509660459880389
  0
LINE
  5
17F515
 67
     1
  8
FONDPLAN
 10
931.32311603349126
 20
3855.493199467393
 30
0.0
 11
957.88181044738371
 21
3855.493199467393
 31
0.0
  0
LINE
  5
17F516
 67
     1
  8
FONDPLAN
 10
927.72746324043737
 20
3859.243199467393
 30
0.0
 11
927.72746324043737
 21
3851.743199467393
 31
0.0
  0
LINE
  5
17F517
 67
     1
  8
FONDPLAN
 10
946.6878460664451
 20
3852.5422334214049
 30
0.0
 11
953.99557816191555
 21
3853.7226198397998
 31
0.0
  0
LINE
  5
17F518
 67
     1
  8
FONDPLAN
 10
946.6878460664451
 20
3852.5422334214049
 30
0.0
 11
946.6878460664451
 21
3858.444165513381
 31
0.0
  0
LINE
  5
17F519
 67
     1
  8
FONDPLAN
 10
936.38341807570976
 20
3851.9520402122071
 30
0.0
 11
936.38341807570976
 21
3859.034358722578
 31
0.0
  0
LINE
  5
17F51A
 67
     1
  8
FONDPLAN
 10
946.6878460664451
 20
3858.444165513381
 30
0.0
 11
953.99557816191555
 21
3857.2637790949848
 31
0.0
  0
CIRCLE
  5
17F51B
 67
     1
  8
FONDPLAN
 10
936.38341807570976
 20
3855.493199467393
 30
0.0
 40
1.7705796275928229
  0
LINE
  5
17F51C
 67
     1
  8
FONDPLAN
 10
953.99557816191555
 20
3853.7226198397998
 30
0.0
 11
953.99557816191555
 21
3857.2637790949848
 31
0.0
  0
LINE
  5
17F51D
 67
     1
  8
FONDPLAN
 10
961.47746324043737
 20
3836.743199467393
 30
0.0
 11
961.47746324043737
 21
3866.743199467393
 31
0.0
  0
POLYLINE
  5
17F51E
 67
     1
  8
FONDPLAN
 66
     1
 10
0.0
 20
0.0
 30
0.0
 70
     1
  0
VERTEX
  5
17FF0A
 67
     1
  8
FONDPLAN
 10
659.97746324043737
 20
3835.243199467393
 30
0.0
  0
VERTEX
  5
17FF0B
 67
     1
  8
FONDPLAN
 10
659.97746324043737
 20
4045.9931994673921
 30
0.0
  0
VERTEX
  5
17FF0C
 67
     1
  8
FONDPLAN
 10
962.97746324043726
 20
4045.9931994673921
 30
0.0
  0
VERTEX
  5
17FF0D
 67
     1
  8
FONDPLAN
 10
962.97746324043726
 20
3835.243199467393
 30
0.0
  0
SEQEND
  5
17FF0E
 67
     1
  8
FONDPLAN
  0
POLYLINE
  5
17F525
 67
     1
  8
FONDPLAN
 66
     1
 10
0.0
 20
0.0
 30
0.0
 70
     1
  0
VERTEX
  5
17FF0F
 67
     1
  8
FONDPLAN
 10
966.56044408839648
 20
3854.030633330256
 30
0.0
  0
VERTEX
  5
17FF10
 67
     1
  8
FONDPLAN
 10
966.56044408839648
 20
4046.00093035996
 30
0.0
  0
VERTEX
  5
17FF11
 67
     1
  8
FONDPLAN
 10
1242.5604440883969
 20
4046.00093035996
 30
0.0
  0
VERTEX
  5
17FF12
 67
     1
  8
FONDPLAN
 10
1242.5604440883969
 20
3854.030633330256
 30
0.0
  0
SEQEND
  5
17FF13
 67
     1
  8
FONDPLAN
  0
POLYLINE
  5
17F526
 67
     1
  8
FONDPLAN
 66
     1
 10
0.0
 20
0.0
 30
0.0
 70
     1
  0
VERTEX
  5
17FF14
 67
     1
  8
FONDPLAN
 10
967.92678072206002
 20
3855.3969699639201
 30
0.0
  0
VERTEX
  5
17FF15
 67
     1
  8
FONDPLAN
 10
967.92678072206002
 20
4044.634593726295
 30
0.0
  0
VERTEX
  5
17FF16
 67
     1
  8
FONDPLAN
 10
1241.1941074547331
 20
4044.634593726295
 30
0.0
  0
VERTEX
  5
17FF17
 67
     1
  8
FONDPLAN
 10
1241.1941074547331
 20
3855.3969699639201
 30
0.0
  0
SEQEND
  5
17FF18
 67
     1
  8
FONDPLAN
  0
TEXT
  5
17F527
 67
     1
  8
FONDPLAN
 10
1130.372834320623
 20
3869.754644636695
 30
0.0
 40
5.0
  1
Parab'aile
  7
ZSYS
  0
TEXT
  5
17F528
 67
     1
  8
FONDPLAN
 10
1116.0187931966791
 20
3877.0344159974302
 30
0.0
 40
5.0
  1
Date: 8/11/99
  7
ZSYS
  0
LINE
  5
17F529
 67
     1
  8
FONDPLAN
 10
1241.1941074547331
 20
3882.7237026371872
 30
0.0
 11
1111.3921272567129
 21
3882.7237026371872
 31
0.0
  0
LINE
  5
17F52A
 67
     1
  8
FONDPLAN
 10
1111.3921272567129
 20
3875.8920194688699
 30
0.0
 11
1241.1941074547331
 21
3875.8920194688699
 31
0.0
  0
LINE
  5
17F52B
 67
     1
  8
FONDPLAN
 10
1111.3921272567129
 20
3869.060336300553
 30
0.0
 11
1241.1941074547331
 21
3869.060336300553
 31
0.0
  0
TEXT
  5
17F52C
 67
     1
  8
FONDPLAN
 10
1127.232889086365
 20
3857.5122347872539
 30
0.0
 40
10.0
  1
Nervure Perfo+
  7
ZSYS
  0
LINE
  5
17F52D
 67
     1
  8
FONDPLAN
 10
1111.3921272567129
 20
3882.7237026371872
 30
0.0
 11
1111.3921272567129
 21
3855.3969699639201
 31
0.0
  0
LINE
  5
17F52E
 67
     1
  8
FONDPLAN
 10
1213.72678128603
 20
3872.4761778847119
 30
0.0
 11
1237.918859366011
 21
3872.4761778847119
 31
0.0
  0
TEXT
  5
17F52F
 67
     1
  8
FONDPLAN
 10
1180.9197832956891
 20
3877.0344159974302
 30
0.0
 40
5.0
  1
Z SYSTEME
  7
ZSYS
  0
LINE
  5
17F530
 67
     1
  8
FONDPLAN
 10
1176.2931173557231
 20
3882.7237026371872
 30
0.0
 11
1176.2931173557231
 21
3869.060336300553
 31
0.0
  0
TEXT
  5
17F531
 67
     1
  8
FONDPLAN
 10
1180.9197832956891
 20
3869.9786892805319
 30
0.0
 40
5.0
  1
Ech 1
  7
ZSYS
  0
LINE
  5
17F532
 67
     1
  8
FONDPLAN
 10
1210.4515331973071
 20
3875.8920194688699
 30
0.0
 11
1210.4515331973071
 21
3869.060336300553
 31
0.0
  0
CIRCLE
  5
17F533
 67
     1
  8
FONDPLAN
 10
1218.336165324486
 20
3872.4761778847119
 30
0.0
 40
1.6128052053320761
  0
LINE
  5
17F534
 67
     1
  8
FONDPLAN
 10
1218.336165324486
 20
3869.2505674740478
 30
0.0
 11
1218.336165324486
 21
3875.701788295376
 31
0.0
  0
CIRCLE
  5
17F535
 67
     1
  8
FONDPLAN
 10
1218.336165324486
 20
3872.4761778847119
 30
0.0
 40
2.6880086755534611
  0
LINE
  5
17F536
 67
     1
  8
FONDPLAN
 10
1234.378925006971
 20
3870.8633726793801
 30
0.0
 11
1234.378925006971
 21
3874.0889830900442
 31
0.0
  0
LINE
  5
17F537
 67
     1
  8
FONDPLAN
 10
1227.722376959611
 20
3875.1641865602651
 30
0.0
 11
1234.378925006971
 21
3874.0889830900442
 31
0.0
  0
LINE
  5
17F538
 67
     1
  8
FONDPLAN
 10
1227.722376959611
 20
3869.7881692091592
 30
0.0
 11
1227.722376959611
 21
3875.1641865602651
 31
0.0
  0
LINE
  5
17F539
 67
     1
  8
FONDPLAN
 10
1227.722376959611
 20
3869.7881692091592
 30
0.0
 11
1234.378925006971
 21
3870.8633726793801
 31
0.0
  0
LINE
  5
17F53A
 67
     1
  8
FONDPLAN
 10
1241.1941074547331
 20
3855.3969699639201
 30
0.0
 11
1241.1941074547331
 21
3882.7237026371872
 31
0.0
  0
POLYLINE
  5
17F540
 67
     1
  8
PLATINE
 62
     7
 66
     1
 10
0.0
 20
0.0
 30
0.0
  0
VERTEX
  5
17FF19
 67
     1
  8
PLATINE
 62
     7
 10
1209.147308918328
 20
3970.9577154517569
 30
0.0
  0
VERTEX
  5
17FF1A
 67
     1
  8
PLATINE
 62
     7
 10
1201.8491010882999
 20
3972.2741574049001
 30
0.0
  0
VERTEX
  5
17FF1B
 67
     1
  8
PLATINE
 62
     7
 10
1186.4841430883
 20
3974.7357354049
 30
0.0
  0
VERTEX
  5
17FF1C
 67
     1
  8
PLATINE
 62
     7
 10
1171.1135920883
 20
3976.9002264048991
 30
0.0
  0
VERTEX
  5
17FF1D
 67
     1
  8
PLATINE
 62
     7
 10
1155.7733090883
 20
3978.7413104049001
 30
0.0
  0
VERTEX
  5
17FF1E
 67
     1
  8
PLATINE
 62
     7
 10
1140.6149630883001
 20
3980.2119404048999
 30
0.0
  0
VERTEX
  5
17FF1F
 67
     1
  8
PLATINE
 62
     7
 10
1125.5704510882999
 20
3981.2719784049
 30
0.0
  0
VERTEX
  5
17FF20
 67
     1
  8
PLATINE
 62
     7
 10
1110.2614230883
 20
3981.9131994048998
 30
0.0
  0
VERTEX
  5
17FF21
 67
     1
  8
PLATINE
 62
     7
 10
1094.6418190883001
 20
3982.1879144048999
 30
0.0
  0
VERTEX
  5
17FF22
 67
     1
  8
PLATINE
 62
     7
 10
1079.5857920883
 20
3982.1119154049002
 30
0.0
  0
VERTEX
  5
17FF23
 67
     1
  8
PLATINE
 62
     7
 10
1065.5657860883
 20
3981.4693784049
 30
0.0
  0
VERTEX
  5
17FF24
 67
     1
  8
PLATINE
 62
     7
 10
1051.9537400883
 20
3980.0115794049002
 30
0.0
  0
VERTEX
  5
17FF25
 67
     1
  8
PLATINE
 62
     7
 10
1038.319651088301
 20
3977.6888394049001
 30
0.0
  0
VERTEX
  5
17FF26
 67
     1
  8
PLATINE
 62
     7
 10
1025.6528220882999
 20
3974.6284814049
 30
0.0
  0
VERTEX
  5
17FF27
 67
     1
  8
PLATINE
 62
     7
 10
1014.6915290882999
 20
3970.991386404899
 30
0.0
  0
VERTEX
  5
17FF28
 67
     1
  8
PLATINE
 62
     7
 10
1007.1758530883
 20
3967.5135274048998
 30
0.0
  0
VERTEX
  5
17FF29
 67
     1
  8
PLATINE
 62
     7
 10
1002.4514130883
 20
3964.4136894049002
 30
0.0
  0
VERTEX
  5
17FF2A
 67
     1
  8
PLATINE
 62
     7
 10
999.13344808830061
 20
3961.5411904049001
 30
0.0
  0
VERTEX
  5
17FF2B
 67
     1
  8
PLATINE
 62
     7
 10
997.13181208830053
 20
3959.5333034048999
 30
0.0
  0
VERTEX
  5
17FF2C
 67
     1
  8
PLATINE
 62
     7
 10
995.97570608830051
 20
3958.0212194049
 30
0.0
  0
VERTEX
  5
17FF2D
 67
     1
  8
PLATINE
 62
     7
 10
995.57897872927401
 20
3957.2155074049001
 30
0.0
  0
SEQEND
  5
17FF2E
 67
     1
  8
PLATINE
 62
     7
  0
POLYLINE
  5
17F541
 67
     1
  8
PLATINE
 62
     7
 66
     1
 10
0.0
 20
0.0
 30
0.0
  0
VERTEX
  5
17FF2F
 67
     1
  8
PLATINE
 62
     7
 10
995.86736483478626
 20
3953.2155074049001
 30
0.0
  0
VERTEX
  5
17FF30
 67
     1
  8
PLATINE
 62
     7
 10
996.82705170787415
 20
3951.936093397554
 30
0.0
  0
VERTEX
  5
17FF31
 67
     1
  8
PLATINE
 62
     7
 10
996.91565908830057
 20
3951.8261494048988
 30
0.0
  0
VERTEX
  5
17FF32
 67
     1
  8
PLATINE
 62
     7
 10
998.56888408830048
 20
3950.4601414048989
 30
0.0
  0
VERTEX
  5
17FF33
 67
     1
  8
PLATINE
 62
     7
 10
1001.1982520883
 20
3949.1661844048999
 30
0.0
  0
VERTEX
  5
17FF34
 67
     1
  8
PLATINE
 62
     7
 10
1005.6160640883
 20
3947.9689534048989
 30
0.0
  0
VERTEX
  5
17FF35
 67
     1
  8
PLATINE
 62
     7
 10
1012.9247990883
 20
3946.5512924048999
 30
0.0
  0
VERTEX
  5
17FF36
 67
     1
  8
PLATINE
 62
     7
 10
1024.3137920883
 20
3945.3728144049001
 30
0.0
  0
VERTEX
  5
17FF37
 67
     1
  8
PLATINE
 62
     7
 10
1038.7318880882999
 20
3944.4361514049001
 30
0.0
  0
VERTEX
  5
17FF38
 67
     1
  8
PLATINE
 62
     7
 10
1053.9126060883
 20
3943.9212664049001
 30
0.0
  0
VERTEX
  5
17FF39
 67
     1
  8
PLATINE
 62
     7
 10
1069.5529370883
 20
3943.7172864048998
 30
0.0
  0
VERTEX
  5
17FF3A
 67
     1
  8
PLATINE
 62
     7
 10
1085.5031860883
 20
3943.6896504049
 30
0.0
  0
VERTEX
  5
17FF3B
 67
     1
  8
PLATINE
 62
     7
 10
1101.6709040882999
 20
3943.7061004049001
 30
0.0
  0
VERTEX
  5
17FF3C
 67
     1
  8
PLATINE
 62
     7
 10
1117.9156080882999
 20
3943.7034684048999
 30
0.0
  0
VERTEX
  5
17FF3D
 67
     1
  8
PLATINE
 62
     7
 10
1134.1642600882999
 20
3943.6998494048989
 30
0.0
  0
VERTEX
  5
17FF3E
 67
     1
  8
PLATINE
 62
     7
 10
1150.4267300883
 20
3943.7011654048988
 30
0.0
  0
VERTEX
  5
17FF3F
 67
     1
  8
PLATINE
 62
     7
 10
1166.6720920882999
 20
3943.6982044049009
 30
0.0
  0
VERTEX
  5
17FF40
 67
     1
  8
PLATINE
 62
     7
 10
1182.8401390883
 20
3943.6942564049
 30
0.0
  0
VERTEX
  5
17FF41
 67
     1
  8
PLATINE
 62
     7
 10
1199.0177270883
 20
3943.7100484049001
 30
0.0
  0
VERTEX
  5
17FF42
 67
     1
  8
PLATINE
 62
     7
 10
1209.1473089071551
 20
3943.719508960879
 30
0.0
  0
SEQEND
  5
17FF43
 67
     1
  8
PLATINE
 62
     7
  0
LINE
  5
17F542
 67
     1
  8
PLATINE
  6
AXESX2
 62
     7
 10
995.11734508830045
 20
3955.2155074049001
 30
0.0
 11
1209.1473089118699
 21
3955.215507404901
 31
0.0
  0
LINE
  5
17F554
 67
     1
  8
PLATINE
 62
     7
 10
995.86736483478626
 20
3953.2155074049001
 30
0.0
 11
995.88127711080074
 21
3953.2155074049001
 31
0.0
  0
LINE
  5
17F555
 67
     1
  8
PLATINE
 62
     7
 10
995.57897872927401
 20
3957.2155074049001
 30
0.0
 11
995.88127711080074
 21
3957.2155074049001
 31
0.0
  0
ARC
  5
17F556
 67
     1
  8
PLATINE
 62
     7
 10
998.11734508830034
 20
3955.2155074049001
 30
0.0
 40
3.0
 50
221.81031489577859
 51
138.18968510422141
  0
LINE
  5
17F576
 67
     1
  8
PLATINE
  6
CACHE
 62
     7
 10
1174.147308908128
 20
3952.2155075095111
 30
0.0
 11
1209.14730891064
 21
3952.2155074859479
 31
0.0
  0
LINE
  5
17F577
 67
     1
  8
PLATINE
  6
CACHE
 62
     7
 10
1174.1473089105889
 20
3958.2155075095111
 30
0.0
 11
1209.1473089131009
 21
3958.2155074859302
 31
0.0
  0
LINE
  5
17F579
 67
     1
  8
PLATINE
  6
CACHE
 62
     7
 10
1174.147308908128
 20
3958.2155075095111
 30
0.0
 11
1172.415258100559
 21
3955.2155075095111
 31
0.0
  0
LINE
  5
17F57A
 67
     1
  8
PLATINE
  6
CACHE
 62
     7
 10
1174.147308908128
 20
3952.2155075095111
 30
0.0
 11
1172.415258100559
 21
3955.2155075095111
 31
0.0
  0
LINE
  5
17F57B
 67
     1
  8
PLATINE
  6
CACHE
 62
     7
 10
1162.2049429658441
 20
3958.2120185655508
 30
0.0
 11
1177.1705103279639
 21
3976.0472872345681
 31
0.0
  0
LINE
  5
17F57C
 67
     1
  8
PLATINE
  6
AXESX2
 62
     7
 10
1151.4252941080181
 20
3948.4767809660561
 30
0.0
 11
1182.852692460353
 21
3985.930495858338
 31
0.0
  0
LINE
  5
17F57F
 67
     1
  8
PLATINE
  6
CACHE
 62
     7
 10
1162.2049429658441
 20
3958.2120185655508
 30
0.0
 11
1159.140765193368
 21
3960.783169004299
 31
0.0
  0
LINE
  5
17F580
 67
     1
  8
PLATINE
  6
CACHE
 62
     7
 10
1160.03006646992
 20
3958.731549341805
 30
0.0
 11
1162.2049429658441
 21
3958.2120185655508
 31
0.0
  0
LINE
  5
17F581
 67
     1
  8
PLATINE
  6
CACHE
 62
     7
 10
1159.1407651933689
 20
3960.783169004299
 30
0.0
 11
1172.500680232745
 21
3976.7048957492289
 31
0.0
  0
LINE
  5
17F582
 67
     1
  8
PLATINE
  6
CACHE
 62
     7
 10
1159.1407651933689
 20
3960.783169004299
 30
0.0
 11
1160.03006646992
 21
3958.731549341805
 31
0.0
  0
LINE
  5
17F583
 67
     1
  8
PLATINE
  6
CACHE
 62
     7
 10
1174.147308908128
 20
3952.2155075095111
 30
0.0
 11
1174.1473089109491
 21
3958.2155075095111
 31
0.0
  0
LINE
  5
17F58A
 67
     1
  8
PLATINE
 62
     7
 10
1209.1473089071551
 20
3943.719508960879
 30
0.0
 11
1209.147308918328
 21
3970.9577154517569
 31
0.0
  0
DIMENSION
  5
17F745
 67
     1
  8
CHARIOT
  2
*D37
 10
1209.1473089071551
 20
3927.7766254100829
 30
0.0
 11
1102.132326997727
 21
3931.7766254100829
 31
0.0
 13
995.11734508830045
 23
3955.2155074049001
 33
0.0
 14
1209.1473089071551
 24
3943.719508960879
 34
0.0
1001
ACAD
1000
DSTYLE
1002
{
1070
    71
1070
     0
1070
    74
1070
     1
1070
    73
1070
     1
1070
    77
1070
     1
1002
}
  0
POLYLINE
  5
17F74B
 67
     1
  8
FONDPLAN
 66
     1
 10
0.0
 20
0.0
 30
0.0
 70
     1
  0
VERTEX
  5
17FF6F
 67
     1
  8
FONDPLAN
 10
967.92678072206002
 20
3654.1800582710789
 30
0.0
  0
VERTEX
  5
17FF70
 67
     1
  8
FONDPLAN
 10
967.92678072206002
 20
3843.4176820334551
 30
0.0
  0
VERTEX
  5
17FF71
 67
     1
  8
FONDPLAN
 10
1241.1941074547331
 20
3843.4176820334551
 30
0.0
  0
VERTEX
  5
17FF72
 67
     1
  8
FONDPLAN
 10
1241.1941074547331
 20
3654.1800582710789
 30
0.0
  0
SEQEND
  5
17FF73
 67
     1
  8
FONDPLAN
  0
DIMENSION
  5
17F74C
 67
     1
  8
CHARIOT
  2
*D38
 10
1209.1473089071551
 20
3726.5597137172422
 30
0.0
 11
1102.132326997727
 21
3730.5597137172422
 31
0.0
 12
0.0
 22
-201.21691169284119
 32
0.0
 13
995.11734508830045
 23
3753.998595712058
 33
0.0
 14
1209.1473089071551
 24
3742.5025972680378
 34
0.0
1001
ACAD
1000
DSTYLE
1002
{
1070
    71
1070
     0
1070
    74
1070
     1
1070
    73
1070
     1
1070
    77
1070
     1
1002
}
  0
LINE
  5
17F74D
 67
     1
  8
PLATINE
  6
AXESX2
 62
     7
 10
995.11734508830045
 20
3753.998595712058
 30
0.0
 11
1209.1473089118699
 21
3753.9985957120589
 31
0.0
  0
POLYLINE
  5
17F74E
 67
     1
  8
PLATINE
 62
     7
 66
     1
 10
0.0
 20
0.0
 30
0.0
  0
VERTEX
  5
17FF74
 67
     1
  8
PLATINE
 62
     7
 10
995.86736483478626
 20
3751.998595712058
 30
0.0
  0
VERTEX
  5
17FF75
 67
     1
  8
PLATINE
 62
     7
 10
996.82705170787415
 20
3750.7191817047128
 30
0.0
  0
VERTEX
  5
17FF76
 67
     1
  8
PLATINE
 62
     7
 10
996.91565908830057
 20
3750.6092377120581
 30
0.0
  0
VERTEX
  5
17FF77
 67
     1
  8
PLATINE
 62
     7
 10
998.56888408830048
 20
3749.2432297120581
 30
0.0
  0
VERTEX
  5
17FF78
 67
     1
  8
PLATINE
 62
     7
 10
1001.1982520883
 20
3747.9492727120592
 30
0.0
  0
VERTEX
  5
17FF79
 67
     1
  8
PLATINE
 62
     7
 10
1005.6160640883
 20
3746.7520417120591
 30
0.0
  0
VERTEX
  5
17FF7A
 67
     1
  8
PLATINE
 62
     7
 10
1012.9247990883
 20
3745.3343807120591
 30
0.0
  0
VERTEX
  5
17FF7B
 67
     1
  8
PLATINE
 62
     7
 10
1024.3137920883
 20
3744.1559027120588
 30
0.0
  0
VERTEX
  5
17FF7C
 67
     1
  8
PLATINE
 62
     7
 10
1038.7318880882999
 20
3743.2192397120589
 30
0.0
  0
VERTEX
  5
17FF7D
 67
     1
  8
PLATINE
 62
     7
 10
1053.9126060883
 20
3742.7043547120588
 30
0.0
  0
VERTEX
  5
17FF7E
 67
     1
  8
PLATINE
 62
     7
 10
1069.5529370883
 20
3742.5003747120581
 30
0.0
  0
VERTEX
  5
17FF7F
 67
     1
  8
PLATINE
 62
     7
 10
1085.5031860883
 20
3742.4727387120588
 30
0.0
  0
VERTEX
  5
17FF80
 67
     1
  8
PLATINE
 62
     7
 10
1101.6709040882999
 20
3742.4891887120589
 30
0.0
  0
VERTEX
  5
17FF81
 67
     1
  8
PLATINE
 62
     7
 10
1117.9156080882999
 20
3742.4865567120592
 30
0.0
  0
VERTEX
  5
17FF82
 67
     1
  8
PLATINE
 62
     7
 10
1134.1642600882999
 20
3742.4829377120582
 30
0.0
  0
VERTEX
  5
17FF83
 67
     1
  8
PLATINE
 62
     7
 10
1150.4267300883
 20
3742.4842537120589
 30
0.0
  0
VERTEX
  5
17FF84
 67
     1
  8
PLATINE
 62
     7
 10
1166.6720920882999
 20
3742.4812927120588
 30
0.0
  0
VERTEX
  5
17FF85
 67
     1
  8
PLATINE
 62
     7
 10
1182.8401390883
 20
3742.4773447120592
 30
0.0
  0
VERTEX
  5
17FF86
 67
     1
  8
PLATINE
 62
     7
 10
1199.0177270883
 20
3742.4931367120589
 30
0.0
  0
VERTEX
  5
17FF87
 67
     1
  8
PLATINE
 62
     7
 10
1209.1473089071551
 20
3742.5025972680378
 30
0.0
  0
SEQEND
  5
17FF88
 67
     1
  8
PLATINE
 62
     7
  0
POLYLINE
  5
17F74F
 67
     1
  8
PLATINE
 62
     7
 66
     1
 10
0.0
 20
0.0
 30
0.0
  0
VERTEX
  5
17FF89
 67
     1
  8
PLATINE
 62
     7
 10
1209.147308918328
 20
3769.7408037589162
 30
0.0
  0
VERTEX
  5
17FF8A
 67
     1
  8
PLATINE
 62
     7
 10
1201.8491010882999
 20
3771.0572457120588
 30
0.0
  0
VERTEX
  5
17FF8B
 67
     1
  8
PLATINE
 62
     7
 10
1186.4841430883
 20
3773.5188237120592
 30
0.0
  0
VERTEX
  5
17FF8C
 67
     1
  8
PLATINE
 62
     7
 10
1171.1135920883
 20
3775.6833147120578
 30
0.0
  0
VERTEX
  5
17FF8D
 67
     1
  8
PLATINE
 62
     7
 10
1155.7733090883
 20
3777.5243987120589
 30
0.0
  0
VERTEX
  5
17FF8E
 67
     1
  8
PLATINE
 62
     7
 10
1140.6149630883001
 20
3778.9950287120591
 30
0.0
  0
VERTEX
  5
17FF8F
 67
     1
  8
PLATINE
 62
     7
 10
1125.5704510882999
 20
3780.0550667120579
 30
0.0
  0
VERTEX
  5
17FF90
 67
     1
  8
PLATINE
 62
     7
 10
1110.2614230883
 20
3780.6962877120582
 30
0.0
  0
VERTEX
  5
17FF91
 67
     1
  8
PLATINE
 62
     7
 10
1094.6418190883001
 20
3780.9710027120591
 30
0.0
  0
VERTEX
  5
17FF92
 67
     1
  8
PLATINE
 62
     7
 10
1079.5857920883
 20
3780.895003712058
 30
0.0
  0
VERTEX
  5
17FF93
 67
     1
  8
PLATINE
 62
     7
 10
1065.5657860883
 20
3780.2524667120588
 30
0.0
  0
VERTEX
  5
17FF94
 67
     1
  8
PLATINE
 62
     7
 10
1051.9537400883
 20
3778.794667712059
 30
0.0
  0
VERTEX
  5
17FF95
 67
     1
  8
PLATINE
 62
     7
 10
1038.319651088301
 20
3776.4719277120589
 30
0.0
  0
VERTEX
  5
17FF96
 67
     1
  8
PLATINE
 62
     7
 10
1025.6528220882999
 20
3773.4115697120592
 30
0.0
  0
VERTEX
  5
17FF97
 67
     1
  8
PLATINE
 62
     7
 10
1014.6915290882999
 20
3769.7744747120578
 30
0.0
  0
VERTEX
  5
17FF98
 67
     1
  8
PLATINE
 62
     7
 10
1007.1758530883
 20
3766.2966157120591
 30
0.0
  0
VERTEX
  5
17FF99
 67
     1
  8
PLATINE
 62
     7
 10
1002.4514130883
 20
3763.196777712059
 30
0.0
  0
VERTEX
  5
17FF9A
 67
     1
  8
PLATINE
 62
     7
 10
999.13344808830061
 20
3760.324278712058
 30
0.0
  0
VERTEX
  5
17FF9B
 67
     1
  8
PLATINE
 62
     7
 10
997.13181208830053
 20
3758.3163917120592
 30
0.0
  0
VERTEX
  5
17FF9C
 67
     1
  8
PLATINE
 62
     7
 10
995.97570608830051
 20
3756.8043077120592
 30
0.0
  0
VERTEX
  5
17FF9D
 67
     1
  8
PLATINE
 62
     7
 10
995.57897872927401
 20
3755.9985957120589
 30
0.0
  0
SEQEND
  5
17FF9E
 67
     1
  8
PLATINE
 62
     7
  0
POLYLINE
  5
17F750
 67
     1
  8
FONDPLAN
 66
     1
 10
0.0
 20
0.0
 30
0.0
 70
     1
  0
VERTEX
  5
17FF9F
 67
     1
  8
FONDPLAN
 10
966.56044408839648
 20
3652.8137216374139
 30
0.0
  0
VERTEX
  5
17FFA0
 67
     1
  8
FONDPLAN
 10
966.56044408839648
 20
3844.7840186671192
 30
0.0
  0
VERTEX
  5
17FFA1
 67
     1
  8
FONDPLAN
 10
1242.5604440883969
 20
3844.7840186671192
 30
0.0
  0
VERTEX
  5
17FFA2
 67
     1
  8
FONDPLAN
 10
1242.5604440883969
 20
3652.8137216374139
 30
0.0
  0
SEQEND
  5
17FFA3
 67
     1
  8
FONDPLAN
  0
ARC
  5
17F751
 67
     1
  8
PLATINE
 62
     7
 10
998.11734508830034
 20
3753.998595712058
 30
0.0
 40
3.0
 50
221.81031489577859
 51
138.18968510422141
  0
LINE
  5
17F752
 67
     1
  8
PLATINE
 62
     7
 10
995.57897872927401
 20
3755.9985957120589
 30
0.0
 11
995.88127711080074
 21
3755.9985957120589
 31
0.0
  0
LINE
  5
17F753
 67
     1
  8
PLATINE
 62
     7
 10
995.86736483478626
 20
3751.998595712058
 30
0.0
 11
995.88127711080074
 21
3751.998595712058
 31
0.0
  0
TEXT
  5
17F756
 67
     1
  8
FONDPLAN
 10
1180.9197832956891
 20
3675.8175043045881
 30
0.0
 40
5.0
  1
Z SYSTEME
  7
ZSYS
  0
TEXT
  5
17F757
 67
     1
  8
FONDPLAN
 10
1127.232889086365
 20
3656.2953230944131
 30
0.0
 40
10.0
  1
Nervure Perfo+
  7
ZSYS
  0
LINE
  5
17F758
 67
     1
  8
FONDPLAN
 10
1111.3921272567129
 20
3667.8434246077122
 30
0.0
 11
1241.1941074547331
 21
3667.8434246077122
 31
0.0
  0
LINE
  5
17F759
 67
     1
  8
FONDPLAN
 10
1111.3921272567129
 20
3674.6751077760291
 30
0.0
 11
1241.1941074547331
 21
3674.6751077760291
 31
0.0
  0
LINE
  5
17F75A
 67
     1
  8
FONDPLAN
 10
1241.1941074547331
 20
3681.506790944346
 30
0.0
 11
1111.3921272567129
 21
3681.506790944346
 31
0.0
  0
TEXT
  5
17F75B
 67
     1
  8
FONDPLAN
 10
1116.0187931966791
 20
3675.8175043045881
 30
0.0
 40
5.0
  1
Date: 8/11/99
  7
ZSYS
  0
TEXT
  5
17F75C
 67
     1
  8
FONDPLAN
 10
1130.372834320623
 20
3668.5377329438538
 30
0.0
 40
5.0
  1
Parab'aile
  7
ZSYS
  0
LINE
  5
17F75D
 67
     1
  8
FONDPLAN
 10
1111.3921272567129
 20
3681.506790944346
 30
0.0
 11
1111.3921272567129
 21
3654.1800582710789
 31
0.0
  0
LINE
  5
17F75E
 67
     1
  8
FONDPLAN
 10
1176.2931173557231
 20
3681.506790944346
 30
0.0
 11
1176.2931173557231
 21
3667.8434246077122
 31
0.0
  0
TEXT
  5
17F75F
 67
     1
  8
FONDPLAN
 10
1180.9197832956891
 20
3668.7617775876911
 30
0.0
 40
5.0
  1
Ech 1
  7
ZSYS
  0
LINE
  5
17F769
 67
     1
  8
FONDPLAN
 10
1227.722376959611
 20
3668.5712575163179
 30
0.0
 11
1234.378925006971
 21
3669.6464609865402
 31
0.0
  0
LINE
  5
17F76A
 67
     1
  8
FONDPLAN
 10
1227.722376959611
 20
3673.9472748674239
 30
0.0
 11
1234.378925006971
 21
3672.8720713972029
 31
0.0
  0
LINE
  5
17F76B
 67
     1
  8
FONDPLAN
 10
1213.72678128603
 20
3671.2592661918711
 30
0.0
 11
1237.918859366011
 21
3671.2592661918711
 31
0.0
  0
LINE
  5
17F76C
 67
     1
  8
FONDPLAN
 10
1227.722376959611
 20
3668.5712575163179
 30
0.0
 11
1227.722376959611
 21
3673.9472748674239
 31
0.0
  0
CIRCLE
  5
17F76D
 67
     1
  8
FONDPLAN
 10
1218.336165324486
 20
3671.2592661918711
 30
0.0
 40
2.6880086755534611
  0
LINE
  5
17F76E
 67
     1
  8
FONDPLAN
 10
1218.336165324486
 20
3668.033655781207
 30
0.0
 11
1218.336165324486
 21
3674.4848766025352
 31
0.0
  0
CIRCLE
  5
17F76F
 67
     1
  8
FONDPLAN
 10
1218.336165324486
 20
3671.2592661918711
 30
0.0
 40
1.6128052053320761
  0
LINE
  5
17F770
 67
     1
  8
FONDPLAN
 10
1210.4515331973071
 20
3674.6751077760291
 30
0.0
 11
1210.4515331973071
 21
3667.8434246077122
 31
0.0
  0
LINE
  5
17F771
 67
     1
  8
FONDPLAN
 10
1241.1941074547331
 20
3654.1800582710789
 30
0.0
 11
1241.1941074547331
 21
3681.506790944346
 31
0.0
  0
LINE
  5
17F772
 67
     1
  8
FONDPLAN
 10
1234.378925006971
 20
3669.6464609865402
 30
0.0
 11
1234.378925006971
 21
3672.8720713972029
 31
0.0
  0
LINE
  5
17F773
 67
     1
  8
PLATINE
 62
     7
 10
1209.1473089071551
 20
3742.5025972680378
 30
0.0
 11
1209.147308918328
 21
3769.7408037589162
 31
0.0
  0
TEXT
  5
17F780
 67
     1
  8
FONDPLAN
 10
1073.142837173493
 20
3713.7794466885512
 30
0.0
 40
5.0
  1
Contour de la pièce
  7
ZSYS
  0
DIMENSION
  5
17F78E
 67
     1
  8
CHARIOT
  2
*D39
 10
982.07698251628176
 20
3780.895003712058
 30
0.0
 11
982.07698251628176
 21
3761.6976892120579
 31
0.0
 13
1069.5529370883
 23
3742.5003747120581
 33
0.0
 14
1079.5857920883
 24
3780.895003712058
 34
0.0
 50
90.0
1001
ACAD
1000
DSTYLE
1002
{
1070
    71
1070
     0
1070
    74
1070
     1
1070
    73
1070
     1
1070
    77
1070
     1
1002
}
  0
CIRCLE
  5
17F7A6
 67
     1
  8
CHARIOT
 10
739.65862841142985
 20
3964.1918775581598
 30
0.0
 40
2.5
  0
CIRCLE
  5
17F7AA
 67
     1
  8
CHARIOT
 10
739.65862841142985
 20
3937.6620287272258
 30
0.0
 40
2.5
  0
CIRCLE
  5
17F7BA
 67
     1
  8
CHARIOT
 10
767.65862841142985
 20
3959.6918775581612
 30
0.0
 40
2.5
  0
CIRCLE
  5
17F7BB
 67
     1
  8
CHARIOT
 10
767.65862841142985
 20
3939.6918775581612
 30
0.0
 40
2.5
  0
LINE
  5
17F7BC
 67
     1
  8
CHARIOT
  6
AXES_MOYEN
 10
734.65862841142985
 20
3964.1918775581598
 30
0.0
 11
744.65862841142996
 21
3964.1918775581598
 31
0.0
  0
CIRCLE
  5
17F7C0
 67
     1
  8
CHARIOT
 10
809.65862841142996
 20
3959.6918775581612
 30
0.0
 40
2.5
  0
CIRCLE
  5
17F7C1
 67
     1
  8
CHARIOT
 10
809.65862841142996
 20
3942.6918775581612
 30
0.0
 40
2.5
  0
CIRCLE
  5
17F7C4
 67
     1
  8
CHARIOT
 10
817.65862841142996
 20
3966.6918775581612
 30
0.0
 40
2.5
  0
CIRCLE
  5
17F7C6
 67
     1
  8
CHARIOT
 10
845.65862841142985
 20
3964.4357079795241
 30
0.0
 40
2.5
  0
LINE
  5
17F7C8
 67
     1
  8
CHARIOT
  6
AXES_MOYEN
 10
734.65862841142985
 20
3937.6620287272258
 30
0.0
 11
744.65862841142996
 21
3937.6620287272258
 31
0.0
  0
LINE
  5
17F7CC
 67
     1
  8
CHARIOT
  6
AXES_MOYEN
 10
762.65862841142985
 20
3939.6918775581612
 30
0.0
 11
772.65862841142985
 21
3939.6918775581612
 31
0.0
  0
LINE
  5
17F7CE
 67
     1
  8
CHARIOT
  6
AXES_MOYEN
 10
804.65862841142985
 20
3942.6918775581612
 30
0.0
 11
814.65862841142985
 21
3942.6918775581612
 31
0.0
  0
LINE
  5
17F7D1
 67
     1
  8
CHARIOT
  6
AXES_MOYEN
 10
817.65862841142996
 20
3961.6918775581598
 30
0.0
 11
817.65862841142996
 21
3971.6918775581612
 31
0.0
  0
LINE
  5
17F7D2
 67
     1
  8
CHARIOT
  6
AXES_MOYEN
 10
812.65862841142985
 20
3966.6918775581612
 30
0.0
 11
822.65862841142985
 21
3966.6918775581612
 31
0.0
  0
LINE
  5
17F7D3
 67
     1
  8
CHARIOT
  6
AXES_MOYEN
 10
845.65862841142985
 20
3959.4357079795241
 30
0.0
 11
845.65862841142985
 21
3969.4357079795241
 31
0.0
  0
LINE
  5
17F7D4
 67
     1
  8
CHARIOT
  6
AXES_MOYEN
 10
840.65862841142985
 20
3964.4357079795241
 30
0.0
 11
850.65862841142996
 21
3964.4357079795241
 31
0.0
  0
INSERT
  5
17F873
 67
     1
  8
CHARIOT
  2
STANDARD_Z
 10
638.36088270089056
 20
3924.5367946769161
 30
0.0
  0
LINE
  5
17F874
 67
     1
  8
CHARIOT
  6
AXES_MOYEN
 10
739.65862841142985
 20
3933.1936565581609
 30
0.0
 11
739.65862841142985
 21
3969.1918775581612
 31
0.0
  0
LINE
  5
17F875
 67
     1
  8
CHARIOT
  6
AXES_MOYEN
 10
809.65862841142996
 20
3937.6918775581598
 30
0.0
 11
809.65862841142996
 21
3964.6918775581612
 31
0.0
  0
LINE
  5
17F876
 67
     1
  8
CHARIOT
  6
AXES_MOYEN
 10
767.65862841142985
 20
3934.6918775581612
 30
0.0
 11
767.65862841142985
 21
3964.6918775581612
 31
0.0
  0
LINE
  5
17F877
 67
     1
  8
CHARIOT
  6
AXES_MOYEN
 10
762.65862841142985
 20
3959.6918775581612
 30
0.0
 11
814.65862841142985
 21
3959.6918775581612
 31
0.0
  0
DIMENSION
  5
17F884
 67
     1
  8
CHARIOT
  2
*D42
 10
739.65862841142985
 20
3911.4964724845472
 30
0.0
 11
715.65862841142985
 21
3915.4964724845472
 31
0.0
 12
135.81045690142719
 22
-10.52362984673937
 32
0.0
 13
691.65862841142985
 23
3944.6918775581598
 33
0.0
 14
739.65862841142985
 24
3935.1620287272249
 34
0.0
1001
ACAD
1000
DSTYLE
1002
{
1070
    71
1070
     0
1070
    74
1070
     1
1070
    73
1070
     1
1070
    77
1070
     1
1002
}
  0
DIMENSION
  5
17F891
 67
     1
  8
CHARIOT
  2
*D43
 10
767.65862841142985
 20
3903.8023587728821
 30
0.0
 11
729.65862841142985
 21
3907.8023587728821
 31
0.0
 12
135.81045690142719
 22
-10.52362984673937
 32
0.0
 13
691.65862841142985
 23
3909.696472484547
 33
0.0
 14
767.65862841142985
 24
3934.6918775581612
 34
0.0
1001
ACAD
1000
DSTYLE
1002
{
1070
    71
1070
     0
1070
    74
1070
     1
1070
    73
1070
     1
1070
    77
1070
     1
1002
}
  0
DIMENSION
  5
17F89E
 67
     1
  8
CHARIOT
  2
*D44
 10
809.65862841142996
 20
3895.253344777524
 30
0.0
 11
750.65862841142985
 21
3899.253344777524
 31
0.0
 12
135.81045690142719
 22
-10.52362984673937
 32
0.0
 13
691.65862841142985
 23
3902.0023587728811
 33
0.0
 14
809.65862841142996
 24
3937.6918775581598
 34
0.0
1001
ACAD
1000
DSTYLE
1002
{
1070
    71
1070
     0
1070
    74
1070
     1
1070
    73
1070
     1
1070
    77
1070
     1
1002
}
  0
DIMENSION
  5
17F8AB
 67
     1
  8
CHARIOT
  2
*D45
 10
817.65862841142996
 20
3886.2768791187141
 30
0.0
 11
754.65862841142985
 21
3890.2768791187141
 31
0.0
 12
135.81045690142719
 22
-10.52362984673937
 32
0.0
 13
691.65862841142985
 23
3893.4533447775239
 33
0.0
 14
817.65862841142996
 24
3961.6918775581598
 34
0.0
1001
ACAD
1000
DSTYLE
1002
{
1070
    71
1070
     0
1070
    74
1070
     1
1070
    73
1070
     1
1070
    77
1070
     1
1002
}
  0
DIMENSION
  5
17F8B8
 67
     1
  8
CHARIOT
  2
*D46
 10
845.65862841142985
 20
3876.8729628108572
 30
0.0
 11
768.65862841142985
 21
3880.8729628108572
 31
0.0
 12
135.81045690142719
 22
-10.52362984673937
 32
0.0
 13
691.65862841142985
 23
3884.4768791187139
 33
0.0
 14
845.65862841142985
 24
3959.4357079795241
 34
0.0
1001
ACAD
1000
DSTYLE
1002
{
1070
    71
1070
     0
1070
    74
1070
     1
1070
    73
1070
     1
1070
    77
1070
     1
1002
}
  0
DIMENSION
  5
17F8C7
 67
     1
  8
CHARIOT
  2
*D47
 10
729.46532307160965
 20
3944.6918775581598
 30
0.0
 11
719.33198973827632
 21
3941.1769531426939
 31
0.0
 12
135.81045690142719
 22
-10.52362984673937
 32
0.0
 13
734.65862841142985
 23
3937.6620287272258
 33
0.0
 14
739.65862841142985
 24
3944.6918775581598
 34
0.0
 50
90.0
1001
ACAD
1000
DSTYLE
1002
{
1070
    71
1070
     0
1070
    74
1070
     1
1070
    73
1070
     1
1070
    77
1070
     1
1002
}
  0
DIMENSION
  5
17F8D5
 67
     1
  8
CHARIOT
  2
*D48
 10
731.77308949565054
 20
3964.1918775581598
 30
0.0
 11
731.77308949565054
 21
3954.4418775581598
 31
0.0
 12
135.81045690142719
 22
-10.52362984673937
 32
0.0
 13
739.65862841142985
 23
3944.6918775581598
 33
0.0
 14
734.65862841142985
 24
3964.1918775581598
 34
0.0
 50
90.0
1001
ACAD
1000
DSTYLE
1002
{
1070
    71
1070
     0
1070
    74
1070
     1
1070
    73
1070
     1
1070
    77
1070
     1
1002
}
  0
DIMENSION
  5
17F8E2
 67
     1
  8
CHARIOT
  2
*D49
 10
761.59652729083223
 20
3959.6918775581612
 30
0.0
 11
759.49591549515105
 21
3952.1918775581598
 31
0.0
 12
135.81045690142719
 22
-10.52362984673937
 32
0.0
 70
   128
 13
767.65862841142985
 23
3944.6918775581598
 33
0.0
 14
762.65862841142985
 24
3959.6918775581612
 34
0.0
 50
90.0
1001
ACAD
1000
DSTYLE
1002
{
1070
    71
1070
     0
1070
    74
1070
     1
1070
    73
1070
     1
1070
    77
1070
     1
1002
}
  0
DIMENSION
  5
17F8F1
 67
     1
  8
CHARIOT
  2
*D50
 10
759.99884354925587
 20
3939.6918775581612
 30
0.0
 11
749.86551021592265
 21
3942.1918775581598
 31
0.0
 12
135.81045690142719
 22
-10.52362984673937
 32
0.0
 13
767.65862841142985
 23
3944.6918775581598
 33
0.0
 14
762.65862841142985
 24
3939.6918775581612
 34
0.0
 50
90.0
1001
ACAD
1000
DSTYLE
1002
{
1070
    71
1070
     0
1070
    74
1070
     1
1070
    73
1070
     1
1070
    77
1070
     1
1002
}
  0
DIMENSION
  5
17F90F
 67
     1
  8
CHARIOT
  2
*D51
 10
796.67988132797666
 20
3942.6918775581612
 30
0.0
 11
786.54654799464345
 21
3943.6918775581598
 31
0.0
 12
135.81045690142719
 22
-10.52362984673937
 32
0.0
 13
809.65862841142996
 23
3944.6918775581598
 33
0.0
 14
804.65862841142985
 24
3942.6918775581612
 34
0.0
 50
90.0
1001
ACAD
1000
DSTYLE
1002
{
1070
    71
1070
     0
1070
    74
1070
     1
1070
    73
1070
     1
1070
    77
1070
     1
1002
}
  0
DIMENSION
  5
17F91D
 67
     1
  8
CHARIOT
  2
*D52
 10
837.68710898454242
 20
3944.6918775581598
 30
0.0
 11
837.68710898454242
 21
3951.3774239851741
 31
0.0
 12
135.81045690142719
 22
-10.52362984673937
 32
0.0
 70
   128
 13
840.65862841142985
 23
3964.4357079795241
 33
0.0
 14
845.65862841142985
 24
3944.6918775581598
 34
0.0
 50
90.0
1001
ACAD
1000
DSTYLE
1002
{
1070
    71
1070
     0
1070
    74
1070
     1
1070
    73
1070
     1
1070
    77
1070
     1
1002
}
  0
DIMENSION
  5
17F92B
 67
     1
  8
CHARIOT
  2
*D53
 10
826.14827869951375
 20
3944.6918775581598
 30
0.0
 11
826.14827869951375
 21
3959.8875791994928
 31
0.0
 12
135.81045690142719
 22
-10.52362984673937
 32
0.0
 70
   128
 13
822.65862841142985
 23
3966.6918775581612
 33
0.0
 14
817.65862841142996
 24
3944.6918775581598
 34
0.0
 50
90.0
1001
ACAD
1000
DSTYLE
1002
{
1070
    71
1070
     0
1070
    74
1070
     1
1070
    73
1070
     1
1070
    77
1070
     1
1002
}
  0
DIMENSION
  5
17F95B
 67
     1
  8
CHARIOT
  2
*D54
 10
690.20746959214659
 20
3942.0662084851001
 30
0.0
 11
705.23438856785106
 21
3952.0878994877112
 31
0.0
 12
135.81045690142719
 22
-10.52362984673937
 32
0.0
 70
   131
 15
693.10978723071275
 25
3947.3175466312182
 35
0.0
 40
0.0
1001
ACAD
1000
DSTYLE
1002
{
1070
   288
1070
     1
1070
    71
1070
     0
1070
    74
1070
     1
1070
    73
1070
     1
1070
    77
1070
     1
1002
}
  0
DIMENSION
  5
17F967
 67
     1
  8
CHARIOT
  2
*D55
 10
737.83456490444451
 20
3962.4822599627669
 30
0.0
 11
766.71118387387799
 21
3976.0676424128619
 31
0.0
 12
135.81045690142719
 22
-10.52362984673937
 32
0.0
 70
   131
  1
(8x) <>
 15
741.48269191841655
 25
3965.901495153556
 35
0.0
 40
0.0
1001
ACAD
1000
DSTYLE
1002
{
1070
   288
1070
     1
1070
    71
1070
     0
1070
    74
1070
     1
1070
    73
1070
     1
1070
    77
1070
     1
1002
}
  0
DIMENSION
  5
17F974
 67
     1
  8
CHARIOT
  2
*D56
 10
943.259213226101
 20
3944.6918775581598
 30
0.0
 11
931.12587989276778
 21
3938.943878336152
 31
0.0
 12
135.81045690142719
 22
-10.52362984673937
 32
0.0
 13
902.68859223376944
 23
3933.1958791141428
 33
0.0
 14
943.95966398740666
 24
3944.6918775581598
 34
0.0
 50
90.0
1001
ACAD
1000
DSTYLE
1002
{
1070
    71
1070
     0
1070
    74
1070
     1
1070
    73
1070
     1
1070
    77
1070
     1
1002
}
  0
ENDSEC
  0
EOF
